#TITLE:So What;
#SUBTITLE:;
#ARTIST:P!nk;
#TITLETRANSLIT:;
#SUBTITLETRANSLIT:;
#ARTISTTRANSLIT:;
#GENRE:;
#CREDIT:;
#MUSIC:So What.mp3;
#BANNER:;
#BACKGROUND:;
#CDTITLE:;
#SAMPLESTART:30.212;
#SAMPLELENGTH:12.000;
#SELECTABLE:YES;
#OFFSET:1.693;
#BPMS:0.000=126.000;
#STOPS:;
#BGCHANGES:;
#FGCHANGES:;

//--------------- dance-single - RaverAce ----------------
#NOTES:
     dance-single:
     RaverAce:
     Beginner:
     1:
     0,0,0,0,0:
0000
0000
0000
0000
,
0000
0000
0000
0000
,
0000
0000
0000
0000
,
0000
0000
0000
0000
,
0000
0000
0000
0000
,
0001
0000
0000
0000
,
0000
0000
0000
0000
,
1000
0000
0000
0000
,
0000
0000
0000
0000
,
0001
0000
0000
0000
,
0000
0000
0000
0000
,
1000
0000
0000
0000
,
0000
0000
0000
0000
,
0010
0000
0000
0000
,
0000
0000
0000
0000
,
0100
0000
0000
0000
,
0000
0000
0000
0000
,
0001
0000
0000
0000
,
0001
0000
0000
0000
,
1000
0000
0000
0000
,
1000
0000
0000
0000
,
0100
0000
0000
0000
,
0100
0000
0000
0000
,
0010
0000
0000
0000
,
0010
0000
0000
0000
,
0001
0000
0000
0000
,
0001
0000
0000
0000
,
0100
0000
0000
0000
,
0100
0000
0000
0000
,
0010
0000
0000
0000
,
0010
0000
0000
0000
,
1000
0000
0000
0000
,
0001
0000
1000
0000
,
0001
0000
0000
0000
,
0000
0000
0000
0000
,
1000
0000
0000
0000
,
0000
0000
0000
0000
,
0001
0000
0000
0000
,
0000
0000
0000
0000
,
1000
0000
0000
0000
,
0000
0000
0000
0000
,
0001
0000
0000
0000
,
0000
0000
0000
0000
,
0010
0000
0000
0000
,
0000
0000
0000
0000
,
0100
0000
0000
0000
,
0000
0000
0000
0000
,
1000
0000
0000
0000
,
1000
0000
0000
0000
,
0001
0000
0000
0000
,
0001
0000
0000
0000
,
0100
0000
0000
0000
,
0100
0000
0000
0000
,
0010
0000
0000
0000
,
0010
0000
0000
0000
,
1000
0000
0000
0000
,
1000
0000
0000
0000
,
0100
0000
0000
0000
,
0100
0000
0000
0000
,
0010
0000
0000
0000
,
0010
0000
0000
0000
,
0001
0000
0000
0000
,
1000
0000
0001
0000
,
1000
0000
0000
0000
;

//--------------- dance-single - RaverAce ----------------
#NOTES:
     dance-single:
     RaverAce:
     Easy:
     3:
     0,0,0,0,0:
0000
0000
0000
0000
,
0000
0000
0000
0000
,
0000
0000
0000
0000
,
0000
0000
0000
0000
,
0000
0000
0000
0000
,
1000
0000
0000
0000
,
0010
0000
0010
0000
,
0100
0000
0000
0000
,
0001
0000
0001
0000
,
1000
0000
0000
0000
,
0100
0000
1000
0000
,
0001
0000
0000
0000
,
0100
0000
0001
0000
,
1000
0000
0000
0000
,
1000
0000
1000
0000
,
0001
0000
0000
0000
,
1000
0000
0000
0000
,
1001
0000
0000
0000
,
1000
0000
0000
0000
,
0001
0000
0000
0000
,
0100
0000
0100
0000
,
0010
0000
0000
0000
,
1000
0000
0000
0000
,
0100
0000
0000
0000
,
0010
0000
0010
0000
,
0001
0000
0000
0000
,
0001
0000
0000
0000
,
1000
0000
0000
0000
,
1000
0000
1000
0000
,
0001
0000
0000
0000
,
0100
0000
0000
0000
,
0010
0000
0000
0000
,
1000
0000
1000
0000
,
0001
0000
0000
0000
,
0000
0000
0000
0000
,
1000
0000
0000
0000
,
1000
0000
0001
0000
,
0100
0000
0000
0000
,
0100
0000
0010
0000
,
1000
0000
0000
0000
,
0001
0000
0010
0000
,
0100
0000
0000
0000
,
0010
0000
0001
0000
,
1000
0000
0000
0000
,
0100
0000
0100
0000
,
1000
0000
0000
0000
,
0001
0000
0000
0000
,
1001
0000
0000
0000
,
0001
0000
0000
0000
,
1000
0000
0000
0000
,
0100
0000
0100
0000
,
0010
0000
0000
0000
,
0001
0000
0000
0000
,
0100
0000
0000
0000
,
0010
0000
0010
0000
,
1000
0000
0000
0000
,
1000
0000
0000
0000
,
0001
0000
0000
0000
,
0001
0000
0001
0000
,
1000
0000
0000
0000
,
0100
0000
0000
0000
,
0010
0000
0000
0000
,
0001
0000
0001
0000
,
1000
0000
0000
0000
;

//--------------- dance-single - RaverAce ----------------
#NOTES:
     dance-single:
     RaverAce:
     Medium:
     7:
     0,0,0,0,0:
0000
0000
0000
0000
,
0000
0000
0000
0000
,
0000
0000
0000
0000
,
0000
0000
0000
0000
,
0000
0000
0000
0000
,
0001
0000
0001
0100
,
0010
1000
0010
0000
,
1000
0000
0100
0000
,
1000
0010
0100
0000
,
0001
0000
0010
0000
,
0100
0010
0001
0000
,
0100
0000
0010
0000
,
1000
0010
0100
0000
,
0001
0001
1000
1000
,
0100
1000
0001
0000
,
1000
1000
0001
0001
,
0100
0010
0100
0001
,
1001
0000
0000
1000
0000
0000
0000
0000
1000
0100
0000
1000
,
0001
0000
0000
0010
0000
0000
0000
0000
0001
1000
0000
0001
,
0100
0000
0000
0010
0000
0000
0000
0000
0010
0100
0000
0001
,
2000
0000
0000
0000
0000
0000
3200
0000
0000
0000
0000
1300
,
0001
0000
0000
0100
0000
0000
0000
0000
0001
0010
0000
0001
,
1000
0000
0000
0001
0000
0000
0000
0000
1000
0100
0000
1000
,
0010
0000
0000
0100
0000
0000
0000
0000
0100
0001
0000
1000
,
0200
0000
0000
0000
0000
0000
2300
0000
0000
3001
0000
1000
,
0001
0000
0000
0001
0000
0000
0001
0000
0001
0100
0000
0001
,
1000
0000
0000
1000
0000
0000
1000
0000
1000
0100
0000
1000
,
0010
0000
0000
0010
0000
0000
0010
0000
0010
0100
0000
0100
,
0002
0000
0000
1003
0000
0000
2000
0000
0000
3001
0000
0001
,
1000
0000
0000
0100
0000
0000
1000
0000
1000
0010
0000
0010
,
0100
0000
0000
0001
0000
0000
0010
0000
0010
0001
0000
0001
,
1000
0000
0000
0010
0000
0000
1000
0000
0100
1000
0000
1000
,
0001
0000
0000
0100
0000
0000
0001
0000
0010
0001
0000
1000
,
0001
1000
0000
1000
,
0000
1000
0000
1000
,
0010
1000
0100
1000
,
0010
0100
0001
0000
,
1000
0100
0001
0100
,
1000
0010
0100
0000
,
0001
0010
0100
1000
,
0010
0100
0001
0000
,
1000
0010
0001
0010
,
1000
0100
1000
0000
,
0001
0100
0010
0100
,
0001
0001
1000
0000
,
1000
0100
0010
0100
,
1000
0001
1000
0001
,
1001
0000
0000
0001
0000
0000
0000
0000
0001
0100
0000
0001
,
1000
0000
0000
0010
0000
0000
0000
0000
1000
0001
0000
1000
,
0100
0000
0000
0010
0000
0000
0000
0000
0010
0100
0000
1000
,
0002
0000
0000
0000
0000
0000
0203
0000
0000
0000
0000
0301
,
1000
0000
0000
0100
0000
0000
0000
0000
1000
0010
0000
1000
,
0001
0000
0000
1000
0000
0000
0000
0000
0001
0100
0000
0001
,
0010
0000
0000
0100
0000
0000
0000
0000
0100
1000
0000
0001
,
0200
0000
0000
0000
0000
0000
0302
0000
0000
1003
0000
0001
,
1000
0000
0000
1000
0000
0000
1000
0000
1000
0100
0000
1000
,
0001
0000
0000
0001
0000
0000
0001
0000
0001
0100
0000
0001
,
0010
0000
0000
0010
0000
0000
0010
0000
0010
0100
0000
0100
,
2000
0000
0000
3001
0000
0000
0002
0000
0000
1003
0000
1000
,
0001
0000
0000
0100
0000
0000
0001
0000
0001
0010
0000
0010
,
0100
0000
0000
1000
0000
0000
0010
0000
0010
1000
0000
1000
,
0001
0000
0000
0010
0000
0000
0001
0000
0100
0001
0000
0001
,
1000
0000
0000
0100
0000
0000
1000
0000
0010
1000
0000
0001
,
1000
0000
0000
0000
;

//--------------- dance-single - RaverAce ----------------
#NOTES:
     dance-single:
     RaverAce:
     Hard:
     12:
     0,0,0,0,0:
0000
0000
0000
0000
,
0000
0000
0000
0000
,
0000
0000
0000
0000
,
0000
0000
0000
0000
,
0000
0000
0000
0000
,
1000
0100
0010
0001
0000
0001
0100
0000
0100
0001
0000
0000
,
1000
0010
0100
0001
0000
0010
0001
0000
0001
1000
0000
1000
,
0001
0100
0010
1000
0000
1000
0100
0000
0100
1000
0000
0000
,
0001
0010
0100
1000
0000
0010
1000
0000
1000
0001
0000
0001
,
1000
0010
0100
0001
0000
0001
0010
0000
0010
0100
0000
0100
,
0010
0001
1000
0100
0000
0100
1000
0000
0001
1000
0000
0000
,
0001
0010
0100
1000
0000
1000
0010
0000
0010
0100
0000
0100
,
0010
1000
0001
0100
0000
0100
0001
0000
1000
0001
0000
0000
,
1000
0100
0001
0100
0000
0100
1000
0000
1000
0010
0000
0000
,
1000
0100
0001
0100
0000
0100
1000
0000
0001
1000
0000
0000
,
0001
0100
1000
0100
0000
0100
0010
0000
0010
0100
0000
0000
,
0001
1000
0001
1000
0000
0001
2000
0000
0000
3001
0000
0000
,
1001
0000
0001
0010
0000
0010
1000
0000
1000
0010
0000
0010
,
0100
0000
0100
1000
0000
1000
0001
0000
0001
0100
0000
0100
,
0010
0000
0010
1000
0000
1000
0100
0000
0100
1000
0000
1000
,
0002
0000
0000
0103
0000
0000
1000
0000
1000
0100
0000
0100
,
0001
0000
1000
0010
0000
0010
0001
0000
0001
0010
0000
0010
,
0100
0000
0100
0001
0000
0001
1000
0000
1000
0100
0000
0100
,
0010
0000
0010
0001
0000
0001
0100
0000
0100
0001
0000
0001
,
2000
0000
0000
3100
0000
0000
0001
0000
0001
0100
0000
0100
,
1000
0010
0100
0001
1000
0010
0100
0001
1000
0010
0000
0010
,
1000
0100
0010
0001
1000
0100
0010
0001
1000
0010
0000
1000
,
0001
0010
0100
1000
0001
0010
0100
1000
0001
0010
0000
0010
,
0002
0000
0000
0103
0000
0100
0010
0000
0010
1000
0000
0000
,
1001
0000
0001
0100
0000
0100
1000
0000
1000
0100
0000
0100
,
0010
0000
0010
1000
0000
1000
0100
0000
0100
0010
0000
0010
,
0001
0000
0001
0010
0000
0010
1000
0000
1000
0010
0000
0010
,
0002
0000
0000
1003
0000
0000
1000
0010
0100
0001
0000
1000
,
0001
0000
0000
1000
0000
0000
0000
0000
0001
1000
0000
1000
,
0001
0000
0000
1000
0000
0001
0000
0000
0001
1000
0000
0000
,
0001
0010
0100
1000
0000
0010
0100
0000
0000
0001
0000
0000
,
1000
0100
0010
0001
0100
0010
1000
0000
0001
1000
0000
1000
,
0001
0010
0100
1000
0010
0100
0001
0000
0001
1000
0000
1000
,
0100
0010
0100
1000
0010
0100
0001
0000
1000
0001
0000
0001
,
1000
0010
0100
0001
1000
0100
0010
0000
0010
0001
0000
1000
,
0001
0100
0010
1000
0100
0010
0001
0000
1000
0001
0000
0001
,
1000
0010
0100
0001
0010
0100
1000
0000
1000
0001
0000
0001
,
0100
0010
0100
0001
0010
0100
1000
0000
0001
1000
0000
0000
,
0001
0100
1000
0100
0000
0100
0001
0000
0001
0010
0000
0000
,
0001
0100
1000
0100
0000
0100
0001
0000
1000
0001
0000
0000
,
1000
0100
0001
0100
0000
0100
0010
0000
0010
0100
0000
0000
,
1000
0001
1000
0001
0000
0001
1000
0010
0100
0001
0010
0001
,
1001
0000
1000
0010
0000
0010
0001
0000
0001
0010
0000
0010
,
0100
0000
0100
0001
0000
0001
1000
0000
1000
0100
0000
0100
,
0010
0000
0010
0001
0000
0001
0100
0000
0100
0001
0000
0001
,
2000
0000
0000
3100
0000
0000
0001
0000
0001
0100
0000
0100
,
1000
0000
0001
0010
0000
0010
1000
0000
1000
0010
0000
0010
,
0100
0000
0100
1000
0000
1000
0001
0000
0001
0100
0000
0100
,
0010
0000
0010
1000
0000
1000
0100
0000
0100
1000
0000
1000
,
0002
0000
0000
0103
0000
0000
1000
0000
1000
0100
0000
0100
,
0001
0010
0100
1000
0001
0010
0100
1000
0001
0010
0000
0010
,
0001
0100
0010
1000
0001
0100
0010
1000
0001
0010
0000
0001
,
1000
0010
0100
0001
1000
0010
0100
0001
1000
0010
0000
0010
,
2000
0000
0000
3100
0000
0100
0010
0000
0010
0001
0000
0000
,
1001
0000
1000
0100
0000
0100
0001
0000
0001
0100
0000
0100
,
0010
0000
0010
0001
0000
0001
0100
0000
0100
0010
0000
0010
,
1000
0000
1000
0010
0000
0010
0001
0000
0001
0010
0000
0010
,
2000
0000
0000
3001
0000
0000
0001
0010
0100
1000
0000
0001
,
1000
0000
0000
0000
;
