#TITLE:Sleepyhead;
#SUBTITLE:;
#ARTIST:Passion Pit;
#TITLETRANSLIT:;
#SUBTITLETRANSLIT:;
#ARTISTTRANSLIT:;
#GENRE:;
#CREDIT:;
#BANNER:;
#BACKGROUND:;
#LYRICSPATH:;
#CDTITLE:;
#MUSIC:Sleepyhead.mp3;
#OFFSET:-0.130;
#SAMPLESTART:67.244;
#SAMPLELENGTH:12.000;
#SELECTABLE:YES;
#BPMS:0.000=106.000;
#STOPS:;
#BGCHANGES:-0.130=Sleepyhead.mp4=1.000=1=0=0=StretchNoLoop==CrossFade==,;
#KEYSOUNDS:;

//---------------dance-single - J. Frederick----------------
#NOTES:
     dance-single:
     J. Frederick:
     Beginner:
     1:
     0.064,0.000,0.062,0.000,0.000: // measure 1
0000
0000
0000
0000
,  // measure 2
0000
0000
0000
0000
,  // measure 3
0000
0000
0000
0000
,  // measure 4
0000
0000
0000
0000
,  // measure 5
0000
0001
0000
0000
,  // measure 6
0000
1000
0000
0000
,  // measure 7
0000
0010
0000
0000
,  // measure 8
0000
0100
0000
0000
,  // measure 9
0000
0001
0000
0000
,  // measure 10
0000
1000
0000
0000
,  // measure 11
0000
1001
0000
0000
,  // measure 12
0000
0100
0000
0000
,  // measure 13
0000
0010
0000
0000
,  // measure 14
0000
0001
0000
0000
,  // measure 15
0000
1000
0000
0000
,  // measure 16
0000
0010
0000
0000
,  // measure 17
0000
0100
0000
0000
,  // measure 18
0000
0001
0000
0000
,  // measure 19
0000
1001
0000
0000
,  // measure 20
0000
0000
0000
0000
,  // measure 21
0000
0110
0000
0000
,  // measure 22
0000
0000
0000
0000
,  // measure 23
0000
1001
0000
0000
,  // measure 24
0000
0000
0000
0000
,  // measure 25
0000
0110
0000
0000
,  // measure 26
0000
0000
0000
0000
,  // measure 27
0000
0100
0000
0000
,  // measure 28
0000
1000
0000
0000
,  // measure 29
0000
0001
0000
0000
,  // measure 30
0000
0100
0000
0000
,  // measure 31
0000
0010
0000
0010
,  // measure 32
0000
0010
0000
0000
,  // measure 33
0000
0100
0000
0100
,  // measure 34
0000
0100
0000
0000
,  // measure 35
0000
0001
0000
0000
,  // measure 36
0000
1000
0000
0000
,  // measure 37
0000
0100
0000
0000
,  // measure 38
0000
0010
0000
0000
,  // measure 39
0000
0001
0000
0000
,  // measure 40
0000
1000
0000
0000
,  // measure 41
0000
0010
0000
0000
,  // measure 42
0000
0100
0000
0000
,  // measure 43
0000
0110
0000
0000
,  // measure 44
0000
0000
0000
0000
,  // measure 45
0000
1001
0000
0000
,  // measure 46
0000
0000
0000
0000
,  // measure 47
0000
0001
0000
0000
,  // measure 48
0000
1000
0000
0000
,  // measure 49
0000
0100
0000
0000
,  // measure 50
0000
0010
0000
0000
,  // measure 51
0000
0001
0000
0000
,  // measure 52
0000
1000
0000
0000
,  // measure 53
0000
0010
0000
0000
,  // measure 54
0000
0100
0000
0000
,  // measure 55
0000
0001
0000
0001
,  // measure 56
0000
0001
0000
0000
,  // measure 57
0000
1000
0000
1000
,  // measure 58
0000
1000
0000
0000
,  // measure 59
0000
0000
0000
0000
,  // measure 60
0000
1001
0000
0000
,  // measure 61
0000
0010
0000
0000
,  // measure 62
0000
0100
0000
0000
,  // measure 63
0000
0001
0000
0000
,  // measure 64
0000
0010
0000
0000
,  // measure 65
0000
0100
0000
0000
,  // measure 66
0000
1000
0000
0000
,  // measure 67
0000
0001
0000
0000
,  // measure 68
1001
0000
0000
0000
,  // measure 69
0000
0000
0000
0000
,  // measure 70
1001
0000
0000
0000
;

//---------------dance-single - J. Frederick----------------
#NOTES:
     dance-single:
     J. Frederick:
     Medium:
     6:
     0.279,0.000,0.081,0.212,0.003: // measure 1
0000
0000
0000
0000
,  // measure 2
0000
0000
0000
0000
,  // measure 3
0000
0000
0000
0000
,  // measure 4
0000
0000
0000
0000
,  // measure 5
0000
0000
1000
0000
0001
0100
0010
0000
,  // measure 6
0100
0001
1000
0100
,  // measure 7
0010
0000
0001
0000
1000
0001
0100
0000
,  // measure 8
0010
1000
0100
1000
,  // measure 9
0001
0000
0010
0000
0100
1000
0001
0000
,  // measure 10
0100
0000
0010
0000
1000
0001
0010
0000
,  // measure 11
0100
2200
3300
0202
,  // measure 12
0303
0000
0001
0100
0001
0000
1000
0010
,  // measure 13
1000
2020
3030
0022
,  // measure 14
0033
0010
0100
1000
,  // measure 15
0001
2002
3003
0220
,  // measure 16
0330
0000
0010
0100
0010
0000
1000
0001
,  // measure 17
1000
0022
0033
2200
,  // measure 18
3300
0100
1000
0001
,  // measure 19
0100
0010
1000
0000
0001
0000
0000
0000
,  // measure 20
1000
0000
0100
0000
,  // measure 21
0010
0000
0001
0000
,  // measure 22
1000
0000
0010
0000
,  // measure 23
0100
0001
1000
0000
,  // measure 24
0100
0000
1000
0000
,  // measure 25
0010
0000
0100
0000
,  // measure 26
0001
0000
1000
0000
,  // measure 27
0100
1000
0001
0100
,  // measure 28
0010
0100
0001
1000
,  // measure 29
0100
0010
0001
1000
,  // measure 30
0010
0001
0010
1000
,  // measure 31
0100
0020
0000
0032
,  // measure 32
0000
2000
3003
1001
,  // measure 33
0110
0020
0000
2030
,  // measure 34
0000
0002
0000
0000
,  // measure 35
3003
0000
1000
0001
1000
0001
1000
0001
,  // measure 36
1000
0000
0001
0100
0001
0100
0001
0100
,  // measure 37
0001
0000
1000
0010
1000
0010
1000
0010
,  // measure 38
1000
0000
0001
0010
0001
0010
0001
0010
,  // measure 39
0001
0000
1000
0100
1000
0100
1000
0100
,  // measure 40
1000
0000
0001
0100
0001
0100
0001
0100
,  // measure 41
0001
0000
0010
0100
0010
0100
0010
0100
,  // measure 42
0010
0000
0001
1000
0001
1000
0001
1000
,  // measure 43
0001
0000
0100
0000
,  // measure 44
0010
0000
0000
0000
0000
0000
0000
1000
0000
0000
0000
0000
0000
0000
0000
0000
,  // measure 45
0001
0000
0010
0000
,  // measure 46
0100
0000
1000
0000
,  // measure 47
0001
1000
0100
0000
,  // measure 48
0010
0000
0001
0000
,  // measure 49
1000
0000
0010
0000
,  // measure 50
0100
0000
0001
0000
,  // measure 51
0100
0010
1000
0001
,  // measure 52
0010
0001
0100
0010
,  // measure 53
1000
0100
1000
0001
,  // measure 54
0010
0001
0100
0010
,  // measure 55
1000
0002
0000
0203
,  // measure 56
0000
0020
0330
0110
,  // measure 57
1001
2000
0000
3200
,  // measure 58
0000
0020
0000
0000
,  // measure 59
0330
0010
0100
2002
,  // measure 60
3003
0000
0001
1000
0001
1000
0001
1000
,  // measure 61
0001
0000
0100
0001
0100
0001
0100
0001
,  // measure 62
0100
0000
0010
1000
0010
1000
0010
1000
,  // measure 63
0010
0000
1000
0100
1000
0100
1000
0100
,  // measure 64
1000
0000
0001
0010
0001
0010
0001
0010
,  // measure 65
0001
0000
0100
0001
0100
0001
0100
0001
,  // measure 66
0100
0000
0010
1000
0010
1000
0010
1000
,  // measure 67
0010
0000
1000
0001
1000
0001
1000
0001
,  // measure 68
2000
0000
3002
0000
,  // measure 69
0103
0000
0010
1000
0001
0000
0000
0000
,  // measure 70
2000
0000
3002
0000
,  // measure 71
0013
0000
0100
1000
0001
0000
0000
0000
;

//---------------dance-single - J. Frederick----------------
#NOTES:
     dance-single:
     J. Frederick:
     Easy:
     2:
     0.154,0.000,0.006,0.187,0.000: // measure 1
0000
0000
0000
0000
,  // measure 2
0000
0000
0000
0000
,  // measure 3
0000
0000
0000
0000
,  // measure 4
0000
0000
0000
0000
,  // measure 5
0000
1000
0001
0010
,  // measure 6
0000
0001
0000
1000
,  // measure 7
0000
0010
1000
0100
,  // measure 8
0000
0010
0000
0001
,  // measure 9
0000
0100
0001
1000
,  // measure 10
0000
0010
0100
0010
,  // measure 11
0000
1000
0001
0000
,  // measure 12
0010
0000
0100
0000
,  // measure 13
1000
0000
0001
0000
,  // measure 14
0100
0000
0010
0000
,  // measure 15
1000
0000
0001
0000
,  // measure 16
1000
0000
0100
0000
,  // measure 17
0010
0000
0001
0000
,  // measure 18
0100
0000
0010
0000
,  // measure 19
1000
0002
0000
0003
,  // measure 20
0000
1000
0000
0001
,  // measure 21
0000
0020
0000
0030
,  // measure 22
0000
0100
0000
1000
,  // measure 23
0000
0002
0000
0003
,  // measure 24
0000
0100
0000
0010
,  // measure 25
0000
2000
0000
3000
,  // measure 26
0000
0001
0000
0010
,  // measure 27
0000
0100
0010
0100
,  // measure 28
0000
1000
0000
0001
,  // measure 29
0000
0100
0001
0100
,  // measure 30
0000
0001
0000
1000
,  // measure 31
0001
0020
0030
0200
,  // measure 32
0300
2000
3000
0001
,  // measure 33
1000
0002
0003
0200
,  // measure 34
0300
0020
0000
0030
,  // measure 35
0000
0100
0000
0010
,  // measure 36
0000
1000
0000
0001
,  // measure 37
1000
0001
0000
0010
,  // measure 38
0000
0100
0000
0010
,  // measure 39
0100
0010
0000
0001
,  // measure 40
0000
1000
0000
0001
,  // measure 41
1000
0100
0000
0010
,  // measure 42
0000
0001
0000
1000
,  // measure 43
0002
0000
0000
0003
,  // measure 44
0000
2000
0000
3000
,  // measure 45
0000
0020
0000
0030
,  // measure 46
0000
0200
0000
0300
,  // measure 47
0000
0002
0000
0003
,  // measure 48
0000
2000
0000
3000
,  // measure 49
0000
0200
0000
0300
,  // measure 50
0000
0020
0000
0030
,  // measure 51
0000
0001
0010
0001
,  // measure 52
0000
0010
0000
0100
,  // measure 53
0000
1000
0100
1000
,  // measure 54
0000
0001
0000
0100
,  // measure 55
0001
0200
0300
0020
,  // measure 56
0030
2000
3000
0001
,  // measure 57
1000
0002
0003
0020
,  // measure 58
0030
0200
0000
0000
,  // measure 59
0300
0010
0100
0220
,  // measure 60
0330
0010
0000
0100
,  // measure 61
0000
1000
0000
0001
,  // measure 62
1000
0001
0000
0100
,  // measure 63
0000
0010
0000
1000
,  // measure 64
0001
1000
0000
0100
,  // measure 65
0000
0010
0000
0001
,  // measure 66
0010
0001
0000
1000
,  // measure 67
0000
0010
0000
0100
,  // measure 68
0020
0030
2000
3000
,  // measure 69
0001
1000
0001
0000
,  // measure 70
0020
0030
0002
0003
,  // measure 71
1000
0001
1000
0000
;

//---------------dance-single - J. Frederick----------------
#NOTES:
     dance-single:
     J. Frederick:
     Hard:
     9:
     0.420,0.000,0.112,0.243,0.143: // measure 1
0000
0000
0000
0000
,  // measure 2
0000
0000
0000
0000
,  // measure 3
0000
0000
0000
0000
,  // measure 4
0000
0000
0000
0000
,  // measure 5
0000
0000
2000
0000
3001
0100
0020
0000
,  // measure 6
0130
0000
0010
0000
0100
0000
0001
1000
0001
0000
1000
0000
0100
0000
0010
0000
,  // measure 7
0001
1000
0200
0000
1300
0001
0200
0000
,  // measure 8
0310
0000
1000
0000
0001
0000
0010
0000
0100
0000
1000
0001
1000
0000
0001
0000
,  // measure 9
0100
0010
2000
0000
3010
0100
0002
0000
,  // measure 10
0013
0100
1000
0001
0100
0010
1000
0001
,  // measure 11
1001
0000
0000
0000
1000
0001
1000
0000
0001
0000
0000
0000
0100
0001
0100
0000
,  // measure 12
0010
0000
0000
0000
1000
0100
1000
0000
0100
0000
0010
0000
0001
0000
1000
0000
,  // measure 13
1000
0000
0000
0000
0001
0010
0001
0000
0100
0000
0000
0000
0010
1000
0010
0000
,  // measure 14
0100
0000
0000
0000
0001
1000
0001
0000
0010
0000
0100
0000
1000
0000
0001
0000
,  // measure 15
0001
0000
0000
0000
1000
0100
1000
0000
0001
0000
0000
0000
0010
0001
0010
0000
,  // measure 16
0100
0000
0000
0000
1000
0001
1000
0000
0001
0000
0000
0000
0100
0000
0010
0000
,  // measure 17
0010
0000
0100
0000
0010
1000
0010
0000
0100
0000
0000
0000
0001
0010
0001
0000
,  // measure 18
1000
0000
0000
0000
0100
0010
0100
0000
1000
0000
0001
0000
0100
0000
0010
0000
,  // measure 19
0010
1000
0001
0000
0011
0000
0000
0000
,  // measure 20
1100
0000
0101
0000
,  // measure 21
1001
0000
1010
0000
,  // measure 22
0011
0000
0110
0000
,  // measure 23
1001
0000
0101
0000
,  // measure 24
1010
0000
1100
0000
,  // measure 25
0011
0000
0110
0000
,  // measure 26
1001
0000
0101
0000
,  // measure 27
1010
0000
1000
0010
0100
0010
0001
0010
,  // measure 28
0100
0010
1000
0001
0010
0100
1000
0001
,  // measure 29
1000
0000
0001
0100
0010
0100
1000
0100
,  // measure 30
0010
0100
0001
0010
0100
1000
0001
0100
,  // measure 31
0010
1000
0200
0000
0310
0001
2000
0000
,  // measure 32
3001
0100
0020
0000
1000
0000
0001
0000
,  // measure 33
0230
0000
0302
0000
0013
0100
2000
0000
,  // measure 34
3001
0100
0020
0000
1000
0000
0001
0000
,  // measure 35
0200
0000
0000
0000
0330
0000
0100
0010
0100
0000
0010
0000
1000
0000
0001
0100
,  // measure 36
0001
0000
0000
0000
0010
0000
0001
0010
0001
0000
0010
0000
0100
1000
0100
0000
,  // measure 37
1000
0000
0000
0000
0001
0000
0100
0001
0100
0000
0001
0000
1000
0000
0010
1000
,  // measure 38
0010
0000
0000
0000
1000
0000
0001
0010
0001
0000
1000
0000
0100
1000
0100
0000
,  // measure 39
1000
0000
0000
0000
0100
0000
0010
0001
0100
0000
0010
0000
1000
0000
0100
1000
,  // measure 40
0001
0000
0000
0000
0100
0000
0001
1000
0010
0000
0100
0000
0010
1000
0001
0000
,  // measure 41
0010
0000
0000
0000
0100
0000
0010
0001
1000
0000
0100
0000
1000
0000
0001
0100
,  // measure 42
0010
0000
0000
0000
0100
0000
0010
1000
0001
0000
0010
0000
0100
1000
0001
0000
,  // measure 43
0100
0010
2000
0000
3000
0000
0002
0000
,  // measure 44
0003
0000
1000
0001
0100
0010
2000
0000
,  // measure 45
3000
0200
0300
0020
,  // measure 46
0030
0000
0001
0010
0100
1000
0002
0000
,  // measure 47
0003
0200
0300
0020
,  // measure 48
0030
0000
1000
0010
0100
0001
2000
0000
,  // measure 49
3000
0002
0003
0200
,  // measure 50
0300
0000
0010
0100
0001
1000
0200
0000
,  // measure 51
0300
0000
0010
0001
0010
0100
0010
1000
,  // measure 52
0010
0100
0010
0001
0100
0010
1000
0001
,  // measure 53
1000
0000
0001
0100
0010
0100
1000
0100
,  // measure 54
0010
0100
0001
1000
0100
0010
0001
1000
,  // measure 55
0100
1000
0002
0000
0103
0010
2000
0000
,  // measure 56
3100
0010
0002
0000
0010
0000
1000
0000
,  // measure 57
0203
0000
0320
0000
1030
0100
0020
0000
,  // measure 58
0031
1000
0020
0000
1000
0000
0001
0000
,  // measure 59
1000
0001
1000
0200
,  // measure 60
0000
0330
0000
0000
0110
0000
0100
0000
0010
0000
1000
0000
0001
0100
0010
1000
,  // measure 61
0001
0000
0000
0000
0010
0000
0100
0000
1000
0000
0001
0000
0010
0100
1000
0001
,  // measure 62
0100
0000
0000
0000
0001
0000
0100
0000
0010
0000
1000
0000
0100
1000
0010
0100
,  // measure 63
0001
0000
0000
0000
0010
0000
0001
0000
0100
0000
0001
0000
1000
0100
0010
0001
,  // measure 64
1000
0000
0000
0000
0100
0000
1000
0000
0001
0000
0100
0000
0010
0100
0001
1000
,  // measure 65
0010
0000
0000
0000
0100
0000
0001
0000
1000
0000
0100
0000
0010
0001
1000
0100
,  // measure 66
1000
0000
0000
0000
0100
0000
1000
0000
0001
0000
0100
0000
0010
0000
0100
0001
,  // measure 67
1000
0100
0000
0000
0010
0000
0001
0000
0100
0000
0010
0000
0100
0001
1000
0100
,  // measure 68
0020
0000
0032
0000
,  // measure 69
1003
0010
0100
0001
0020
0000
0000
0000
,  // measure 70
0230
0000
2300
0000
,  // measure 71
3001
0100
0010
1000
0001
0000
0000
0000
;
