#TITLE:SORA-TAKASHI;
#SUBTITLE:;
#ARTIST:;
#TITLETRANSLIT:;
#SUBTITLETRANSLIT:;
#ARTISTTRANSLIT:;
#GENRE:;
#CREDIT:;
#MUSIC:SORA-TAKASHI.ogg;
#BANNER:SORA-TAKASHI-bn.png;
#BACKGROUND:;
#CDTITLE:;
#SAMPLESTART:0.000;
#SAMPLELENGTH:0.000;
#SELECTABLE:YES;
#OFFSET:-0.735;
#BPMS:0.000=82.619
,25.000=85.619
,27.000=71.110
,28.000=61.110
,29.000=53.110
,29.500=54.110
,30.000=121.900
,44.000=125.620
;
#STOPS:;
#BGCHANGES:;
#FGCHANGES:;

//--------------- dance-single - ----------------
#NOTES:
     dance-single:
     :
     Easy:
     5:
     0,0,0,0,0:
0000
0000
0000
0000
,
0000
0000
0001
0000
,
0010
0000
0100
0000
,
0010
0000
0100
0000
,
0010
0000
1000
0000
,
0010
0000
0100
0000
,
0001
0000
0100
0000
,
0010
0000
0110
0000
,
0000
0000
0000
0000
,
0000
0000
0000
0000
,
0000
0000
0100
0000
,
1000
0000
0100
0000
,
0010
0000
0001
0000
,
1000
0000
0000
0000
0010
0010
0100
0010
,
0100
0000
0000
0000
0000
0001
0000
0000
,
1000
0000
0010
0000
0010
0100
0000
0000
1000
0000
0000
0000
0010
0000
0000
0000
,
1000
0000
0100
0010
0001
0000
0000
0000
,
0010
0001
1000
0000
0000
0000
0100
0000
,
0001
0010
0100
0000
,
1000
0001
1000
0000
0010
0000
0000
0000
,
0010
0000
0100
0000
,
0100
0010
0100
0000
0010
0010
1000
0000
,
0100
0001
0010
0001
1000
0000
0010
1000
,
0010
0100
0010
0000
1000
0000
0100
0100
,
0010
1000
0100
0010
0001
0000
1000
0000
,
0100
0010
1000
0001
0001
0000
0010
0000
,
0010
0100
1000
0100
0010
0100
1000
0100
,
0010
0001
0000
0000
0000
0000
1000
0001
,
0100
1000
0100
0010
0001
0100
0010
0000
,
0001
1000
0010
0100
0100
0000
0001
1000
,
0010
0010
0100
0001
1000
0001
1000
0001
,
1000
0001
0000
0100
1001
0000
0000
0000
,
0100
0000
0000
0000
0010
0010
0100
0001
,
0100
0000
0010
0100
0001
0000
0100
0010
,
0010
0000
0000
0001
0010
0100
1000
0100
,
0010
0001
0010
0100
0001
0010
0100
1000
,
0001
0000
0010
0000
1000
0010
0010
0100
,
0001
0000
1000
0010
0001
0010
0100
1000
,
0001
0000
0000
0010
0100
1000
0100
0010
,
0001
0010
1000
0100
0010
0001
0010
0100
,
1000
0000
0000
0000
1000
0100
0010
0001
,
0010
0100
1000
0100
0010
0000
0000
0000
,
0000
0000
0000
0000
,
0000
0000
0000
0000
,
0000
0000
1000
0000
,
0000
0010
0001
1000
0100
0010
0001
1000
,
0010
0000
0110
0000
;

//--------------- dance-single - ----------------
#NOTES:
     dance-single:
     :
     Medium:
     7:
     0,0,0,0,0:
0000
0000
0000
0000
,
0000
0000
0001
0000
,
0010
0000
0100
0000
,
0010
0000
0100
0000
,
0010
0000
1000
0000
,
0010
0000
0100
0000
,
0001
0000
0100
0000
,
0010
0000
0110
0000
,
0000
0000
0000
0000
,
0000
0000
0000
0000
,
0000
0000
0000
0000
1000
0100
0010
0001
,
1000
0100
0010
0001
0010
0100
1000
0000
,
0100
0010
0001
0000
1000
0100
0010
0001
,
1000
0100
0010
0001
0010
0010
0100
0010
,
0100
0000
0000
0000
0000
0001
0010
0100
,
1000
0000
0010
0000
0001
0100
0000
0000
1000
0000
0000
0000
0010
0000
0000
0000
,
0100
0000
0001
0100
0010
0000
0000
0000
,
0100
0010
1000
0000
0000
0000
0010
0000
,
0001
0100
0010
0000
,
1000
0001
1000
0000
0010
0000
0000
0000
,
0010
0000
0100
0000
,
0100
0010
0100
0000
0010
0010
1000
0000
,
0100
0100
0100
0010
1000
0000
0010
0000
,
1000
0100
1000
0100
1001
0000
0010
0010
,
0100
0001
0001
0001
0001
0000
0010
0000
,
0100
0100
0100
0001
0001
0000
0010
0000
,
0010
0100
1000
1000
1000
0100
0100
0010
,
1000
0100
0000
0000
0000
0000
1000
0001
,
0100
1000
1000
1000
1000
0100
0010
0001
,
1000
0010
0100
0100
0001
0000
1000
0010
,
0010
0100
0001
1000
0001
1000
0001
0000
,
1000
0010
0000
0100
0010
0000
0000
0000
,
0100
0000
0000
0000
0010
0010
0100
0001
,
0100
0000
0010
0100
0001
0000
0100
0010
,
0010
0000
0000
0001
0010
0100
1000
0010
,
1000
0010
0100
0100
0001
0010
0100
1000
,
0010
0000
0001
1000
0010
0000
0010
0100
,
0001
0000
1000
0010
0001
0010
0100
1000
,
0001
0000
0000
0001
0010
1000
0100
0010
,
0001
0010
1000
0100
0010
0001
1000
0100
,
0010
0000
0000
0000
1000
0100
0010
0001
,
0010
0100
1000
0100
0010
0000
0000
0000
,
0000
0000
0000
0000
,
0000
0000
0000
0000
,
0000
0000
1000
0000
,
0000
0010
0001
1000
0100
0010
0001
1000
,
0010
0000
0110
0000
;

//--------------- dance-single - ----------------
#NOTES:
     dance-single:
     :
     Hard:
     8:
     0,0,0,0,0:
0000
0000
0000
0000
,
0000
0000
1000
0000
,
0100
0000
0010
0000
,
0100
0000
0010
0000
,
0100
0000
0001
0000
,
0100
0000
0010
0000
,
1000
0000
0010
0000
,
0100
0000
0110
0000
,
0000
0000
0000
0000
,
0000
0000
0000
0000
,
0000
0000
0000
0000
0100
0100
0100
1000
,
0001
0001
0001
0000
0100
0100
0010
0100
,
0010
0010
0010
0000
1000
0100
0100
1010
,
0001
0010
0100
1001
0100
0101
0010
0100
,
0010
0000
0000
0000
0000
1000
0001
0010
,
1000
0000
0100
0000
0100
0010
0000
0000
0001
0000
0000
0000
0100
0000
0000
0000
,
0010
0000
1000
0001
0100
0000
0000
0000
,
0010
0001
0001
0000
0000
0000
0100
0000
,
1000
0010
0100
0000
,
0001
1000
0001
0000
1010
0000
0000
0000
,
0101
0000
0010
0000
,
1000
0100
0010
0000
0100
0100
0001
0000
,
0010
0110
0010
0100
0001
0000
0100
0000
,
0001
0010
0101
0010
1001
0000
0100
0100
,
0010
1001
1000
1000
1000
0000
0100
0000
,
0010
0010
0010
1000
1000
0000
0100
0000
,
1000
0001
0100
0100
0100
0010
0010
0100
,
0001
0010
0000
0000
0000
0000
0001
1000
,
0010
0001
0001
0001
1001
0010
0100
1000
,
0001
0000
0100
0010
0010
0000
1000
0001
,
0100
0100
0010
1000
0100
0010
0001
0100
,
0010
0100
0000
0010
0100
0000
0000
0000
,
0010
0000
0000
0000
0100
0100
0011
1000
,
0010
0000
0100
0001
1000
0000
0010
0100
,
0100
0000
0000
0010
0100
0100
0010
0001
,
1000
0010
0010
0100
1000
0010
0001
0100
,
0010
0000
1010
0101
0000
0010
1000
0101
,
1000
0000
0001
0100
0010
0010
0110
0010
,
1000
0000
0000
1000
0100
0010
0010
0110
,
0010
0100
1001
0010
0100
1001
0100
0010
,
0101
0000
0000
0000
0101
0110
1000
0001
,
0010
1010
0001
0100
1000
0000
0000
0000
,
0000
0000
0000
0000
,
0000
0000
0000
0000
,
0000
0000
1001
0000
,
0000
0100
1010
0001
0010
0100
1010
0101
,
0110
0000
0110
0000
;
