#TITLE:Pocketful Of Sunshine;
#SUBTITLE:;
#ARTIST:Natasha Bedingfield;
#TITLETRANSLIT:;
#SUBTITLETRANSLIT:;
#ARTISTTRANSLIT:;
#GENRE:;
#CREDIT:;
#MUSIC:Pocketful Of Sunshine.mp3;
#BANNER:;
#BACKGROUND:;
#CDTITLE:;
#SAMPLESTART:16.953;
#SAMPLELENGTH:12.000;
#SELECTABLE:YES;
#OFFSET:1.865;
#BPMS:0.000=110.000;
#STOPS:;
#BGCHANGES:;
#FGCHANGES:;

//--------------- dance-single - OrangeRight ----------------
#NOTES:
     dance-single:
     OrangeRight:
     Beginner:
     1:
     0,0,0,0,0:
0000
0000
0000
0000
,
0000
0000
0000
0000
,
0000
0000
0000
0000
,
0000
0000
0000
0000
,
0000
0000
0000
0000
,
1000
0000
0001
0000
,
1000
0000
0001
0000
,
0100
0000
0000
0000
,
0010
0000
0000
0000
,
1000
0000
0000
0000
,
0001
0000
0000
0000
,
1000
0000
0000
0000
,
0001
0000
0000
0000
,
0100
0000
0000
0000
,
0010
0000
0000
0000
,
0100
0000
0000
0000
,
0010
0000
0000
0000
,
1000
0000
1000
0000
,
0001
0000
0001
0000
,
0010
0000
0000
0100
,
0100
0000
0000
0000
,
1000
0000
0001
0000
,
1000
0000
0001
0000
,
0010
0000
0000
0100
,
0100
0000
0000
0000
,
1000
0000
0100
0000
,
0010
0000
0001
0000
,
0100
0000
0000
0001
,
1000
0000
0000
0000
,
0001
0000
0100
0000
,
0010
0000
1000
0000
,
0001
0000
0000
1000
,
0001
0000
0000
0000
,
1000
0000
0000
0000
,
0001
0000
0000
0000
,
0100
0000
0010
0000
,
1000
0000
1000
0000
,
0001
0000
0000
0000
,
1000
0000
0000
0000
,
0100
0000
0010
0000
,
0001
0000
0001
0000
;

//--------------- dance-single - OrangeRight ----------------
#NOTES:
     dance-single:
     OrangeRight:
     Easy:
     3:
     0,0,0,0,0:
0000
0000
0000
0000
,
0000
0000
0000
0000
,
0000
0000
0000
0000
,
0000
0000
0000
0000
,
0000
0000
0000
0000
,
1000
0100
1000
0000
,
0001
0100
0001
0000
,
1000
0000
0001
0000
,
2000
0000
3000
0000
,
0002
0000
0103
0000
,
0002
0000
1003
0000
,
2000
0000
3100
0000
,
2000
0000
3001
0000
,
1000
0001
1000
0000
,
0001
1000
0001
0000
,
1000
0100
0010
0000
,
0002
0003
1001
0000
,
0001
0010
0001
0000
,
1000
0010
1000
0000
,
1001
0000
1000
0000
,
0002
0000
0003
0000
,
1000
0100
1000
0000
,
0001
0100
0001
0000
,
1001
0000
0001
0000
,
2000
0000
3000
0000
,
1000
0010
0100
0000
,
0010
0100
0001
0000
,
1000
1000
1000
0000
,
0001
0001
0001
0000
,
1000
0100
0010
0000
,
0001
0100
0010
0000
,
1000
0100
1000
0001
,
0200
0000
0300
0000
,
0020
0000
0130
0001
,
2000
0000
3100
0010
,
0002
0000
1003
0001
,
2000
0000
3002
0000
,
0023
0000
0130
1000
,
0002
0000
0103
0010
,
2000
0000
3001
1000
,
0002
0003
1001
0000
;

//--------------- dance-single - OrangeRight ----------------
#NOTES:
     dance-single:
     OrangeRight:
     Medium:
     8:
     0,0,0,0,0:
0000
0000
0000
0000
,
0000
0000
0000
0000
,
0000
0000
0000
0000
,
0000
0000
0000
0000
,
0000
0000
0000
0000
,
1000
0100
1000
0100
0010
0001
0100
0000
,
0001
0010
0001
0010
0100
1000
0010
0000
,
1010
0000
0000
0100
0000
0000
0001
1000
,
0001
0000
0000
1000
0000
0100
0010
0100
,
2000
0000
3010
0000
0100
0001
0100
0001
,
0020
0000
0031
0000
0010
0001
0010
0001
,
0200
0000
0310
0000
1000
0001
1000
0001
,
2000
0000
0001
0000
3100
1000
0100
1000
,
0002
0000
0103
0000
0010
1000
0010
1000
,
0200
0000
1300
0000
0100
1000
0100
1000
,
0020
0000
0130
0000
0001
1000
0001
1000
,
0002
0000
1000
0000
0013
0001
0010
0001
,
1000
0010
1000
0010
1000
0001
0100
0000
,
0001
0010
0001
0010
0001
1000
0100
0000
,
1100
0000
0000
0010
0000
0000
0001
1000
,
0001
0000
0000
0100
0000
0100
0010
0000
,
1000
0001
1000
0001
0100
0010
1000
0000
,
0001
1000
0001
1000
0100
0010
0001
0000
,
0011
0000
0000
0100
0000
0000
1000
0001
,
1000
0000
0000
0010
0000
0010
0100
0000
,
0001
0100
0001
1000
0001
0100
0010
0000
,
1000
0010
1000
0001
1000
0010
0100
0000
,
0101
0000
0000
0010
0000
0000
1000
0001
,
1000
0000
0000
0100
0000
0010
0001
0000
,
1000
0010
1000
0001
1000
0100
1000
0000
,
0001
0010
0001
1000
0001
0100
0001
0000
,
1001
0000
0100
0010
0000
0000
0001
1000
,
0100
0000
0000
1000
0000
0001
1000
0001
,
0200
0000
0310
0000
0010
1000
0010
1000
,
0200
0000
0310
0000
0010
0001
0010
0001
,
0200
0000
0310
0000
0010
1000
0100
1000
,
0020
0000
0130
0000
0001
1000
0001
1000
,
0200
0000
0310
0000
0100
1000
0100
1000
,
0020
0000
0130
0000
0010
1000
0010
1000
,
0002
0000
0013
0000
0100
1000
0001
0100
,
0020
2030
3001
0000
;

//--------------- dance-single - OrangeRight ----------------
#NOTES:
     dance-single:
     OrangeRight:
     Hard:
     11:
     0,0,0,0,0:
0000
0000
0000
0000
,
0000
0000
0000
0000
,
0000
0000
0000
0000
,
0000
0000
0000
0000
,
0000
0000
0000
0000
,
1000
0000
0001
0100
0001
0000
1000
0000
0010
0000
0100
0000
0001
0000
0001
0000
,
1000
0000
0100
0000
0010
0000
0001
0100
0000
0010
1000
0000
0010
0000
0010
0000
,
0100
0000
0001
1000
0000
1000
0001
0010
,
0100
0000
0000
0000
1000
0000
0010
0000
0100
0000
0001
1000
0001
0000
1000
0000
,
0100
0000
0010
0000
0001
0000
1000
0002
0000
0000
0100
0000
0103
0000
0001
0000
,
0010
0000
0100
0000
1000
0000
0001
2000
0000
0000
0100
0000
3100
0000
1000
0000
,
0010
0000
0100
0000
0001
0000
1000
0020
0000
0000
0100
0000
0130
0000
0001
0000
,
0010
0000
0100
0000
1000
0000
0001
1000
0000
1000
0001
0000
0010
0000
0100
0000
,
1000
0000
0010
0000
0100
0000
0001
0020
0000
0000
0100
0000
0130
0000
0010
0000
,
0001
0000
0100
0000
0010
0000
1000
0200
0000
0000
0010
0000
0310
0000
0100
0000
,
1000
0000
0001
0000
0100
0000
0001
0020
0000
0000
0100
0000
0130
0000
1000
0000
,
0001
0000
1000
0000
0100
0000
0010
0001
0010
0000
0100
0000
1001
0000
0000
0000
,
1000
0000
0001
0100
0001
0000
1000
0100
1000
0000
0001
1000
0001
0000
0100
0000
,
0001
0000
1000
0001
1000
0000
0010
1000
0010
1000
0100
0000
0010
0000
0001
0000
,
1000
0000
0100
1000
0001
1000
0010
0100
,
0001
0000
1000
0001
0000
0001
1000
0000
,
0001
0000
0100
0001
0100
0000
0010
0100
0010
0100
0010
0000
1000
0000
0100
0000
,
1000
0000
0010
0000
0001
0000
0010
1000
0000
1000
0100
0000
0010
0000
0001
0000
,
1001
0000
1000
0100
0010
0001
0100
1000
,
0100
0000
0000
0000
0001
0000
1000
0000
0000
0000
1000
0100
1000
0000
0000
0000
,
0001
0000
0100
0001
0100
0000
0010
1000
0010
0000
1000
0001
1000
0000
0100
0000
,
0010
0000
0001
0010
0001
0000
0100
0010
0100
0000
0001
1000
0001
0000
1000
0000
,
0100
0000
0010
0001
0100
0010
1000
0100
,
1000
0000
0100
0010
0000
0001
1000
0000
,
0001
0000
0010
0100
0010
0000
0001
1000
0001
0000
0100
0010
0100
0000
0001
0000
,
1000
0000
0100
0010
0100
0000
1000
0001
0000
0001
0100
0000
0010
0000
1000
0000
,
1001
0000
1000
0100
0001
0100
1000
0001
,
1000
0000
0000
0000
0010
0000
0100
0000
0000
0000
0001
1000
0001
0000
1000
0000
,
0100
0000
0010
0000
0001
0000
1000
0001
0000
0001
0100
0000
0100
0000
0001
0000
,
0010
0000
0100
0000
1000
0000
0001
1000
0000
1000
0100
0000
0100
0000
1000
0000
,
0010
0000
0100
0000
0001
0000
1000
0010
0000
0010
0100
0000
0100
0000
0001
0000
,
0010
0000
0100
0000
1000
0000
0001
0100
0000
0010
1000
0000
0100
0000
0010
0000
,
0002
0000
1000
0000
1003
0000
0010
0100
0000
0100
0001
0000
1000
0000
0001
0000
,
2000
0000
0001
0000
3001
0000
0100
0010
0000
0010
1000
0000
0001
0000
0100
0000
,
0020
0000
0100
0000
0130
0000
0001
0010
0000
0010
0100
0000
1000
0000
0001
0000
,
0200
0000
0010
0000
0310
0000
1000
0001
0000
0000
0000
0000
0000
0000
0000
0000
;

//--------------- dance-double - OrangeRight ----------------
#NOTES:
     dance-double:
     OrangeRight:
     Easy:
     2:
     0,0,0,0,0:
00000000
00000000
00000000
00000000
,
00000000
00000000
00000000
00000000
,
00000000
00000000
00000000
00000000
,
00000000
00000000
00000000
00000000
,
00000000
00000000
00000000
00000000
,
00010000
00010000
00001000
00001000
,
00010000
00001000
00100000
00010000
,
01000000
00000000
00000000
00010000
,
00010000
00000000
00000000
00000000
,
00200000
00000000
00310000
00000000
,
00020000
00000000
01030000
00000000
,
02000000
00000000
03001000
00000000
,
00010000
00001000
00010000
00000000
,
00000020
00000000
00001030
00000000
,
00002000
00000000
00003100
00000000
,
00000200
00000000
00010300
00000000
,
00001000
00010000
00001000
00000000
,
00010000
00010000
00010000
00000000
,
00001000
00001000
00001000
00000000
,
00100000
00000000
00000000
00010000
,
00010000
00000000
00000000
00000000
,
01000000
01000000
01000000
00000000
,
00010000
00010000
00010000
00000000
,
00100000
00000000
00000000
00001000
,
00010000
00000000
00000000
00000000
,
00001000
00001000
00010000
00001000
,
00010000
00010000
00001000
00010000
,
00000100
00000000
00000000
00001000
,
00000100
00000000
00001000
00000000
,
00000100
00000100
00001000
00000010
,
00001000
00001000
00000100
00010000
,
00001000
00000000
00000000
00001000
,
00010000
00000000
00001000
00000000
,
00200000
00000000
00310000
00010000
,
00020000
00000000
01030000
01000000
,
02000000
00000000
03001000
00010000
,
00001000
00001000
00010000
00000000
,
00000200
00000000
00001300
00000100
,
00002000
00000000
00003010
00001000
,
00000020
00000000
00001030
00000001
,
00001000
00000001
00001001
00000000
;

//--------------- dance-double - OrangeRight ----------------
#NOTES:
     dance-double:
     OrangeRight:
     Medium:
     8:
     0,0,0,0,0:
00000000
00000000
00000000
00000000
,
00000000
00000000
00000000
00000000
,
00000000
00000000
00000000
00000000
,
00000000
00000000
00000000
00000000
,
00000000
00000000
00000000
00000000
,
00100000
10000000
00100000
10000000
00010000
01000000
00010000
00000000
,
00100000
00001000
00100000
00001000
00010000
00000100
00010000
00000000
,
00011000
00000000
00000000
00001000
00000000
00000000
00010000
00000100
,
00001000
00000000
00000010
00000000
00000100
00000100
00000010
00000000
,
00002000
00000000
00003100
00000000
00000100
00010000
00000100
00000000
,
00020000
00000000
00031000
00000000
00001000
00100000
00001000
00000000
,
00200000
00000000
00310000
00000000
00010000
01000000
00010000
00000000
,
01000000
00100000
01000000
00010000
00100000
00000000
00100000
00000000
,
00020000
00000000
01030000
00000000
01000000
00001000
01000000
00000000
,
00002000
00000000
00013000
00000000
00010000
00000010
00010000
00000000
,
00000020
00000000
00001030
00000000
00001000
00000100
00001000
00000000
,
00000100
00000010
00000100
00001000
00000001
00000000
00001000
00000000
,
00000001
00000010
00000001
00000010
00000100
00001000
00000100
00000000
,
00001000
00000100
00001000
00000100
00010000
00001000
00010000
00000000
,
00011000
00000000
00000000
00001000
00000000
00000000
00010000
00001000
,
00100000
00010000
01000000
00100000
,
10000000
00100000
10000000
00100000
01000000
00010000
01000000
00000000
,
00010000
00100000
00010000
00100000
00001000
00010000
00001000
00000000
,
00011000
00000000
00000000
00010000
00000000
00000000
00001000
00010000
,
00000100
00001000
00000010
00000100
,
00000001
00000010
00000100
00001000
00000010
00000100
00000001
00000000
,
00000100
00000010
00001000
00000100
00010000
00001000
00010000
00000000
,
00011000
00000000
00000000
00001000
00000000
00000000
00100000
00010000
,
00100000
00010000
01000000
00100000
,
10000000
00100000
01000000
00010000
00100000
01000000
10000000
00000000
,
00100000
01000000
00010000
00100000
00001000
00010000
00001000
00000000
,
00011000
00000000
00000000
00010000
00000000
00000000
00000100
00001000
,
00000100
00000000
00001000
00000000
00000010
00000100
00000001
00000000
,
00001002
00000000
00000103
00000000
00000010
00000001
00001000
00000000
,
00002001
00000000
00003100
00000000
00000010
00001000
00000100
00000000
,
00020100
00000000
00031000
00000000
00001000
00010000
00001000
00000000
,
00012000
00000000
00103000
00000000
00100000
00010000
01000000
00000000
,
20010000
00000000
31000000
00000000
01000000
10000000
00100000
00000000
,
20100000
00000000
30010000
00000000
00010000
00100000
01000000
00000000
,
21000000
00000000
30100000
00000000
00100000
01000000
00010000
00000000
,
00200000
00302000
00013000
00000000
;

//--------------- dance-double - OrangeRight ----------------
#NOTES:
     dance-double:
     OrangeRight:
     Hard:
     11:
     0,0,0,0,0:
00000000
00000000
00000000
00000000
,
00000000
00000000
00000000
00000000
,
00000000
00000000
00000000
00000000
,
00000000
00000000
00000000
00000000
,
00000000
00000000
00000000
00000000
,
00100000
10000000
00100000
01000000
00010000
00100000
00001000
00001000
,
00010000
00000100
00001000
00000010
00000100
00000001
00000010
00000010
,
00000110
00000000
00001000
00000001
00000000
00001000
00000010
00000100
,
00000001
00000000
00001000
00000100
00000000
00001000
00000001
00001000
,
00000020
00000000
00000100
00000000
00000130
00000000
00000001
00001000
00000000
00000000
00000100
00000000
00001000
00000000
00000100
00000000
,
00000020
00000000
00000100
00000000
00000130
00000000
00001000
00000001
00000000
00000000
00000100
00000000
00000010
00000000
00000100
00000000
,
00000002
00000000
00001000
00000000
00001003
00000000
00000001
00000100
00000000
00000000
00000010
00000000
00001000
00000000
00000100
00000000
,
00010000
00000000
00001000
00000000
00100000
00000000
00010000
00100000
00000000
00000000
00010000
00000000
01000000
00000000
00010000
00000000
,
00200000
00000000
01000000
00000000
01300000
00000000
10000000
00010000
00000000
00000000
01000000
00000000
00010000
00000000
01000000
00000000
,
00200000
00000000
01000000
00000000
01300000
00000000
00010000
10000000
00000000
00000000
01000000
00000000
00100000
00000000
01000000
00000000
,
20000000
00000000
00010000
00000000
30010000
00000000
10000000
01000000
00000000
00000000
00100000
00000000
00010000
00000000
01000000
00000000
,
00001000
00000000
00010000
00000000
00000010
00000000
00001000
00000010
00000000
00000000
00001000
00000000
00000100
00000000
00001000
00000000
,
00000001
00000000
00000100
00000001
00000100
00000000
00000001
00000100
00000001
00000000
00001000
00000000
00000100
00000000
00000100
00000000
,
00010000
00000000
00001000
00100000
00001000
00000000
00010000
00000100
00010000
00000000
00001000
00010000
00001000
00000000
00010000
00000000
,
00011000
00000000
00100000
00010000
00000000
01000000
00100000
10000000
,
00010000
00000000
10000000
01000000
00000000
00010000
01000000
00000000
,
10000000
00000000
01000000
10000000
01000000
00000000
10000000
01000000
10000000
00000000
00010000
00000000
01000000
00000000
01000000
00000000
,
00001000
00000000
00010000
00000000
00000100
00000000
00001000
00000100
00000000
00000010
00000001
00000000
00001000
00000000
00000001
00000000
,
00001001
00000000
00000100
00000010
00000000
00001000
00000001
00001000
,
00000100
00000000
00000000
00000000
00000001
00000000
00000100
00000000
00000000
00000000
00001000
00000100
00001000
00000000
00000000
00000000
,
00000001
00000000
00000100
00000010
00000100
00000000
00000010
00001000
00000010
00000000
00001000
00000100
00010000
00000000
00001000
00000000
,
00100000
00000000
00010000
00100000
00010000
00000000
01000000
00010000
01000000
00000000
00001000
00010000
00001000
00000000
00010000
00000000
,
00011000
00000000
00000100
00010000
00000000
00001000
00100000
00001000
,
00010000
00000000
00000100
00010000
00001000
00100000
00010000
00000000
,
10000000
00000000
01000000
00100000
01000000
00000000
00100000
00010000
00100000
00000000
00010000
01000000
00001000
00000000
00010000
00000000
,
00000010
00000000
00001000
00000010
00001000
00000000
00000100
00010000
00000000
00001000
01000000
00000000
00010000
00000000
01000000
00000000
,
01010000
00000000
01000000
00010000
00100000
10000000
00100000
00010000
,
01000000
00000000
00000000
00000000
00100000
00000000
10000000
00000000
01000000
00000000
00100000
00010000
00100000
00000000
00010000
00000000
,
10000000
00000000
01000000
00000000
00100000
00000000
00010000
02000000
00000000
00000000
00010000
00000000
03010000
00000000
01000000
00000000
,
00001000
00000000
00010000
00000000
00000100
00000000
00001000
00000020
00000000
00000000
00000100
00000000
00000130
00000000
00000010
00000000
,
00001000
00000000
00000001
00000000
00001000
00000000
00000100
00000020
00000000
00000000
00000001
00000000
00000031
00000000
00000010
00000000
,
00000001
00000000
00000100
00000000
00000010
00000000
00001000
00000001
00000000
00000001
00001000
00000000
00000100
00000000
00000010
00000000
,
00000001
00000000
00000100
00000000
00000010
00000000
00001000
00000100
00000000
00000100
00001000
00000000
00000010
00000000
00001000
00000000
,
00000100
00000000
00010000
00000000
00001000
00000000
00100000
00010000
00000000
00010000
00100000
00000000
00010000
00000000
01000000
00000000
,
00100000
00000000
10000000
00000000
00010000
00000000
10000000
01000000
00000000
00100000
00010000
00000000
01000000
00000000
00100000
00000000
,
20000000
00000000
00010000
00000000
30010000
00000000
01000000
00100000
00000000
00000000
00000000
00000000
00000000
00000000
00000000
00000000
;
