#TITLE:PRIME MOMENT;
#SUBTITLE:;
#ARTIST:;
#TITLETRANSLIT:;
#SUBTITLETRANSLIT:;
#ARTISTTRANSLIT:;
#GENRE:;
#CREDIT:;
#MUSIC:PRIME MOMENT.ogg;
#BANNER:PRIME MOMENT-bn.png;
#BACKGROUND:;
#CDTITLE:;
#SAMPLESTART:0.000;
#SAMPLELENGTH:0.000;
#SELECTABLE:YES;
#OFFSET:0.000;
#BPMS:0.000=93.717
,176.000=92.575
,178.000=69.000
,179.000=45.750
,179.250=60.750
,179.500=40.800
,180.000=46.858
;
#STOPS:;
#BGCHANGES:;
#FGCHANGES:;

//--------------- dance-single - ----------------
#NOTES:
     dance-single:
     :
     Easy:
     3:
     0,0,0,0,0:
0000
0000
0000
0000
,
0000
0000
0000
0000
,
0000
0000
0000
0000
,
0000
0000
0000
0000
,
0000
0010
0000
0100
0000
0010
0000
1000
,
0000
0001
0000
0100
0000
0010
0000
0000
,
0000
1000
0000
0001
0000
1000
0000
0001
,
0000
0010
0000
0100
0000
0001
0000
0000
,
1000
0010
0100
0001
0000
0000
0000
0000
,
1000
0010
0100
0001
0000
0000
0000
0000
,
1000
0010
0100
0001
0000
0000
0000
0000
,
0010
0100
0010
0000
0000
0000
0000
0000
,
0000
1000
0001
0100
,
1000
0001
0100
0010
0000
0000
0000
0000
,
0000
0000
0001
0001
0010
0010
0100
0001
,
0000
0010
1000
0100
0000
0000
0000
0000
,
1000
0010
0100
0001
0000
0000
0000
0000
,
1000
0000
0000
1000
0000
0000
0000
0000
,
0001
0000
0000
0001
0000
0000
0000
0010
,
0000
0100
0010
0000
0000
0000
0000
0000
,
0010
1000
0001
0110
1000
0001
0110
1000
,
0010
0100
0001
1000
0010
0100
0001
0000
,
1000
0110
0001
1000
0010
0100
0001
1000
,
0000
0010
0100
0010
0000
0000
0000
0000
,
0010
0000
0100
0000
0001
0000
1000
1000
,
0000
0000
0000
0000
,
0010
0100
0010
0100
0010
0010
0100
0100
,
0010
0100
0010
0100
,
0100
0010
0100
0010
0100
0010
0100
0010
,
0100
0010
0100
0010
,
0100
0100
0010
0010
0100
0010
0100
0010
,
0100
0000
0100
0000
0010
0100
0000
0010
,
0000
0000
0100
0000
0000
0100
0000
0000
,
1000
0000
0001
0000
,
0010
0100
0010
0100
0010
0100
0010
0100
,
0010
0100
0010
0000
,
0010
0100
0010
0100
0010
0100
0010
0100
,
0010
0100
0010
0100
,
0010
0000
0000
0000
,
0100
0000
0000
0000
,
0000
0000
0000
0000
,
0000
0000
0000
0000
,
0000
0010
0000
0100
0000
1000
0000
0010
,
0000
0100
0000
0010
0000
0100
0000
0001
,
0000
1000
0000
0001
0000
0001
0000
1000
,
0010
0000
0000
0000
;

//--------------- dance-single - ----------------
#NOTES:
     dance-single:
     :
     Medium:
     4:
     0,0,0,0,0:
0000
0000
0000
0000
,
0000
0000
0000
0000
,
0000
0000
0000
0000
,
0000
0000
0000
0000
,
0000
0001
0000
0100
0000
0001
0000
0010
,
0000
1000
0000
0100
0000
0001
1000
0100
,
0000
0010
0000
1000
0000
0010
0000
1000
,
0000
0001
0000
0100
0000
1000
0000
0000
,
0010
0001
0100
1000
0000
0000
0000
0000
,
0010
1000
0001
0100
0000
0000
0000
0000
,
1000
0000
0010
0000
0100
0000
0001
0000
0000
0000
0100
0000
0000
0000
0000
0100
,
0000
0000
0001
0000
0010
0000
0000
1000
0000
0000
0001
0000
0100
0000
0000
0000
,
0000
0010
1000
0100
,
0010
1000
0100
0001
0000
0000
0000
0000
,
0000
0000
1000
1000
0001
0001
1000
0100
,
0000
0010
0001
1000
0000
0000
0000
0000
,
0010
1000
0001
0110
0000
0000
0000
0000
,
0010
0000
0000
0010
0000
0000
0000
0000
,
1100
0000
0000
1010
0000
0000
0000
0001
,
0000
0100
0001
0000
0000
0000
0000
0000
,
0001
0010
1000
0101
0010
1000
0101
0010
,
0001
0100
1000
0010
0001
0100
1000
0000
,
0010
0101
1000
0010
0001
0100
1000
0010
,
0000
0001
0100
0001
0000
0000
0000
0000
,
0001
0000
0100
0000
1000
0000
0100
0100
,
0000
0000
0000
0000
,
0100
0100
0010
0010
0100
0100
0001
0001
,
1000
0100
0001
0100
,
0100
0001
0100
0001
0100
0001
0100
0001
,
0100
0001
0010
0100
,
0010
0100
0010
0100
0010
0100
0001
0100
,
0001
0000
0100
0000
0001
0100
0000
0001
,
0000
0000
0100
0000
0000
0001
0000
0000
,
0110
0000
1001
0000
,
0100
0010
1000
0100
0001
0010
0100
0010
,
0100
0101
0101
0000
,
0001
0100
0001
0100
1000
0010
0001
0100
,
0001
0100
0001
0011
,
1100
0000
0000
0000
,
0101
0000
0000
0000
,
0000
0000
0000
0000
,
0000
0000
0000
0000
,
0000
0001
0000
0100
0000
1000
0000
0010
,
0000
0001
0000
0100
0000
0001
0000
0100
,
0000
1000
0000
0010
0000
1000
0000
0010
,
0001
0000
0000
0000
;

//--------------- dance-single - ----------------
#NOTES:
     dance-single:
     :
     Hard:
     7:
     0,0,0,0,0:
0000
0000
0000
0000
,
0000
0000
0000
0000
,
0000
0000
0000
0000
,
0000
0000
0000
0000
,
0000
0001
0000
0100
0000
1000
0000
0010
,
0000
1000
0000
0100
0000
0001
1000
0010
,
0000
0100
0000
1000
0000
0010
0000
1000
,
0000
0001
0000
0100
0000
1000
0000
0000
,
0010
0001
0100
1000
0100
0000
0000
0000
,
0010
1000
0001
0100
0000
1001
0000
0000
,
1000
0000
0010
0000
0100
0000
0001
0000
0000
0000
0110
0000
0000
0000
0000
0100
,
0000
0000
0001
0000
0110
0000
0000
1000
0000
0000
0001
0000
0100
0000
0000
0000
,
0000
0010
1000
0100
,
0010
1000
0100
0001
0000
0000
0010
0100
,
0000
0000
1000
1000
0001
0001
1000
0100
,
0000
0010
0001
1000
0000
0000
0000
0000
,
0010
1000
0001
0110
0000
0000
0000
0000
,
0100
0000
0000
0010
0000
0000
0000
0000
,
1100
0000
0000
0011
0000
0000
0000
0001
,
0000
0100
0001
0000
0000
0000
0000
0000
,
1001
0010
1000
0101
0010
1000
0101
1010
,
0001
0100
1001
0010
1001
0100
1001
0000
,
0010
0101
1000
0010
1001
0100
1001
0010
,
0000
0001
0100
0011
0000
0000
0000
0000
,
0001
0000
0100
0000
1000
0000
0100
0110
,
0000
0000
0010
0000
,
0001
0100
1000
0010
0100
0100
0001
0001
,
1010
0100
0001
0010
,
0001
0100
1000
0010
1001
0100
1000
0010
,
0101
0100
1010
0011
,
0101
0010
0010
1000
1000
0100
1001
0100
,
1010
0000
0110
0000
0001
0100
0000
1100
,
0000
0000
0100
0110
0100
0000
0000
0000
,
0110
0000
1001
0000
,
1000
0010
1000
0100
0001
0110
1000
0010
,
0001
0110
1100
0000
,
0001
0100
0001
0100
1000
0010
1000
0000
,
0100
0011
0100
0011
,
1100
0000
0000
0000
,
0101
0000
0000
0000
,
0000
0000
0000
0000
,
0000
0000
0000
0000
,
0000
0001
0000
0100
0000
1001
0000
0010
,
0000
1001
0000
0100
0000
1001
0000
0100
,
0000
1001
0000
0010
0000
1001
0000
0100
,
0001
0000
0000
0000
;
