#TITLE:OVER TOMORROW;
#SUBTITLE:;
#ARTIST:;
#TITLETRANSLIT:;
#SUBTITLETRANSLIT:;
#ARTISTTRANSLIT:;
#GENRE:;
#CREDIT:;
#MUSIC:OVER TOMORROW.ogg;
#BANNER:OVER TOMORROW-bn.png;
#BACKGROUND:;
#CDTITLE:;
#SAMPLESTART:0.000;
#SAMPLELENGTH:0.000;
#SELECTABLE:YES;
#OFFSET:0.000;
#BPMS:0.000=75.766;
#STOPS:;
#BGCHANGES:;
#FGCHANGES:;

//--------------- dance-single - ----------------
#NOTES:
     dance-single:
     :
     Easy:
     4:
     0,0,0,0,0:
0000
0000
0000
0000
,
0000
0000
0000
0000
,
1000
0000
0000
0000
,
0001
0000
0000
0000
,
0000
0000
0000
0000
0001
0000
1000
0000
0010
0000
0100
0001
0000
0000
0000
0000
,
1000
0000
0000
0000
,
0000
0000
0000
0000
,
0001
0000
0000
1000
0001
0000
0000
0000
,
0000
0000
0000
0000
,
0000
0000
0000
0000
,
0000
0000
1000
0010
0100
0000
0000
0001
,
1000
0000
0000
0010
0000
0000
0100
0000
0000
0000
0000
0000
0000
0000
0000
0000
,
0000
0000
1000
0001
0100
0010
0000
0001
,
1000
0000
0000
0100
0000
0000
0010
0000
0000
0000
0000
0000
0000
0000
0010
0000
,
0100
1000
0001
1000
0010
0000
0100
0010
,
0000
0000
0000
0000
0010
0000
0000
0000
0010
0000
0000
1001
0000
0000
0000
0000
,
0000
0000
0010
1000
0100
0000
0000
0100
,
0010
0000
0000
0100
0000
0000
1000
0000
0000
0000
0010
0000
0000
0000
0000
0000
,
0000
0000
0100
0010
1000
0010
0000
0100
,
0010
0000
0000
0001
0000
0000
0010
0000
0000
0000
0000
0000
0000
0000
0100
0000
,
0010
1000
0001
0010
0100
0000
0010
0100
,
0000
0000
1000
0000
0001
0000
0000
0010
0000
0000
0000
0000
0000
0000
0000
0000
,
0000
0000
0010
0000
0010
0000
1000
0000
0001
0000
0000
0100
1000
0001
0000
0000
,
0000
0000
0000
0000
0000
0000
0000
0000
0000
0000
0000
0000
0010
0000
0000
1000
,
0000
0010
0001
0001
0100
0000
0100
0010
,
0100
0000
0000
0000
0010
0000
0000
1000
0000
0000
0000
0000
0000
0000
0000
0000
,
0000
0000
0010
0000
0100
0000
0010
0000
0100
0000
0000
1000
0100
0010
0000
0000
,
0001
0000
0000
1000
0000
0000
0001
0000
0000
0000
0000
0000
0010
0000
0100
0000
,
1000
0000
1000
0000
0100
0000
0010
0001
0000
0000
0000
0000
0100
0000
0000
0010
,
0000
0000
0000
0000
0010
0000
0000
0100
0000
0000
0000
0000
0000
0000
0000
0000
,
0000
0000
0000
0000
0010
0000
0010
0000
0100
0000
0100
0001
0000
0000
0000
0000
,
0000
0000
0000
0000
0010
0000
0010
0000
0100
0000
0100
1000
0000
0000
0110
0000
,
1000
0100
0010
0001
1000
1000
0110
0000
,
1000
0000
0001
0000
0010
0000
0100
1001
0000
0000
0000
0000
0000
0000
0000
0000
,
0000
0000
0000
0000
0010
0000
0010
0000
0100
0000
0100
0001
0000
0000
1000
0000
,
0100
0000
0000
0000
0010
0000
0001
0000
0000
0000
0000
0000
0000
0000
0000
0001
,
0000
0000
0000
0000
0000
1000
0000
0100
0000
0000
0010
0000
0000
0000
1001
0000
,
0000
0000
0000
0000
,
0000
0000
0000
0000
,
1001
0000
0000
0000
;

//--------------- dance-single - ----------------
#NOTES:
     dance-single:
     :
     Medium:
     5:
     0,0,0,0,0:
0000
0000
0000
0000
,
0000
0000
0000
0000
,
1000
0100
0010
0001
0000
0000
0000
0000
0000
0000
0000
0000
0000
0000
0000
0000
,
0001
0010
0100
1000
0000
0000
0000
0000
0000
0000
0000
0000
0000
0000
0000
0000
,
0000
0000
0000
0000
0001
0000
1000
0000
0010
0000
0100
0001
0000
0000
0000
0000
,
1001
0000
0000
0000
,
1000
0100
0010
0001
0000
0000
0000
0000
0000
0000
0000
0001
1000
0100
0010
0000
,
0001
0000
0000
0110
1001
0000
0000
0000
,
0000
0000
0000
0000
,
0000
0000
0000
0000
,
0000
0000
1001
0010
0100
0000
0000
1001
,
0100
0000
0000
0010
0000
0000
1001
0000
0000
0000
0000
0000
0000
0000
0000
0000
,
0000
0000
1001
0100
0010
1001
0000
0010
,
0100
0000
0000
1001
0000
0000
0110
0000
0000
0000
0000
0000
0000
0000
0010
0000
,
0100
1000
0001
1000
0010
0000
0100
0010
,
0000
0000
0000
0000
1010
0000
0000
0000
0101
0000
0000
1001
0000
0000
0000
0000
,
0000
0000
0110
1000
0001
0000
0000
0110
,
1000
0000
0000
0001
0000
0000
1001
0000
0000
0000
0010
0000
0000
0000
0000
0000
,
0000
0000
0110
0001
1000
0110
0000
1000
,
0001
0000
0000
0110
0000
0000
0010
0000
0000
0000
0000
0000
0000
0000
0100
0000
,
0010
1000
0001
0010
0100
0000
0010
0100
,
0000
0000
1000
0000
0001
0000
0000
0010
0000
0000
0000
0000
0000
0000
0000
0000
,
0000
0000
0010
0000
0100
0000
1001
0000
0110
0000
0000
0100
1000
0001
0000
0000
,
0000
0000
0000
0000
0000
0000
0000
0000
0000
0000
0000
0000
0010
0000
0000
1000
,
0000
0010
0001
0001
0100
0000
0100
0010
,
0100
0000
0000
0000
0010
0000
0000
1001
0000
0000
0000
0000
0000
0000
0000
0000
,
0000
0000
0010
0000
0100
0000
0010
0000
0100
0000
0000
1000
0100
0010
0000
0000
,
0001
0000
0000
1000
0000
0000
0001
0000
0000
0000
0000
0000
0010
0000
0100
0000
,
1000
0000
1000
0000
0100
0000
0010
0001
0000
0000
0000
0000
1010
0000
0000
0101
,
0000
0000
0000
0000
0011
0000
0000
1100
0000
0000
0000
0000
0000
0000
0000
0000
,
0000
0000
0000
0000
0010
0000
0110
0000
0100
0000
0110
0001
0000
0000
0000
0000
,
0000
0000
0000
0000
0010
0000
0110
0000
0100
0000
0110
1000
0000
0000
0110
0000
,
1000
0100
0010
0001
1000
1000
0110
0000
,
1000
0000
0001
0000
0010
0000
0100
1001
0000
0000
0000
0000
0000
0000
0000
0000
,
0000
0000
0000
0000
0010
0000
0110
0000
0100
0000
0110
0001
0000
0000
1000
0000
,
0100
0000
0000
0000
1010
0000
0101
0000
0000
0000
0000
0000
0000
1000
0010
0001
,
0000
0000
0000
0000
0000
0001
0100
1000
0000
0000
0100
0000
0010
0000
1001
0000
,
1000
0100
0010
0001
0000
0000
0000
0000
0000
0000
0000
0000
0000
0000
0000
0000
,
0001
0010
0100
1000
0000
0000
0000
0000
0000
0000
0000
0000
0000
0000
0000
0000
,
1001
0000
0000
0000
;

//--------------- dance-single - ----------------
#NOTES:
     dance-single:
     :
     Hard:
     6:
     0,0,0,0,0:
0000
0000
0000
0000
,
0000
0000
0000
0000
,
0001
0010
0100
1010
0000
0000
0000
0000
0000
0000
0000
0000
0000
0000
0000
0000
,
1010
0100
0010
0001
0000
0000
0000
0000
0000
0000
0000
0000
0000
0000
0000
0000
,
0000
0000
0000
0000
1000
0000
0001
0000
0100
0000
0010
1000
0000
0000
0000
0000
,
1001
0000
0000
0000
,
0101
0010
0100
1000
0000
0000
0000
0000
0000
0000
0000
1000
0001
0010
0100
0000
,
1000
0000
0000
0110
1001
0000
0000
0000
,
0000
0000
0000
0000
,
0000
0000
0000
0000
,
0000
0000
1001
0100
0010
0000
0000
1001
,
0010
0000
0000
0100
0000
0000
1001
0000
0000
0000
0000
0000
0000
0000
0000
0000
,
0000
0000
1001
0010
0100
1001
0000
0100
,
0010
0000
0000
1001
0000
0000
0110
0000
0000
0000
0000
0000
0000
0000
0100
0000
,
0010
0001
1000
0001
0100
0000
0010
0100
,
0000
0000
0000
0000
0101
0000
0000
0000
1010
0000
0000
1001
0000
0000
0000
0000
,
0000
0000
0110
0001
1000
0000
0000
0110
,
0001
0000
0000
1000
0000
0000
1001
0000
0000
0000
0100
0000
0000
0000
0000
0000
,
0000
0000
0110
1000
0001
0110
0000
0001
,
1000
0000
0000
0110
0000
0000
0100
0000
0000
0000
0000
0000
0000
0000
0010
0000
,
0100
0001
1000
0100
0010
0000
0100
0010
,
0000
0000
0001
0000
1000
0000
0000
0100
0000
0000
0000
0000
0000
0000
0000
0000
,
0000
0000
0100
0000
0010
0000
1001
0000
0110
0000
0000
0010
0001
1000
0000
0000
,
0000
0000
0000
0000
0000
0000
0000
0000
0000
0000
0000
0000
0100
0000
0000
0001
,
0000
0100
1000
1000
0010
0000
0010
0100
,
0010
0000
0000
0000
0100
0000
0000
1001
0000
0000
0000
0000
0000
0000
0000
0000
,
0000
0000
0100
0000
0010
0000
0100
0000
0010
0000
0000
0001
0010
0100
0000
0000
,
1000
0000
0000
0001
0000
0000
1000
0000
0000
0000
0000
0000
0100
0000
0010
0000
,
0001
0000
0001
0000
0010
0000
0100
1000
0000
0000
0000
0000
0101
0000
0000
1010
,
0000
0000
0000
0000
1100
0000
0000
0011
0000
0000
0000
0000
0000
0000
0000
0000
,
0000
0000
0000
0000
0100
0000
0110
0000
0011
0000
0110
1000
0000
0000
0000
0000
,
0000
0000
0000
0000
0100
0000
0110
0000
1010
0000
0110
0001
0000
0000
0110
0000
,
1001
0010
0100
1000
0001
0001
0110
0000
,
0001
0000
1000
0000
0100
0000
0010
1001
0000
0000
0000
0000
0000
0000
0000
0000
,
0000
0000
0000
0000
0100
0000
0110
0000
0011
0000
0110
1000
0000
0000
0001
0000
,
0010
0000
0000
0000
0101
0000
1010
0000
0000
0000
0000
0000
0000
0001
0100
1000
,
0000
0000
0000
0000
0000
1000
0010
0001
0000
0000
0010
0000
0100
0000
1001
0000
,
0001
0010
0100
1010
0000
0000
0000
0000
0000
0000
0000
0000
0000
0000
0000
0000
,
1010
0100
0010
0001
0000
0000
0000
0000
0000
0000
0000
0000
0000
0000
0000
0000
,
1001
0000
0000
0000
;
