#TITLE:Mirror;
#SUBTITLE:;
#ARTIST:Monica;
#TITLETRANSLIT:;
#SUBTITLETRANSLIT:;
#ARTISTTRANSLIT:;
#GENRE:;
#CREDIT:;
#BANNER:;
#BACKGROUND:;
#LYRICSPATH:;
#CDTITLE:;
#MUSIC:Mirror.mp3;
#OFFSET:-0.260;
#SAMPLESTART:47.425;
#SAMPLELENGTH:12.000;
#SELECTABLE:YES;
#BPMS:0.000=139.000;
#STOPS:;
#BGCHANGES:;
#KEYSOUNDS:;

//---------------dance-single - J. Frederick----------------
#NOTES:
     dance-single:
     J. Frederick:
     Beginner:
     1:
     0.069,0.000,0.052,0.000,0.000: // measure 1
0000
0000
0000
0000
,  // measure 2
0000
0000
0000
0000
,  // measure 3
0000
0000
0000
0000
,  // measure 4
0000
0000
0000
0000
,  // measure 5
0000
0000
0000
0000
,  // measure 6
0000
0000
0000
0000
,  // measure 7
0000
0000
0000
0000
,  // measure 8
0000
0000
0000
0000
,  // measure 9
0001
0000
0000
0000
,  // measure 10
1000
0000
0000
0000
,  // measure 11
0100
0000
0000
0000
,  // measure 12
0010
0000
0000
0000
,  // measure 13
0001
0000
0000
0000
,  // measure 14
1000
0000
0000
0000
,  // measure 15
0010
0000
0000
0000
,  // measure 16
0100
0000
0000
0000
,  // measure 17
0110
0000
0000
0000
,  // measure 18
0000
0000
0000
0000
,  // measure 19
0010
0000
0000
0000
,  // measure 20
0000
0000
0000
0000
,  // measure 21
1000
0000
0000
0000
,  // measure 22
0000
0000
0000
0000
,  // measure 23
0100
0000
0000
0000
,  // measure 24
0000
0000
0000
0000
,  // measure 25
0110
0000
0000
0000
,  // measure 26
0000
0000
0000
0000
,  // measure 27
0010
0000
0000
0000
,  // measure 28
0000
0000
0000
0000
,  // measure 29
0001
0000
0000
0000
,  // measure 30
0000
0000
0000
0000
,  // measure 31
1000
0000
0000
0000
,  // measure 32
0000
0000
0000
0000
,  // measure 33
0010
0000
0000
0000
,  // measure 34
0100
0000
0000
0000
,  // measure 35
0001
0000
0000
0000
,  // measure 36
1000
0000
0000
0000
,  // measure 37
0100
0000
0000
0000
,  // measure 38
1000
0000
0000
0000
,  // measure 39
0010
0000
0000
0000
,  // measure 40
0100
0000
0000
0000
,  // measure 41
1001
0000
0000
0000
,  // measure 42
0001
0000
0000
0000
,  // measure 43
1000
0000
0000
0000
,  // measure 44
0010
0000
0000
0000
,  // measure 45
0100
0000
0000
0000
,  // measure 46
0001
0000
0000
0000
,  // measure 47
0010
0000
0000
0000
,  // measure 48
0100
0000
0000
0000
,  // measure 49
0110
0000
0000
0000
,  // measure 50
1000
0000
0000
0000
,  // measure 51
0001
0000
0000
0000
,  // measure 52
0100
0000
0000
0000
,  // measure 53
0010
0000
0000
0000
,  // measure 54
1000
0000
0000
0000
,  // measure 55
0001
0000
0000
0000
,  // measure 56
1000
0000
0001
0000
,  // measure 57
1001
0000
0000
0000
,  // measure 58
0000
0000
0000
0000
,  // measure 59
0001
0000
0000
0000
,  // measure 60
0000
0000
0000
0000
,  // measure 61
1000
0000
0000
0000
,  // measure 62
0000
0000
0000
0000
,  // measure 63
0010
0000
0000
0000
,  // measure 64
0000
0000
0000
0000
,  // measure 65
0100
0000
0000
0000
,  // measure 66
0000
0000
0000
0000
,  // measure 67
0001
0000
0000
0000
,  // measure 68
0000
0000
0000
0000
,  // measure 69
1000
0000
0000
0000
,  // measure 70
0000
0000
0000
0000
,  // measure 71
0010
0000
0000
0000
,  // measure 72
0000
0000
0000
0000
,  // measure 73
0100
0000
0000
0000
,  // measure 74
0000
0000
0000
0000
,  // measure 75
1001
0000
0000
0000
,  // measure 76
0001
0000
0000
0000
,  // measure 77
0010
0000
0000
0000
,  // measure 78
0001
0000
0000
0000
,  // measure 79
1000
0000
0000
0000
,  // measure 80
0010
0000
0000
0000
,  // measure 81
0100
0000
0000
0000
,  // measure 82
0001
0000
1000
0000
,  // measure 83
1001
0000
0000
0000
,  // measure 84
0000
0000
0000
0000
,  // measure 85
0100
0000
0000
0000
,  // measure 86
0000
0000
0000
0000
,  // measure 87
0010
0000
0000
0000
,  // measure 88
0000
0000
0000
0000
,  // measure 89
0001
0000
0000
0000
,  // measure 90
1000
0000
0000
0000
,  // measure 91
1001
0000
0000
0000
,  // measure 92
1000
0000
0000
0000
,  // measure 93
0010
0000
0000
0000
,  // measure 94
0100
0000
0000
0000
,  // measure 95
0001
0000
0000
0000
,  // measure 96
0010
0000
0000
0000
,  // measure 97
0001
0000
0000
0000
,  // measure 98
1000
0000
0001
0000
,  // measure 99
1001
0000
0000
0000
;

//---------------dance-single - J. Frederick----------------
#NOTES:
     dance-single:
     J. Frederick:
     Easy:
     3:
     0.127,0.000,0.093,0.029,0.000:
0000
0000
0000
0000
,
0000
0000
0000
0000
,
0000
0000
0000
0000
,
0000
0000
0000
0000
,
0000
0000
0000
0000
,
0000
0000
0000
0000
,
0000
0000
0000
0000
,
0000
0000
0000
0000
,
1000
0000
1000
0000
,
0001
0000
0001
0000
,
0100
0000
0100
0000
,
0010
0000
0010
0000
,
1000
0000
1000
0000
,
0100
0000
0100
0000
,
0010
0000
0010
0000
,
0001
0000
0001
0000
,
1001
0000
0000
0000
,
0100
0000
0010
0000
,
0110
0000
0000
0000
,
0010
0000
1000
0000
,
1010
0000
0000
0000
,
0100
0000
0001
0000
,
0101
0000
0000
0000
,
0001
0000
1000
0000
,
0100
0000
0100
0000
,
0000
0000
0010
0000
,
0001
0000
0001
0000
,
0000
0000
1000
0000
,
0010
0000
0010
0000
,
0100
0000
0001
0000
,
1000
0000
0000
0000
,
0001
0000
0000
0000
,
1000
0000
1000
0000
,
1000
0000
0000
0000
,
0001
0000
0001
0000
,
0001
0000
0000
0000
,
0100
0000
0100
0000
,
0100
0000
0000
0000
,
0020
0000
0000
0000
,
0200
0000
0000
0330
,
0110
0000
0000
0000
,
0010
0000
1000
0000
,
0001
0000
0000
0000
,
0010
0000
0100
0000
,
1000
0000
0000
0000
,
0010
0000
0100
0000
,
0001
0000
0000
0000
,
1000
0000
0001
0000
,
1001
0000
0000
0000
,
0001
0000
0010
0000
,
0100
0000
0000
0000
,
1000
0000
0001
0000
,
0100
0000
0000
0000
,
0010
0000
1000
0000
,
0001
0000
0000
0000
,
1000
0000
0001
0000
,
1001
0000
0000
0000
,
0000
0000
0000
0000
,
0001
0000
1000
0000
,
0000
0000
0010
0000
,
0100
0000
0001
0000
,
0000
0000
0010
0000
,
0100
0000
1000
0000
,
0001
0000
0100
0000
,
0001
0000
1000
0000
,
0000
0000
0100
0000
,
0110
0000
0000
0000
,
0010
0000
0001
0000
,
1001
0000
0000
0000
,
0001
0000
0100
0000
,
0101
0000
0000
0000
,
0010
0000
1000
0000
,
1010
0000
0000
0000
,
1000
0000
0001
0000
,
1001
0000
0000
0000
,
0000
0000
0000
0000
,
0110
0000
0000
0000
,
0000
0000
0000
0000
,
1001
0000
0000
0000
,
0000
0000
0000
0000
,
0001
0000
1000
0000
,
0200
0000
0000
0000
,
0310
0000
0000
0000
,
0100
0000
1000
0000
,
0001
0000
0000
0000
,
0100
0000
0010
0000
,
1000
0000
0000
0000
,
0001
0000
1000
0000
,
0100
0000
0000
0000
,
0010
0000
0001
0000
,
1001
0000
0000
0000
,
1000
0000
0010
0000
,
0100
0000
0000
0000
,
0001
0000
1000
0000
,
0100
0000
0000
0000
,
0010
0000
0001
0000
,
1000
0000
0000
0000
,
0001
0000
1000
0000
,
2002
0000
0000
0000
,
3003
0000
0000
0000
;

//---------------dance-single - J. Frederick----------------
#NOTES:
     dance-single:
     J. Frederick:
     Medium:
     6:
     0.284,0.000,0.046,0.197,0.000:
0000
0000
0000
0000
,
0000
0000
0000
0000
,
0000
0000
0000
0000
,
0000
0000
0000
0000
,
0000
0000
0000
0000
,
0000
0000
0000
0000
,
0000
0000
0000
0000
,
0000
0000
0000
0000
,
1000
0000
0001
1000
0001
0000
0000
0000
,
0100
0000
0001
0100
0001
0000
0000
0000
,
1000
0000
0010
1000
0010
0000
0000
0000
,
1000
0000
0100
1000
0100
0000
0000
0000
,
0010
0000
0001
0010
0001
0000
0000
0000
,
0100
0000
0001
0100
0001
0000
0000
0000
,
1000
0000
0001
1000
0001
0000
0000
0000
,
0010
0000
0100
0010
0100
0000
1000
0000
,
0001
0100
0010
0000
,
1000
0001
0010
0100
,
1000
0001
0100
0000
,
0010
0100
0001
1000
,
0200
0300
0020
0030
,
0002
0003
2000
3000
,
0002
0000
2000
0000
,
3003
1001
1000
0001
,
0100
0010
1000
0000
,
0100
0000
1000
0001
,
0010
0001
0100
0000
,
0010
0000
1000
0100
,
0020
0030
0002
0003
,
2000
3000
0020
0030
,
0200
0000
0002
0000
,
0000
0303
0101
1010
,
1000
0010
1000
0000
0001
0100
0001
0000
,
1000
0100
0010
0000
,
0001
0010
0001
0000
1000
0100
1000
0000
,
0100
1000
0001
0000
,
1000
0001
1000
0000
0010
0100
0010
0000
,
0100
0001
0010
0000
,
0100
0000
1000
0000
,
0001
1000
0001
0000
0100
0000
0010
0000
,
1000
0002
0000
0000
0003
0000
0000
0000
,
1000
0000
0001
0000
0010
0000
0100
2000
,
0000
0000
3000
0000
,
0100
1000
0001
0100
,
0010
2000
0000
0000
0000
0000
3000
0000
,
0010
0000
0100
0000
0001
0000
0010
0200
,
0000
0000
0000
0300
,
0010
0100
0110
1001
,
0001
0200
0000
0000
0000
0000
0300
0000
,
0001
0000
0100
0000
0010
0000
1000
0002
,
0000
0000
0003
0000
,
0010
0000
0100
0000
1000
0000
0001
2000
,
0000
0000
3000
0000
,
0100
0000
1000
0000
0001
0000
0100
0020
,
0000
0000
0030
0100
,
0010
0100
0010
0000
1000
0001
1000
0000
,
0001
0020
0000
0000
0000
0000
0000
0000
,
0000
0000
0000
0000
,
0130
0000
1000
0001
0100
0000
0000
0000
,
0001
1000
0010
0000
,
1000
0000
0001
0010
0100
0000
0000
0000
,
1000
0010
0100
0000
,
0010
0000
1000
0001
0010
0000
0000
0000
,
0100
1000
0001
0000
,
0100
0000
0001
1000
0100
0000
0010
0000
,
0001
1000
0010
0100
,
0001
0000
1000
0001
0010
0000
0100
0000
,
0000
0000
1000
0001
0100
0000
0010
0000
,
1000
0000
0001
1000
0100
0000
0010
0000
,
0000
0000
0001
0100
0001
0000
1000
0000
,
0010
0000
1000
0001
0100
0000
0010
0000
,
0000
0000
1000
0100
0010
0000
0001
0000
,
1000
0000
0010
0100
0001
0000
1000
0000
,
0000
0001
2002
3003
,
1000
0000
0001
0100
0001
0000
1000
0100
,
1000
0100
0010
0000
,
0001
0000
0010
0001
0010
0000
0100
1000
,
0100
1000
0010
0000
,
1000
0010
1000
0000
0001
0100
0001
0000
,
0100
0010
1000
0000
,
0002
0000
0000
0000
,
2000
0000
0000
3003
,
1001
0000
1000
0001
0100
0000
0000
0000
,
0010
0000
0100
0000
0001
0000
0010
0200
,
0000
0000
0300
0000
,
0010
0001
1000
0001
,
0100
0020
0000
0000
0000
0000
0030
0000
,
1000
0000
0001
0000
0010
0000
0100
2000
,
0000
0000
3000
0000
,
0100
1000
0100
0000
0010
0001
0010
0000
,
0001
0200
0000
0000
0000
0000
0300
0000
,
0001
0000
0100
0000
0010
0000
1000
0002
,
0000
0000
0003
0000
,
1000
0000
0001
0000
0010
0000
0001
0200
,
0000
0000
0000
0300
,
0010
0000
0100
0000
0010
0000
1000
0002
,
0000
0000
0000
0003
,
1000
0001
1000
0000
0010
0100
0010
0000
,
0220
0000
0000
0000
,
0330
0000
0000
0000
;

//---------------dance-single - J. Frederick----------------
#NOTES:
     dance-single:
     J. Frederick:
     Hard:
     8:
     0.436,0.000,0.191,0.041,0.003:
0000
0000
0000
0000
,
0000
0000
0000
0000
,
0000
0000
0000
0000
,
0000
0000
0000
0000
,
0000
0000
0000
0000
,
0000
0000
0000
0000
,
0000
0000
0000
0000
,
0000
0000
0000
0000
,
1000
0001
0100
0010
0100
0000
0100
0000
,
0010
1000
0001
0010
0100
0000
0100
0000
,
0010
0001
1000
0001
1000
0000
1000
0000
,
0001
0100
0010
1000
0001
0000
0001
0000
,
0010
0100
1000
0001
0100
0000
0100
0000
,
0001
0100
0010
1000
0001
0000
0001
0000
,
1000
0001
0010
0100
1000
0000
1000
0000
,
0100
0010
0001
0100
0010
0100
0001
1000
,
0100
0000
1000
0001
0100
0000
0001
1000
,
0010
0000
0100
0010
1000
0001
0010
0100
,
1000
0000
0001
0100
0010
0000
0100
0001
,
1000
0000
0100
1000
0001
0010
1000
0010
,
0001
0000
0100
0010
1000
0000
0010
0100
,
0001
0000
0010
0100
1000
0000
0001
0100
,
1000
0000
1000
0100
0001
0000
0010
0100
,
1000
1000
0001
0100
0010
0100
0001
1000
,
0100
0000
0010
0001
0100
0000
0101
0000
,
0001
0100
0010
1000
0100
0000
1100
0000
,
1000
0100
0010
0001
1000
0000
1001
0000
,
1000
0001
0100
0010
1000
0000
1010
0000
,
0010
0000
0100
0001
0010
0000
0100
1000
,
0001
0000
0100
0001
1000
0000
0100
1000
,
0010
0000
1000
0001
0010
0000
0001
0100
,
0010
0000
0010
0000
0100
0000
0001
0000
1000
0000
0001
1000
0001
0000
1000
0000
,
0100
0000
0010
0001
0100
0000
0010
1000
,
0001
1000
1001
0000
,
1000
0000
0001
0100
0010
0000
1000
0100
,
0010
0001
0011
0000
,
0010
0000
0001
0100
0010
0000
1000
0100
,
1000
0001
1001
0000
,
1000
0001
0000
0000
,
1000
0100
0001
0100
1000
0000
0001
0100
,
0010
0000
0100
0010
1000
0000
1010
0000
,
1000
0010
0100
0001
0010
0000
0011
0000
,
0001
0010
0100
1000
0001
0000
1001
0000
,
1000
0001
0100
0010
1000
0000
1010
0000
,
0010
1000
0001
0010
0100
0000
0110
0000
,
0010
0001
0100
0010
1000
0000
1001
0000
,
0001
1000
0100
0000
1000
0001
0100
0000
,
0001
0100
0010
1000
0100
0010
0001
0010
,
0100
0000
1000
0001
0100
0000
0101
0000
,
0001
0100
0010
1000
0100
0000
1100
0000
,
1000
0100
0010
0001
1000
0000
1001
0000
,
0001
0100
0010
1000
0010
0000
1010
0000
,
1000
0010
0100
0001
0100
0000
0101
0000
,
0001
0010
0100
1000
0100
0000
1100
0000
,
1000
0100
0010
0001
0010
0000
0011
0000
,
0010
0010
0001
0200
0000
0000
0301
0100
,
0010
2000
0000
0000
0000
0000
0000
0000
,
0000
0000
0000
0000
,
3001
0000
0000
0100
0001
0000
0010
0000
,
0000
0000
0000
0100
1000
0000
0001
0000
,
0100
0000
0000
0010
1000
0000
0001
0000
,
0000
0000
0000
0010
0100
0000
1000
0000
,
0001
0000
0000
0100
0010
0000
0000
1000
,
0001
0000
0000
0010
0100
0000
0000
1000
,
0001
0000
0100
0010
1000
0000
0001
0000
,
0010
0100
1000
0001
0100
0010
1000
0001
,
0100
0000
0001
0100
0010
0000
0110
0000
,
0000
0000
0100
0001
1000
0000
1001
0000
,
1000
0000
0001
0010
0100
0000
1100
0000
,
0000
0000
1000
0100
0010
0000
0011
0000
,
0010
0000
0000
0001
0100
0000
0000
0010
,
1000
0000
0000
0001
0010
0000
0000
0100
,
1000
0001
0100
0010
,
1000
0001
1000
0001
1000
0000
0001
0000
,
1001
0000
0001
1000
0100
0000
1000
0001
,
0100
0010
0010
0000
,
0100
0000
0010
1000
0001
0000
0100
0001
,
1000
0100
0100
0000
,
0010
0000
0001
1000
0100
0000
1000
0001
,
0100
0010
0010
0000
,
0200
0000
0020
0330
,
0110
0000
1001
0000
,
1000
0001
0100
0010
1000
0000
0100
0000
,
0010
0001
0100
0010
1000
0000
0100
0000
,
1000
0001
0100
0001
1000
0000
0100
0000
,
1000
0001
0010
0001
1000
0000
0010
0000
,
1000
0001
0100
0010
1000
0000
0100
0000
,
0010
0001
1000
0100
1000
0000
0010
0000
,
0100
0001
0010
0000
0100
1000
0001
0000
,
0100
0010
1000
0001
0100
0001
1000
0100
,
0010
0000
0001
0010
0100
0000
1100
0000
,
1000
0100
0010
0001
0100
0000
0101
0000
,
0001
0100
0010
1000
0001
0000
1001
0000
,
0001
0010
0100
1000
0010
0000
1010
0000
,
1000
0010
0100
0001
0010
0000
0011
0000
,
0010
0001
0100
0010
1000
0000
1001
0000
,
0001
1000
0100
0000
1000
0001
0100
0000
,
0001
0001
0100
0020
0000
0000
1030
0001
,
2000
0200
0000
0000
0000
0000
0000
0000
,
3300
0000
0000
0000
;
