#TITLE:Hey Soul Sister (Karmatronic Remix);
#SUBTITLE:;
#ARTIST:Train;
#TITLETRANSLIT:;
#SUBTITLETRANSLIT:;
#ARTISTTRANSLIT:;
#GENRE:;
#CREDIT:;
#MUSIC:Hey Soul Sister (Karmatronic Remix).mp3;
#BANNER:;
#BACKGROUND:;
#CDTITLE:;
#SAMPLESTART:91.484;
#SAMPLELENGTH:12.000;
#SELECTABLE:YES;
#OFFSET:1.849;
#BPMS:0.000=126.000;
#STOPS:;
#BGCHANGES:;
#FGCHANGES:;

//--------------- dance-single - RaverAce ----------------
#NOTES:
     dance-single:
     RaverAce:
     Beginner:
     1:
     0,0,0,0,0:
0000
0000
0000
0000
,
0000
0000
0000
0000
,
0000
0000
0000
0000
,
0000
0000
0000
0000
,
0000
0000
0000
0000
,
0000
1000
0000
0000
,
0000
0000
0000
0000
,
0000
0001
0000
0000
,
0000
0000
0000
0000
,
1001
0000
0000
0000
,
0000
0000
0000
0000
,
1000
0000
0000
0000
,
0000
0000
0000
0000
,
0001
0000
0000
0000
,
0000
0000
0000
0000
,
1000
0000
0000
0000
,
0000
0000
0000
0000
,
0010
0000
0000
0000
,
0000
0000
0000
0000
,
0010
0000
0000
0000
,
0000
0000
0000
0000
,
0100
0000
0000
0000
,
0000
0000
0000
0000
,
0100
0000
0000
0000
,
0000
0000
0000
0000
,
0001
0000
0000
0000
,
0000
0000
0000
0000
,
0001
0000
0000
0000
,
0000
0000
0000
0000
,
1000
0000
0000
0000
,
0000
0000
0000
0000
,
1000
0000
0000
0000
,
0000
0000
0000
0000
,
0100
0000
0000
0000
,
0000
0000
0000
0000
,
0000
0000
0000
0000
,
0000
0000
0000
0000
,
0010
0000
0000
0000
,
0000
0000
0000
0000
,
0000
0000
0000
0000
,
0000
0000
0000
0000
,
1000
0000
0000
0000
,
0000
0000
0000
0000
,
0001
0000
0000
0000
,
0000
0000
0000
0000
,
0010
0000
0000
0000
,
0000
0000
0000
0000
,
0100
0000
0000
0000
,
0000
0000
0000
0000
,
1001
0000
0000
0000
,
1000
0000
0000
0000
,
0010
0000
0000
0000
,
0100
0000
0000
0000
,
0001
0000
0000
0000
,
0010
0000
0000
0000
,
0100
0000
0000
0000
,
1000
0000
0000
0000
,
1001
0000
0000
0000
,
0000
0000
0000
0000
,
0001
0000
0000
0000
,
0000
0000
0000
0000
,
1000
0000
0000
0000
,
0001
0000
0000
0000
,
1000
0000
0001
0000
,
1000
0000
0000
0000
,
1001
0000
0000
0000
,
0000
0000
0000
0000
,
1000
0000
0000
0000
,
0000
0000
0000
0000
,
0001
0000
0000
0000
,
1000
0000
0000
0000
,
0001
0000
1000
0000
,
0001
0000
0000
0000
,
1001
0000
0000
0000
,
0100
0000
0000
0000
,
0010
0000
0010
0000
,
0010
0000
0000
0000
,
0100
0000
0000
0000
,
0100
0000
0000
0000
,
0001
0000
0000
0000
,
0001
0000
0000
0000
,
1000
0000
0000
0000
;

//--------------- dance-single - RaverAce ----------------
#NOTES:
     dance-single:
     RaverAce:
     Easy:
     4:
     0,0,0,0,0:
0000
0000
0000
0000
,
0000
0000
0000
0000
,
0000
0000
0000
0000
,
0000
0000
0000
0000
,
0000
0000
0000
0000
,
0000
0001
0000
0001
,
0000
0001
0000
0001
,
0000
1000
0000
1000
,
0000
1000
0001
0000
,
1000
0000
0100
0000
,
1000
0000
0010
0000
,
0100
0000
0010
0000
,
1000
0000
0100
1000
,
0001
0000
0100
0000
,
0001
0000
0010
0000
,
0100
0000
0010
0000
,
0001
0000
0100
0001
,
0010
0010
0010
0000
,
0100
0000
0010
0001
,
1000
1000
1000
0000
,
0010
0000
0100
0001
,
1000
0000
0100
1000
,
0001
0000
0100
0001
,
1000
0000
0100
0000
,
1000
0000
0001
1000
,
0010
0010
0010
0000
,
0100
0000
0010
1000
,
0001
0001
0001
0000
,
0010
0000
0100
1000
,
0001
0000
0100
0001
,
1000
0000
0100
1000
,
0001
0000
0100
0000
,
0001
0000
1000
0001
,
1000
0000
0000
0000
,
0100
0000
0000
0000
,
1000
0000
0000
0000
,
0010
0000
1000
0000
,
0001
0000
0000
0000
,
0100
0000
0000
0000
,
0001
0000
0000
0000
,
0010
0000
0001
0000
,
1000
0000
1000
0000
,
0001
0000
0001
0000
,
0100
0000
0100
0000
,
0010
0000
0010
0000
,
1000
0000
0100
0000
,
1000
0000
0010
0000
,
0100
0000
0001
0000
,
0010
0000
0001
0000
,
1001
0000
1000
0000
,
0010
0000
0100
0001
,
1000
0000
0100
0000
,
0010
0000
0001
0000
,
1000
0000
0001
0000
,
0010
0000
0100
1000
,
0001
0000
0100
0000
,
0020
0000
0200
0330
,
1001
0000
1000
0000
,
0100
0000
1000
0010
,
0100
0000
0001
0000
,
0010
0000
0001
0100
,
0010
0000
0100
0000
,
0001
0000
1000
0000
,
0100
0000
1000
0000
,
0001
0000
1000
0001
,
1001
0000
0001
0000
,
0100
0000
0001
0010
,
0100
0000
1000
0000
,
0010
0000
1000
0100
,
0010
0000
0100
0000
,
1000
0000
0001
0000
,
0100
0000
0001
0000
,
1000
0000
0001
1000
,
1001
0000
0001
0000
,
0100
0000
0001
0000
,
0010
0000
0100
0000
,
1000
0000
0001
0000
,
1000
0000
0010
0000
,
0100
0000
0001
0000
,
1000
0000
0100
0000
,
0010
0000
0001
0000
,
1000
0000
0000
0000
;

//--------------- dance-single - RaverAce ----------------
#NOTES:
     dance-single:
     RaverAce:
     Medium:
     7:
     0,0,0,0,0:
0000
0000
0000
0000
,
0000
0000
0000
0000
,
0000
0000
0000
0000
,
0000
0000
0000
0000
,
0000
0000
0000
0000
,
0000
0001
0000
0001
,
0000
1000
0000
1000
,
0000
0100
0000
0100
,
0000
0010
0001
1000
,
1001
0001
0100
0010
,
0100
0001
1000
0100
,
0010
0001
0100
0010
,
1000
0000
0010
0000
0100
0000
0001
1000
,
1001
1000
0100
0010
,
0100
1000
0001
0100
,
0010
1000
0100
0010
,
0002
0000
1000
1003
,
0001
0100
1000
0100
,
0010
0000
1000
0000
0100
0000
1000
0001
,
1000
0010
0001
0010
,
0100
0000
0001
0000
1000
0000
0100
1000
,
0001
0000
0100
0000
0010
0000
0100
0001
,
1000
0100
0010
0001
,
1000
1000
0001
0001
,
1000
0000
0010
2000
0000
3001
0000
0001
,
1000
0100
0001
0100
,
0010
0000
0001
0000
0100
0000
0001
1000
,
0001
0010
1000
0010
,
0100
0000
1000
0000
0001
0000
0100
0001
,
1000
0000
0100
0000
0010
0000
0100
1000
,
0001
0100
0010
1000
,
0001
0001
1000
1000
,
0002
0023
0230
2300
,
3001
0000
0100
0000
0001
0010
0000
0001
,
0000
0100
0001
0010
0001
1000
0001
0100
,
0001
0000
0010
0000
1000
0000
0010
0100
,
0010
0001
0100
0010
,
1000
0000
0100
0000
1000
0010
0000
1000
,
0000
0100
1000
0010
1000
0001
1000
0100
,
1000
0000
0010
0000
0001
0000
0010
0100
,
0010
1000
0100
0010
,
0001
0000
0001
1000
,
1000
0000
0000
0000
0100
1000
0100
1000
,
0000
0000
0000
0000
0001
0100
0001
0100
,
0000
0000
0000
0000
0001
0000
1000
0001
,
1000
0000
1000
0001
,
0001
0000
0000
0000
0100
0001
0100
0001
,
0000
0000
0000
0000
1000
0100
1000
0100
,
0000
0000
0000
0000
1000
0000
0010
1000
,
1001
0001
0100
0010
,
0100
0001
0010
1000
,
0010
0100
1000
0001
,
0100
0000
1000
0000
0100
0000
0010
1000
,
0001
1000
0100
0010
,
0100
1000
0010
0001
,
0010
0100
0001
1000
,
0200
0000
1300
0001
,
1001
1000
0010
0001
,
0010
0000
0100
0000
0001
0000
1000
0100
,
1000
0010
0100
0001
,
0010
0000
0100
0000
1000
0000
0001
0100
,
0001
0000
0010
0000
0100
0000
1000
0010
,
1000
0100
0010
0001
,
1000
0100
0001
0100
,
1000
0000
0010
0000
0100
0000
0001
1000
,
1001
0001
0010
1000
,
0010
0000
0100
0000
1000
0000
0001
0100
,
0001
0010
0100
1000
,
0010
0000
0100
0000
0001
0000
1000
0100
,
1000
0000
0010
0000
0100
0000
0001
0010
,
0001
0100
0010
1000
,
0001
0100
1000
0100
,
0002
0000
1000
0000
1000
0000
1003
0001
,
1000
0100
1000
0010
,
0001
0000
0010
0000
0100
0000
0001
1000
,
0001
0000
1000
0000
,
0001
0000
1000
0000
0001
0000
0001
1000
,
0001
0100
0001
0010
,
1000
0000
0010
0000
0100
0000
1000
0001
,
1000
0010
0100
0002
,
2003
0000
3001
1000
,
0001
0000
0000
0000
;

//--------------- dance-single - RaverAce ----------------
#NOTES:
     dance-single:
     RaverAce:
     Hard:
     11:
     0,0,0,0,0:
0000
0000
0000
0000
,
0000
0000
0000
0000
,
0000
0000
0000
0000
,
0000
0000
0000
0000
,
0000
0000
0000
0000
,
0000
0000
0000
1000
0100
0000
0000
0000
0000
0000
0000
1000
0010
0000
0000
0000
,
0000
0000
0000
1000
0100
0000
0000
0000
0000
0000
0000
1000
0010
0000
0000
0000
,
1000
0000
0000
0001
0010
0000
0000
0000
0000
0000
0000
0001
0100
0000
0000
0000
,
0000
0000
0000
0001
0010
0000
0000
0000
0001
0000
0100
0010
0100
0010
1000
0000
,
1001
0000
0000
0001
0000
1000
0000
0100
1000
0000
0000
0001
0000
0100
0000
0010
,
0100
0000
0000
0001
0000
1000
0000
0100
1000
0000
0000
0001
0000
0010
0000
0010
,
0001
0000
0000
1000
0000
0001
0000
0100
0001
0000
0000
1000
0000
0100
0000
0010
,
0100
0000
0000
1000
0000
0001
0000
0100
0001
0000
0000
1000
0000
0010
0000
1000
,
0001
1000
0000
0100
0000
1000
0000
0000
0001
1000
0000
0010
0000
1000
0000
0000
,
0001
1000
0000
0100
0000
1000
0000
0000
0001
1000
0000
0010
0000
1000
0000
0001
,
1000
0001
0000
0100
0000
0001
0000
0000
1000
0001
0000
0010
0000
0001
0000
0000
,
1000
0001
0000
0100
0000
0001
0000
0000
1000
0000
0001
0010
0000
0001
1000
0000
,
0001
0000
0100
0000
1000
0000
1000
0100
,
0001
0000
1000
0100
0010
0001
0100
0010
,
1000
0000
0010
0000
0001
0000
0001
0010
,
1000
0000
0000
0000
0001
0000
1000
0001
0000
0100
0000
0001
0000
1000
0000
0100
,
1000
0000
0010
0000
0000
0000
1000
0000
0100
0010
0000
0000
0001
0000
0100
0000
,
2000
0000
3100
0020
0000
2030
0000
3001
,
0010
0000
0000
0001
0000
1000
0000
0000
0010
0000
0000
1000
0000
0001
0000
0000
,
0100
0000
0000
0001
0000
1000
0000
0000
0100
0000
0000
1000
0000
0001
0000
0000
,
1000
0000
0100
0000
0001
0000
0001
0100
,
1000
0000
0000
0000
0010
1000
0000
0200
0000
0000
1300
0000
0010
0000
0100
0000
,
0001
0000
0010
0000
1000
0000
1000
0010
,
0001
0000
0000
0000
0100
0000
0010
0000
0100
0000
0001
0000
1000
0000
0100
1000
,
0000
0010
0000
0000
1000
0000
0100
0010
0000
0001
0000
0000
1000
0000
0010
0000
,
0100
0000
0001
0000
0000
0000
0001
0000
0010
0000
0001
1000
0000
0010
1000
0000
,
0100
0000
0000
1000
0000
0010
0000
0000
0100
0000
0000
0001
0000
0010
0000
0000
,
0100
0000
0000
1000
0000
0001
0000
0000
0100
0000
0001
1000
0000
0001
1000
0000
,
0200
0000
0000
1000
0000
1000
0000
0000
1000
0000
0000
0010
0000
0010
0000
0000
,
0010
0000
0000
0010
0000
0010
0000
0000
0001
0000
0000
0001
0000
0001
0000
0000
,
0010
0000
0000
0010
0000
0010
0000
0000
1000
0000
0000
1000
0000
1000
0000
0000
,
0310
0000
0000
0010
0000
0020
0000
0000
0032
0000
0000
0203
0000
0320
0000
0000
,
0230
0000
0000
0001
0000
0001
0000
0000
0001
0000
0000
0010
0000
0010
0000
0000
,
0010
0000
0000
0010
0000
0010
0000
0000
1000
0000
0000
1000
0000
1000
0000
0000
,
0010
0000
0000
0010
0000
0010
0000
0000
0001
0000
0000
0001
0000
0001
0000
0000
,
0310
0000
0000
0010
0000
0020
0000
0000
2030
0000
0000
3200
0000
0320
0000
0000
,
0032
0000
0000
0100
0000
0100
0000
0000
0100
0000
0000
0100
0000
0100
0000
0000
,
1000
0000
0000
1000
0000
1000
0000
0000
1000
0000
0000
1000
0000
1000
0000
0000
,
0010
0000
0000
0010
0000
0010
0000
0000
0010
0000
0000
0010
0000
0010
0000
0000
,
1000
0000
0000
1000
0000
1000
0000
0000
1000
0000
0000
1000
0000
2003
0000
0000
,
0100
0000
0000
0100
0000
0100
0000
0000
0100
0000
0000
0100
0000
0100
0000
0000
,
0001
0000
0000
0001
0000
0001
0000
0000
0001
0000
0000
0001
0000
0001
0000
0000
,
0010
0000
0000
0010
0000
0010
0000
0000
0010
0000
0000
0010
0000
0010
0000
0000
,
0001
0000
0000
0001
0000
0001
0000
0000
3001
0000
1000
0001
0000
1000
0001
0000
,
1001
0000
0000
1000
0000
0100
0000
1000
0010
0000
0000
0100
0000
0001
0000
0010
,
0001
0000
0000
1000
0000
0100
0000
1000
0010
0000
0000
0100
0000
0001
0000
1000
,
0100
0000
0000
0001
0000
0100
0000
1000
0001
0000
0000
1000
0000
0100
0000
0001
,
1000
0000
0000
0010
0000
0001
0000
0010
1000
0000
0100
0010
0000
0010
0001
0000
,
1000
0000
0000
0001
0000
0100
0000
0001
0010
0000
0000
0100
0000
1000
0000
0010
,
1000
0000
0000
0001
0000
0100
0000
0001
0010
0000
0000
0100
0000
1000
0000
0001
,
0100
0000
0000
1000
0000
0100
0000
0001
1000
0000
0000
0001
0000
0100
0000
1000
,
0001
0000
0000
0100
0000
0001
0000
1000
0001
0000
1000
0100
0000
1000
0001
0000
,
2001
0000
0000
0000
3020
0000
0000
0000
0031
0000
0010
0100
0000
0001
1000
0000
,
0100
0000
1000
0010
0100
0001
0010
0100
,
0001
0000
0000
0000
0100
0000
0000
0000
1000
0000
0000
0010
0000
0000
1000
0000
,
0001
0000
0000
0000
0010
0000
0000
0001
1000
0000
0010
0000
1000
0000
0001
1000
,
0000
0100
0000
0000
1000
0000
0000
1000
0001
0000
0010
0000
0001
0000
1000
0001
,
0000
0100
0000
0000
0001
0000
1000
0000
0200
0000
0000
0000
0320
0000
0000
0000
,
0031
0000
0001
0100
1000
0000
1000
0100
,
0010
0000
0000
1000
0000
0000
0001
0000
0010
0100
0010
0000
0001
0000
1000
0000
,
1002
0000
0023
0000
1030
0000
1000
0010
,
0100
0010
0001
0010
0100
1000
0010
0100
,
1000
0000
0000
0000
0100
0000
0000
0000
0001
0000
0000
0010
0000
0000
0001
0000
,
1000
0000
0000
0000
0010
0000
0000
0000
1000
0000
0100
0010
0000
0001
0000
0200
,
0000
0000
0000
0000
0301
0000
0010
0002
0000
0000
1003
0000
0001
0000
0100
0010
,
0000
0100
0000
0000
0001
0020
0000
0200
0030
0000
0310
0000
0001
0000
1000
0000
,
0001
0000
1000
0200
0000
0302
0000
0103
,
0010
0000
0000
0001
0000
1000
0000
0000
0010
0000
1000
0001
0000
1000
0001
0000
,
1000
0000
0100
0000
0010
0000
0001
0000
0100
0001
0000
0020
0000
0000
0031
0000
,
1000
0000
0100
1000
0000
0010
0000
1000
0000
0001
0000
0010
0000
0001
0000
1000
,
0010
0000
0000
1000
0001
0000
0000
0001
,
1000
0000
0000
0000
0100
0000
0000
0000
1000
0000
0010
1000
0000
0001
0000
0010
,
0001
0000
0100
0010
0100
0010
0100
0000
0001
0000
0010
0000
0100
0000
1000
0010
,
0000
0000
1000
0100
0000
0010
0000
0001
1000
0000
0010
0100
0000
0001
0000
1000
,
0100
0000
0000
0100
0000
0100
0000
0000
1000
0000
0000
1000
0000
1000
0000
0000
,
0010
0000
0000
0010
0000
0010
0000
0000
0100
0000
0001
0010
0000
0001
0000
0000
,
1000
0000
0000
0000
;
