#TITLE:HOLDonME;
#SUBTITLE:;
#ARTIST:;
#CREDIT:;
#MUSIC:HOLDonME.mp3;
#OFFSET:0.208550;
#SAMPLESTART:0.000;
#SAMPLELENGTH:15.000;
#SELECTABLE:YES;
#BPMS:0.000=131.000000;
#STOPS:;
#BGCHANGES:;
#NOTES:
     dance-single:
     :
     Easy:
     3:
     0.000,0.000,0.000,0.000,0.000:
0000
0000
0000
0000,
0000
0000
0000
0000,
0000
0000
0000
0000,
0000
0000
0000
0000,
0000
0000
0010
0000,
0010
0000
0100
0000,
0100
0000
1000
0000,
1000
0000
0010
0000,
0010
0000
0000
0010,
1001
0000
0000
0100,
1001
0010
0010
0100,
0100
1000
1000
0001,
0001
0000
0000
0010,
1001
0000
0000
0100,
1001
0010
0010
0100,
0100
1000
1000
0001,
0001
0000
0010
0000,
0010
0000
0100
0000,
1001
0000
0100
0000,
0100
0000
0010
0000,
1001
0010
0010
0000,
0000
0001
0001
0000,
0000
1000
1000
0000,
0000
0100
0100
0100,
1001
0000
0010
0000,
0010
0000
0100
0000,
0100
0000
1000
0000,
1000
0010
1000
0100,
0001
0000
0010
0000,
0010
0000
0100
0000,
0100
0000
0001
0000,
0001
1000
1000
1000,
1001
0010
1000
0100,
0001
0010
0001
0100,
0001
0010
1001
0010,
1001
0100
0100
0100,
0100
0010
0001
0100,
1000
0010
0001
0100,
1000
0000
0010
0000,
0010
0000
0100
0000,
1001
0010
0010
0100,
0100
1000
0001
1000,
0001
0010
0010
0010,
0010
1000
1000
1000,
0001
0100
0000
0000
;
