#TITLE:Fire Burning;
#SUBTITLE:;
#ARTIST:Sean Kingston;
#TITLETRANSLIT:;
#SUBTITLETRANSLIT:;
#ARTISTTRANSLIT:;
#GENRE:;
#CREDIT:;
#BANNER:;
#BACKGROUND:;
#LYRICSPATH:;
#CDTITLE:;
#MUSIC:Fire Burning.mp3;
#OFFSET:-0.230;
#SAMPLESTART:55.080;
#SAMPLELENGTH:12.000;
#SELECTABLE:YES;
#BPMS:0.000=123.000;
#STOPS:;
#BGCHANGES:-0.230=Fire Burning.mp4=1.000=1=0=0=StretchNoLoop==CrossFade==,;
#KEYSOUNDS:;

//---------------dance-single - J. Frederick----------------
#NOTES:
     dance-single:
     J. Frederick:
     Beginner:
     1:
     0.069,0.000,0.066,0.000,0.000: // measure 1
0000
0000
0000
0000
,  // measure 2
0000
0000
0000
0000
,  // measure 3
0000
0000
0000
0000
,  // measure 4
0000
0000
0000
0000
,  // measure 5
0000
0000
0001
0000
,  // measure 6
0000
0000
1000
0000
,  // measure 7
0000
0000
0100
0000
,  // measure 8
0000
0000
0010
0000
,  // measure 9
0000
0000
1001
0000
,  // measure 10
0000
0000
1000
0000
,  // measure 11
0000
0000
0010
0000
,  // measure 12
0000
0000
0100
0000
,  // measure 13
0000
0000
0001
0000
,  // measure 14
0000
0000
0001
0000
,  // measure 15
0000
0000
1000
0000
,  // measure 16
0000
0000
1000
0000
,  // measure 17
0000
0000
0010
0000
,  // measure 18
0000
0000
0100
0000
,  // measure 19
0000
0000
0001
0000
,  // measure 20
0000
0000
1000
0000
,  // measure 21
0000
0000
1001
0000
,  // measure 22
0000
0000
0100
0000
,  // measure 23
0000
0000
0110
0000
,  // measure 24
0000
0000
0010
0000
,  // measure 25
0000
0000
0001
0000
,  // measure 26
0000
0000
1000
0000
,  // measure 27
0000
0000
0010
0000
,  // measure 28
0000
0000
0100
0000
,  // measure 29
0000
0000
1001
0000
,  // measure 30
0000
0000
0001
0000
,  // measure 31
0000
0000
1000
0000
,  // measure 32
0000
0000
0010
0000
,  // measure 33
0000
0000
0100
0000
,  // measure 34
0000
0000
0001
0000
,  // measure 35
0000
0000
1000
0000
,  // measure 36
0000
0000
0100
0000
,  // measure 37
0000
0000
0010
0000
,  // measure 38
0000
0000
0000
0000
,  // measure 39
0000
0000
0100
0000
,  // measure 40
0000
0000
0000
0000
,  // measure 41
0000
0000
1000
0000
,  // measure 42
0000
0000
0000
0000
,  // measure 43
0000
0000
0001
0000
,  // measure 44
0000
0000
0000
0000
,  // measure 45
0000
0000
1001
0000
,  // measure 46
0000
0000
0110
0000
;

//---------------dance-single - J. Frederick----------------
#NOTES:
     dance-single:
     J. Frederick:
     Easy:
     3:
     0.140,0.000,0.055,0.088,0.000: // measure 1
0000
0000
0000
0000
,  // measure 2
0000
0000
0000
0000
,  // measure 3
0000
0000
0000
0000
,  // measure 4
0000
0000
0000
0000
,  // measure 5
0000
0000
1000
0000
,  // measure 6
0001
0000
0100
0000
,  // measure 7
0010
0000
1000
0000
,  // measure 8
0001
0000
1000
0001
,  // measure 9
1000
0000
1001
0000
,  // measure 10
0000
0000
0100
0000
,  // measure 11
0010
0000
0110
0000
,  // measure 12
0000
0000
0001
0000
,  // measure 13
1000
0000
0100
0000
,  // measure 14
0000
0000
0010
0000
,  // measure 15
0000
0000
0001
0000
,  // measure 16
1000
0000
0020
0000
,  // measure 17
0030
0000
0100
0000
,  // measure 18
0001
0000
1000
0000
,  // measure 19
0010
0000
0100
0000
,  // measure 20
0001
0000
2000
0000
,  // measure 21
3000
0000
0001
0000
,  // measure 22
0001
0000
1000
0000
,  // measure 23
1000
0000
0010
0000
,  // measure 24
0010
0000
0100
0000
,  // measure 25
0100
0000
0010
0100
,  // measure 26
0010
0000
1000
0001
,  // measure 27
1000
0000
0001
0000
,  // measure 28
0100
0000
0010
0000
,  // measure 29
0001
0000
1001
0000
,  // measure 30
0000
0000
1000
0000
,  // measure 31
0001
0000
0100
0100
,  // measure 32
0000
0000
0010
0000
,  // measure 33
1000
0000
0001
0000
,  // measure 34
0010
0000
0100
0000
,  // measure 35
1000
0000
0001
0001
,  // measure 36
0000
0000
0100
0000
,  // measure 37
0010
0000
0220
0000
,  // measure 38
0000
0330
0010
0010
,  // measure 39
0000
0000
2002
0000
,  // measure 40
0000
3003
1000
1000
,  // measure 41
0000
0000
0001
0000
,  // measure 42
0100
0000
0010
0010
,  // measure 43
0000
0000
1000
0000
,  // measure 44
0100
0000
0010
0010
,  // measure 45
0000
0000
0002
0000
,  // measure 46
0000
0003
2000
0000
,  // measure 47
0000
3000
0000
0000
;

//---------------dance-single - J. Frederick----------------
#NOTES:
     dance-single:
     J. Frederick:
     Medium:
     5:
     0.257,0.000,0.088,0.132,0.000: // measure 1
0000
0000
0000
0000
,  // measure 2
0000
0000
0000
0000
,  // measure 3
0000
0000
0000
0000
,  // measure 4
0000
0000
0000
0000
,  // measure 5
0000
0000
2000
3000
,  // measure 6
0002
0003
0100
0010
,  // measure 7
1000
0001
0020
0030
,  // measure 8
0200
0300
1000
0010
,  // measure 9
0100
0001
2002
0000
,  // measure 10
3003
0000
0001
1000
,  // measure 11
0010
0100
0001
0000
,  // measure 12
1000
0000
0100
0010
,  // measure 13
0001
1000
0100
1000
,  // measure 14
0001
0000
0100
0010
,  // measure 15
1000
0000
0001
0010
,  // measure 16
0100
1000
0001
0100
,  // measure 17
0010
0000
0010
0000
0100
0001
0100
0000
,  // measure 18
0010
0000
0000
0000
1000
0100
1000
0000
,  // measure 19
0001
0000
0010
0100
,  // measure 20
1000
0001
0100
0000
,  // measure 21
0010
0000
1000
0001
,  // measure 22
0010
0000
0100
0000
1000
0000
0001
0100
,  // measure 23
0000
0001
0010
0100
,  // measure 24
1000
0000
0001
0000
0100
0000
0010
1000
,  // measure 25
0000
0010
1000
0001
,  // measure 26
1001
1000
0100
0010
,  // measure 27
0110
0000
0010
0000
0001
0000
1000
0001
,  // measure 28
1000
0001
0100
0010
,  // measure 29
0110
0000
0100
0010
,  // measure 30
1000
0000
0010
0100
,  // measure 31
0001
0000
1000
0100
0010
0000
0001
0000
,  // measure 32
0000
1000
0002
0003
,  // measure 33
2000
3000
0001
0100
,  // measure 34
0010
0000
1000
0001
,  // measure 35
0010
0000
0100
1000
0001
0000
0100
0000
,  // measure 36
0000
0010
2000
3000
,  // measure 37
0002
0003
1001
1000
,  // measure 38
0001
0100
0010
0010
,  // measure 39
0000
0100
0110
0100
,  // measure 40
0001
1000
0010
0010
,  // measure 41
0000
1000
1001
0001
,  // measure 42
1000
0100
0010
0010
,  // measure 43
0000
0100
1001
1000
,  // measure 44
0001
0100
0010
0010
,  // measure 45
0000
0100
0020
0030
,  // measure 46
2000
0000
3000
0000
0001
1000
0001
0000
,  // measure 47
0010
0100
0000
0000
;

//---------------dance-single - J. Frederick----------------
#NOTES:
     dance-single:
     J. Frederick:
     Hard:
     8:
     0.472,0.000,0.099,0.275,0.071: // measure 1
0000
0000
0000
0000
,  // measure 2
0000
0000
0000
0000
,  // measure 3
0000
0000
0000
0000
,  // measure 4
0000
0000
0000
0000
,  // measure 5
0000
0000
2000
3001
,  // measure 6
0100
0000
0010
0000
0100
0100
0010
1000
,  // measure 7
0002
1003
0200
0310
,  // measure 8
0001
0000
1000
0000
0010
0100
0001
1000
,  // measure 9
0100
0000
0000
0010
0000
0000
0001
0000
1000
0000
0010
0000
0001
0000
0010
0000
,  // measure 10
1000
0100
0010
0000
0001
0100
1000
0100
,  // measure 11
0001
0010
0100
0000
1000
0001
0100
0000
,  // measure 12
0010
1000
0001
0000
0010
0100
1000
0010
,  // measure 13
0100
0001
1001
0000
1000
0001
0100
0010
,  // measure 14
1000
0000
0100
0010
0001
0100
0010
1000
,  // measure 15
0100
0000
1000
0010
0100
0100
0001
0010
,  // measure 16
0100
0100
0010
0002
0000
2000
0000
0000
,  // measure 17
3003
0000
0000
0000
1001
0000
0000
0000
1000
0001
1000
0000
0001
0000
0100
0000
,  // measure 18
0010
0000
0000
0000
1000
0000
0000
0000
0100
1000
0100
0000
0010
0000
0001
0000
,  // measure 19
0100
0000
0000
0000
0010
0000
0000
0000
0100
0001
0100
0000
0010
0000
1000
0000
,  // measure 20
0001
0010
0100
2000
0000
0002
0000
0000
,  // measure 21
3003
0000
1001
0000
1000
0001
0100
0010
,  // measure 22
1000
0100
0010
0001
0200
0000
0310
0100
,  // measure 23
0000
0100
0010
0000
1000
0100
0010
0100
,  // measure 24
1000
0010
0100
0001
0020
0000
0031
0100
,  // measure 25
0000
0100
0001
1000
0010
0100
0001
1000
,  // measure 26
0100
0000
0010
0001
1000
0100
1000
0001
,  // measure 27
0100
0000
0010
0100
0001
1000
0100
0010
,  // measure 28
0001
0001
0000
0000
1000
0001
0000
0100
,  // measure 29
0100
0000
0010
0000
1000
0010
1000
0000
1010
0000
0000
0000
0101
0000
0000
0000
,  // measure 30
0011
0000
0010
0000
0100
0010
0001
1000
,  // measure 31
0010
0100
0010
1000
0002
0000
1003
0000
,  // measure 32
0100
0010
0001
0200
0000
0020
0000
0000
,  // measure 33
0330
0000
0010
0001
0011
0000
1100
0000
,  // measure 34
1001
0000
1000
0001
0100
0010
1000
0100
,  // measure 35
0010
0001
0100
0010
0200
0000
0310
0000
,  // measure 36
0100
0010
1000
0002
0000
2000
0000
0000
,  // measure 37
3003
0000
0000
0000
0000
0000
0000
0000
0001
0100
0001
0000
0100
0000
0001
0000
,  // measure 38
1000
0010
1000
0000
0010
0000
1000
0000
0200
0000
0000
0000
0310
0000
0000
0000
,  // measure 39
0100
0000
1000
0000
0010
0000
0100
0000
0001
1000
0001
0000
1000
0000
0001
0000
,  // measure 40
0010
0100
0010
0000
0100
0000
1000
0000
0002
0000
0000
0000
0103
0000
0000
0000
,  // measure 41
0010
0000
0100
0000
0001
0000
0010
0000
0001
0010
0001
0000
0010
0000
0100
0000
,  // measure 42
1000
0100
1000
0000
0100
0000
1000
0000
0002
0000
0000
0000
0103
0000
0000
0000
,  // measure 43
0010
0000
0100
0000
0001
0000
1000
0000
0010
1000
0010
0000
1000
0000
0010
0000
,  // measure 44
0100
0001
0100
0000
0001
0000
1000
0000
0200
0000
0000
0000
0310
0000
0000
0000
,  // measure 45
0001
0010
0100
1000
0002
0000
0203
0000
,  // measure 46
0320
0000
2030
0000
3001
0001
0010
0100
,  // measure 47
2000
3002
0003
0000
;
