#TITLE:FIGHT TO WIN;
#SUBTITLE:;
#ARTIST:;
#CREDIT:;
#MUSIC:FIGHT TO WIN.mp3;
#OFFSET:0.117000;
#SAMPLESTART:0.000;
#SAMPLELENGTH:15.000;
#SELECTABLE:YES;
#BPMS:0.000=180.000000;
#STOPS:;
#BGCHANGES:;
#NOTES:
     dance-single:
     :
     Easy:
     4:
     0.000,0.000,0.000,0.000,0.000:
0000
0000
0000
0000
0000
0000
0000
0000,
0000
0000
0000
0000
0000
0000
0000
0000,
0000
0000
0000
0000
0000
0000
0000
0000,
0000
0000
0000
0000
0000
0000
0000
0000,
0000
0000
0000
0000
0010
0000
0010
0000,
0000
0000
0000
0000
0100
0000
0100
0000,
0000
0000
0000
0000
1000
0000
1000
0000,
0000
0000
0000
0000
0001
0000
0001
0000,
0000
0000
0000
0000
0010
0000
1001
0000,
0000
0000
0000
0000
0100
0000
1001
0000,
0000
0000
0000
0000
1000
0000
0110
0000,
0000
0000
0000
0000
1000
0000
0110
0000,
0000
0000
0000
0000
0010
0000
0001
0000,
0100
0000
0100
0000
1000
0000
1000
0000,
0010
0000
1001
0000
0010
0000
0001
0000,
0100
0000
0100
0000
0001
0000
0001
0000,
0100
0000
1010
0000
0010
0000
1001
0000,
0010
0000
1001
0000
0100
0000
0100
0000,
0100
0000
0100
0000
1000
0000
0011
0000,
1001
0000
0101
0000
0000
0000
0000
0000,
0000
0000
0000
0000
1000
0000
0000
1000,
0000
0000
0000
0000
0100
0000
1000
0001,
0000
0000
0000
0000
0010
0001
0000
0100,
0000
0000
0000
0000
0000
0000
0000
0000,
0000
0000
0000
0000
0010
0100
0000
0000,
0000
0000
1001
0000
0100
0000
0000
1000,
0001
0000
0000
0000
0010
0000
0000
0000,
0000
0000
0000
0000
0000
0000
0000
0000,
0000
0000
0010
0100
1000
0000
0000
1000,
0000
0000
0000
0000
0010
1000
0001
0100,
0000
0000
0000
0000
0001
0000
0000
0001,
0000
0000
0000
0000
0010
0001
1000
0100,
0000
0000
0000
0000
0010
0000
0010
0010,
0000
1000
0000
0001
0000
0000
0000
0000,
0000
0000
0000
0000
0000
0000
0000
0000,
0000
0000
0000
0000
0000
0010
1000
0001,
1000
0001
1000
0001
0000
0000
0000
0000,
0000
0000
0000
0000
0000
0000
0000
0000,
0000
0000
0000
0000
0000
0000
0000
0000,
0000
0000
0000
0000
0000
0010
1000
0001,
1000
0001
1000
0001
0100
0000
0100
0000,
0100
0000
0100
0000
0001
0000
1010
0000,
0100
0000
0011
0000
0010
0000
0010
0000,
0010
0000
0010
0000
1000
0000
0101
0000,
0010
0000
1100
0000
0010
0000
0001
0000,
0100
0000
1000
0000
0000
0000
0000
0000,
0000
0000
0000
0000
0010
0000
1000
0000,
0100
0000
0001
0000
0000
0000
0000
0000,
0000
0000
0010
0000
1000
0000
0000
1000,
0000
0000
0001
0000
0100
0000
0000
1000,
0000
0000
0000
0000
0001
0001
0000
0001,
0000
0000
0000
0000
0000
0000
0000
0000,
0000
0000
0000
0000
0010
0000
1000
0000,
0010
0000
0001
0000
0100
0000
1000
0000,
0100
0000
0001
0000
1000
0000
0110
0000,
0001
0000
0110
0000
0011
0000
1010
0000,
1100
0000
0101
0000
1000
0000
0000
1000,
0000
0000
0000
0000
0010
1000
0001
0100,
0000
0000
0000
0000
0001
0000
0000
0001,
0000
0000
0000
0000
0010
0001
1000
0100,
0000
0000
0000
0000
0010
0000
0010
0010,
0000
1000
0000
0101
0000
0000
0000
0000,
0000
0000
1000
0100
0000
0000
0000
0000
;
