#TITLE:Eye of the Tiger;
#SUBTITLE:;
#ARTIST:Survivor;
#TITLETRANSLIT:;
#SUBTITLETRANSLIT:;
#ARTISTTRANSLIT:;
#GENRE:;
#CREDIT:;
#MUSIC:Eye of the Tiger.mp3;
#BANNER:;
#BACKGROUND:;
#CDTITLE:;
#SAMPLESTART:75.449;
#SAMPLELENGTH:11.315;
#SELECTABLE:YES;
#OFFSET:0.892;
#BPMS:0.000=108.930
,12.000=111.420
,14.000=108.910
,16.000=107.820
,20.000=108.390
,22.750=108.000
,26.500=109.450
,28.000=107.850
,30.000=111.000
,32.000=109.570
,36.000=107.000
,42.000=109.000
,46.000=111.300
,49.000=108.760
,59.000=108.110
,66.000=108.860
,67.000=109.250
,68.000=110.200
,70.000=111.710
,71.000=108.610
,72.000=110.000
,73.000=107.480
,75.000=106.000
,76.000=108.700
,79.000=109.400
,87.000=109.620
,94.000=107.000
,95.000=107.240
,99.000=108.290
,100.000=109.040
,104.000=109.810
,106.000=111.670
,108.000=112.000
,109.000=107.570
,110.000=108.770
,115.000=108.160
,116.000=108.720
,124.000=107.660
,128.000=109.000
,130.000=109.630
,132.000=109.450
,135.000=108.500
,137.000=107.760
,138.000=107.250
,140.000=108.840
,144.000=111.000
,146.000=108.200
,148.000=110.280
,151.000=109.260
,152.000=105.000
,153.000=107.280
,154.000=109.760
,156.000=106.460
,157.000=109.000
,160.000=109.780
,168.000=114.000
,170.000=106.130
,171.000=104.000
,172.000=107.730
,175.000=105.240
,178.000=109.000
,179.000=110.000
,183.000=109.000
,191.000=110.680
,194.000=107.000
,196.000=108.000
,202.000=110.000
,210.000=107.000
,211.000=105.070
,213.000=111.000
,218.000=105.000
,219.000=110.380
,223.000=107.000
,224.000=107.820
,225.000=110.850
,227.000=107.000
,228.000=109.290
,234.000=111.000
,235.000=110.040
,239.000=114.260
,241.000=105.840
,242.000=95.000
,243.000=106.380
;
#STOPS:170.000=0.565
,241.000=0.567
;
#BGCHANGES:;
#FGCHANGES:;

//--------------- dance-single - OrangeRight ----------------
#NOTES:
     dance-single:
     OrangeRight:
     Beginner:
     3:
     0,0,0,0,0:
0000
0000
0000
0000
,
0000
0000
0000
0000
,
0000
0000
0000
0000
,
0000
0000
0000
0000
,
0000
0000
0000
0000
,
1000
0000
0000
0000
,
0001
0000
0000
0000
,
0001
0000
0000
0000
,
1000
0000
0000
0000
,
1000
0000
0100
0000
,
0010
0000
0100
0000
,
1000
0000
0001
0000
,
0100
0000
0000
0000
,
0001
0000
0010
0000
,
0100
0000
0010
0000
,
0001
0000
1000
0000
,
0010
0000
0000
0000
,
1001
0000
0000
0000
,
0000
0000
0000
0000
,
1000
0000
0010
0000
,
0100
0000
0100
0000
,
0001
0000
1000
0000
,
0100
0100
0000
0000
,
1000
0000
0100
0000
,
0010
0000
0001
0000
,
1000
0000
0001
0000
,
1001
0000
0000
0000
,
0001
0000
0010
0000
,
0100
0000
0100
0000
,
1000
0000
0001
0000
,
0100
0100
0000
0000
,
0001
0000
1000
0000
,
0010
0000
0100
0000
,
0001
0000
1000
0000
,
1001
0000
0000
0000
,
2000
3000
0000
0000
,
0100
0000
0010
0000
,
0001
0000
1000
0000
,
1001
0000
0000
0000
,
0002
0003
0000
0000
,
0010
0000
0010
0000
,
0001
0000
1000
0000
,
0001
0000
2002
3003
,
0000
0000
0000
0000
,
0000
0000
0000
0001
,
0000
0010
0000
0100
,
0000
0100
0000
1000
,
0000
0001
0000
0010
,
0010
0000
0000
0001
,
0000
1000
0000
0100
,
0000
0100
0000
1000
,
0000
0001
0000
1001
,
0000
0000
0000
0002
,
0003
0000
0000
0010
,
0000
0100
0000
1000
,
0000
0001
0000
0001
,
0001
0000
0000
2000
,
3000
0000
0000
0100
,
0000
1000
0000
0010
,
0000
0100
0001
0100
,
0000
0220
0000
0330
;

//--------------- dance-single - OrangeRight ----------------
#NOTES:
     dance-single:
     OrangeRight:
     Easy:
     6:
     0,0,0,0,0:
0000
0000
0000
0000
,
0000
0000
0000
0000
,
0000
0000
0000
0000
,
0000
0000
0000
0000
,
0000
0000
0000
0000
,
1001
0000
0000
0000
1001
0000
0000
1001
,
0000
0000
0000
0000
0000
0110
0000
0000
,
0110
0000
0000
0000
0000
0000
0000
0000
0100
0000
0000
0010
0000
0000
2000
0000
,
0000
0000
0000
3000
,
1000
0100
0010
0010
,
0001
0100
0010
0010
,
1000
0001
0100
0010
,
2000
0000
3001
1000
,
0001
0100
0010
0010
,
1000
0100
0010
0010
,
0001
1000
0010
0100
,
0020
0000
0030
0000
,
1000
0000
1000
0000
,
0001
0000
0001
0000
,
1000
0010
1000
0000
,
0001
0010
0100
0000
,
1000
0100
0001
0000
,
0001
0100
1000
0000
,
0010
1000
0100
0010
,
0001
0000
1000
0000
,
0001
0100
1000
0000
,
1000
0100
0001
1000
,
0001
0100
0001
0000
,
1000
0100
1000
0000
,
0001
0010
0100
1000
,
0001
0001
0000
0000
,
1000
0010
1000
0000
,
0001
0010
0001
0000
,
1000
0100
0001
0000
,
0001
0100
1000
0001
,
1002
0000
0013
0001
,
0100
0010
1000
0100
,
2000
0000
3100
1000
,
0010
0010
0000
1000
,
0002
0000
0013
0001
,
1000
0001
0100
0010
,
2000
0000
3002
0000
,
1003
0000
0001
0000
2002
3003
1000
0000
,
0200
0000
0300
1000
,
0010
0100
0001
1000
,
0001
1000
0000
0001
,
0100
0010
0000
1000
,
0010
0001
0000
0001
,
0010
1000
0000
1000
,
0100
0010
0001
0100
,
0010
0100
0000
0001
,
0010
1000
0010
0002
,
1000
1003
0001
2001
,
0000
3100
1000
0010
,
0100
0001
0010
0002
,
0000
0013
0001
0100
,
0100
0000
0001
2000
,
0000
3100
1000
0001
,
1000
0010
1000
0200
,
0000
0320
0000
0031
,
1000
0000
2002
3003
1001
0000
1001
0000
;

//--------------- dance-single - OrangeRight ----------------
#NOTES:
     dance-single:
     OrangeRight:
     Medium:
     8:
     0,0,0,0,0:
0000
0000
0000
0000
,
0000
0000
0000
0000
,
0000
0000
0000
0000
,
0000
0000
0000
0000
,
0000
0000
0000
0000
,
1001
0000
0000
0000
0000
0000
0000
0000
1100
0000
0000
1100
0000
0000
1100
0000
,
0000
0000
0000
0000
0000
0000
0000
0000
0000
0000
0101
0000
0000
0101
0000
0000
,
0101
0000
0000
0000
0000
0000
0000
0000
0110
0000
0000
0110
0000
0000
2002
0000
,
0000
0000
0000
3003
,
1000
0000
0000
0000
1100
0000
0000
0000
1000
0000
0000
0001
0000
0000
0100
0000
,
0001
0000
0000
0000
0011
0000
0000
0000
0001
0000
0000
1000
0000
0000
0010
0000
,
1000
0000
0000
0000
1100
0000
0000
0000
1010
0000
0000
0110
0000
0000
0102
0000
,
0000
0010
1003
1001
,
0001
0000
0000
0000
0011
0000
0000
0000
0001
0000
0000
0100
0000
0000
0010
0000
,
1000
0000
0000
0000
1100
0000
0000
0000
1000
0000
0000
0010
0000
0000
0100
0000
,
0001
0000
0000
0000
1001
0000
0000
0000
0011
0000
0000
0110
0000
0000
2100
0000
,
0000
0000
0010
0000
3001
0000
1000
0100
,
1000
1000
0001
0001
,
0100
0100
0010
1000
,
0001
0000
0010
0001
0010
0000
0100
0000
,
1000
0010
0100
0001
0010
0000
0100
0000
,
0010
0000
0001
0100
1000
0000
1000
0100
,
0001
0000
1001
0000
0001
0000
1000
0100
,
1000
0000
0010
1000
0010
0100
0001
0000
,
1000
0000
0000
0100
0000
0000
0010
0000
0001
0000
0000
0000
0001
0000
0010
0000
,
1000
0000
1000
0010
0001
0000
1000
0001
,
2001
0000
0100
0000
3001
0100
0010
0000
,
1000
0100
0010
0100
1000
0000
0010
0000
,
0100
0001
0010
0001
0100
0000
0001
0000
,
1000
0010
1000
0010
0100
0001
0100
0000
,
0101
0000
1001
0000
1000
0001
1000
0001
,
1000
0010
0100
0001
0010
0000
0001
1000
,
0001
0000
0000
1000
0000
1000
0000
0000
0001
0000
0000
0000
1000
0000
0100
0000
,
0001
0000
0001
0100
1000
0000
1000
0001
,
1002
0000
0000
0000
0010
0000
0000
0000
1003
0000
0001
0000
0000
0001
0000
0000
,
1000
0010
0100
0001
0020
0000
0130
0010
,
0001
0000
0100
0000
0010
0000
2000
0000
0000
0000
3001
0000
0000
0001
0000
0000
,
0001
0000
0100
0001
0010
0100
1000
0000
,
1001
0000
0000
0000
0110
0000
0000
0000
0010
0000
1000
0000
0000
0001
0000
0000
,
1000
0000
0001
0100
0010
0100
0001
0000
,
1000
0000
0001
0000
1000
0000
0001
0000
0000
0000
0001
0000
0000
0100
0000
0000
,
0010
0000
1000
0000
0100
0000
0010
0000
0001
0000
0100
0000
,
0010
0000
1000
0001
2002
3003
0001
0000
,
0001
1000
1000
0010
,
0010
0000
0100
0000
0001
0010
0001
0000
,
1000
0010
0100
0000
0101
0000
0001
0010
,
0100
0010
0001
0000
1001
0000
1000
0000
,
0001
0010
1000
0000
1000
0010
0001
0000
,
1001
0000
0001
0100
0010
0000
1000
0010
,
0100
0000
0000
0001
0000
0000
1000
0000
0100
0000
0010
0000
0001
0000
0000
1000
,
0000
0001
1000
0000
0001
0100
1000
0000
,
1000
0100
0001
0000
0001
1000
2001
0000
,
0010
0000
0000
0000
3001
0000
1000
0000
0000
1000
0000
0000
0001
0000
0100
0000
,
0010
1000
0200
0000
0310
0100
2000
0000
,
3001
0000
0100
0000
0000
0000
0010
0000
0000
0010
0000
0000
1000
0000
0000
0000
,
0100
0010
0001
0100
0001
0000
1001
0000
,
0110
0000
0000
0000
0100
0000
0001
0000
0000
1000
0000
0000
1001
0000
0000
0000
,
1000
0010
0100
0001
0010
0000
0001
1000
,
0001
0000
0000
0000
0000
0000
1000
0000
0000
0000
0000
0000
0000
0000
0000
0000
0000
0000
1000
0000
0000
0000
0000
0000
0000
0000
0000
0010
0000
0000
0000
0000
0000
0000
0000
0000
1000
0000
0000
0000
0000
0000
0000
0000
0100
0000
0000
0000
,
0000
0001
0000
0100
0000
1000
0000
0010
0000
0100
0000
0000
,
0001
1000
2002
3003
1001
0000
1001
0000
;

//--------------- dance-single - OrangeRight ----------------
#NOTES:
     dance-single:
     OrangeRight:
     Hard:
     11:
     0,0,0,0,0:
0000
0000
0000
0000
,
0000
0000
0000
0000
,
0000
0000
0000
0000
,
0000
0000
0000
0000
,
0000
0000
0000
0000
,
1001
0000
0000
0000
0000
0000
0000
0000
1100
0000
0000
0101
0000
0000
0110
0000
,
0000
0000
0000
0000
0000
0000
0000
0000
0000
0000
1010
0000
0000
0011
0000
0000
,
1001
0000
0000
0000
0000
0000
0000
0000
1100
0000
0000
0011
0000
0000
0220
0000
,
0000
0000
0000
0330
,
1001
0000
1000
0000
0010
0000
1000
0001
0100
0000
0001
0010
0000
0010
0100
0000
,
1000
0000
0001
0000
0010
0000
0001
1000
0100
0000
1000
0010
0000
0010
0100
0000
,
0001
0000
1000
0000
0100
0000
1000
0001
1000
0000
0000
1010
0000
0000
0110
0000
,
0000
0100
0101
0000
0001
1000
1001
0000
,
1010
0000
0010
0000
1000
0000
0100
0010
0001
0000
0100
0010
0000
0010
1000
0000
,
0010
0000
0100
0000
0001
0000
0010
0100
1000
0000
0001
1000
0000
1000
0010
0000
,
0100
0000
0001
0000
0010
0000
0100
0010
0001
0000
0000
0101
0000
0000
0110
0000
,
0000
0000
0010
0000
1010
0000
0000
0000
1000
0000
0000
1000
0001
0000
0100
0000
,
0001
0011
1000
1010
,
0001
0000
0000
0000
0101
0000
0000
0000
1000
0000
0000
0100
1000
0000
0001
0000
,
2000
0000
0000
0000
3001
0000
1000
0100
0010
0000
0001
0000
0101
0000
0000
0000
,
0001
0100
1000
0100
0001
0000
1001
0000
,
1000
0000
0001
0000
0010
0001
0000
0100
0000
0000
0100
0000
0010
0000
1000
0000
,
1010
0000
0000
0000
0011
0000
0000
0000
0001
0000
0000
1000
0001
0000
0010
0000
,
0002
0000
0000
0000
1003
0000
0010
0100
0000
0100
0001
0000
0010
0000
1000
0000
,
0010
0000
0000
0001
0100
0000
0010
0000
1000
0000
0000
0000
0001
0000
0010
0100
,
1000
0000
0010
0000
0100
0000
0001
0000
0011
0000
0000
0000
1010
0000
1000
0001
,
2000
0000
0000
0000
0100
0000
0000
0000
3001
0000
1000
0000
0001
0100
0000
0000
,
0001
0000
0010
0000
0100
0000
0010
0001
1000
0000
0100
0000
1000
0000
0001
0000
,
0100
1000
0100
0010
1010
0000
1100
0000
,
1000
0100
0001
0100
0010
0100
1000
0020
,
0000
0032
0000
0013
1000
0100
0010
0001
,
1000
0000
0100
0000
0001
0000
0100
1000
0000
0000
1000
0000
0010
0000
0100
0000
,
0001
0000
0000
1000
0000
0001
0000
0000
0010
0000
0100
0000
1000
0001
0000
0000
,
0101
0000
0100
0000
0010
0000
0000
0000
1010
0000
1000
0000
0100
0000
0010
0001
,
2000
0000
0000
0000
0010
0000
0000
0000
3100
0000
1000
0000
0001
1000
0000
0000
,
2010
0000
0000
0000
3001
0000
0001
0100
0000
0100
0010
0000
1000
0000
0100
0000
,
0001
0000
0100
0000
1000
0000
1001
0000
0000
0000
0011
0000
0000
0101
0000
0000
,
0110
0000
0010
0000
1000
0000
0100
0000
0010
0000
0001
0000
0100
0010
0000
0000
,
1010
0000
0000
0000
0101
0000
0000
0000
0100
0000
0001
0000
0010
0100
0000
0000
,
0210
0000
0000
0000
1300
0000
1000
0010
0000
0100
0001
0000
0010
0000
1000
0000
,
0010
0000
0100
0000
0010
0000
0011
0000
0000
0000
0101
0000
0000
0110
0000
0000
,
1010
0000
1001
0000
0101
0000
0011
0000
0110
0000
1100
0000
,
1000
0010
0000
0100
0001
0010
0100
0000
0220
0000
0330
0000
1100
0000
0000
0000
,
0101
0001
0011
1000
,
1010
0000
0000
0000
0001
0000
0000
0001
0100
0000
0010
0000
2000
0000
0000
0000
,
3100
0000
1000
0010
0000
0010
0100
0000
0001
0000
0000
0000
1000
0000
0010
0000
,
0001
0010
1000
0000
1001
0000
0002
0000
,
0013
0001
0000
0100
0010
0000
1000
0000
0100
0000
0010
0000
0110
0000
0000
0000
,
1001
0000
1000
0001
0100
0010
1000
0100
,
0001
0000
0100
1000
0010
0000
0000
0000
0100
0000
0001
0000
0010
0000
0000
0001
,
0000
0000
0100
0000
0001
0000
1000
0000
0010
0000
1000
0100
0010
0000
0001
0000
,
0100
0000
0010
0000
1010
0000
0000
0000
1001
0000
1000
0001
0200
0000
0000
0000
,
1000
0000
0000
0000
0310
0000
1000
0000
0001
1000
0000
0000
2100
0000
0000
0000
,
3001
0000
1000
0010
0000
0010
0100
0000
0001
0000
0010
0000
1000
0000
0010
0000
,
0001
0000
1001
0000
0000
0000
1100
0000
0000
1010
0000
0000
0110
0000
0100
0000
,
0001
0000
0010
0000
0100
0000
1000
0000
0010
0100
0000
0000
0101
0000
0000
0000
,
1010
0000
0000
0000
0010
0000
1000
0000
0100
0010
0000
0000
0120
0000
0000
0000
,
0031
0000
0001
0100
0000
0010
1000
0000
0100
0000
0001
0000
0100
0000
0010
0000
,
0100
0000
0000
0000
0000
0000
1100
0000
0000
0000
0000
0000
0000
0000
0000
0000
0000
0000
1010
0000
0000
0000
0000
0000
0000
0000
0000
0110
0000
0000
0000
0000
0000
0000
0000
0000
0101
0000
0000
0000
0000
0000
0000
0000
0011
0000
0000
0000
,
0000
0000
0000
0000
0110
0000
0000
0000
0000
0000
0000
0000
1100
0000
0000
0000
0000
0000
0000
0000
1010
0000
0000
0000
0000
0000
0000
0000
0110
0000
0000
0000
0000
0000
0000
0000
0100
0000
0000
0001
0000
0000
0000
0000
0000
0001
0000
0000
,
0010
0100
1000
0000
2002
0000
3003
0000
0011
0000
0000
0000
2020
0000
0000
0000
,
0000
3030
0000
0000
;
