#TITLE:Drive By;
#SUBTITLE:;
#ARTIST:Train;
#TITLETRANSLIT:;
#SUBTITLETRANSLIT:;
#ARTISTTRANSLIT:;
#GENRE:;
#CREDIT:;
#MUSIC:Drive By.mp3;
#BANNER:;
#BACKGROUND:;
#CDTITLE:;
#SAMPLESTART:35.550;
#SAMPLELENGTH:12.000;
#SELECTABLE:YES;
#OFFSET:1.827;
#BPMS:0.000=122.000;
#STOPS:;
#BGCHANGES:;
#FGCHANGES:;

//--------------- dance-single - OrangeRight ----------------
#NOTES:
     dance-single:
     OrangeRight:
     Beginner:
     1:
     0,0,0,0,0:
0000
0000
0000
0000
,
0000
0000
0000
0000
,
0000
0000
0000
0000
,
1000
0000
0000
0000
,
1000
0000
0000
0000
,
0001
0000
0000
0000
,
1000
0000
0000
0000
,
0001
0000
0000
0000
,
0001
0000
0000
0000
,
1000
0000
0000
0000
,
0001
0000
0000
0000
,
1000
0000
0000
0000
,
0100
0000
0000
0000
,
1000
0000
0000
0000
,
0001
0000
0000
0000
,
0001
0000
0000
0000
,
0100
0000
0000
0000
,
0001
0000
0000
0000
,
1000
0000
0000
0000
,
1000
0000
1000
0000
,
1000
0000
0000
0000
,
0001
0000
0001
0000
,
0001
0000
0000
0000
,
1000
0000
1000
0000
,
0001
0000
0000
0000
,
0001
0000
0001
0000
,
0100
0000
0000
0000
,
0010
0000
0000
0000
,
1000
0000
0000
0000
,
0001
0000
0000
0000
,
0010
0000
0010
0000
,
0001
0000
0001
0000
,
0001
0000
0000
0000
,
1000
0000
1000
0000
,
0001
0001
0001
0000
,
0000
0000
0000
0000
,
0001
0000
0000
0000
,
0001
0000
0000
0000
,
0100
0000
0000
0000
,
0001
0000
0000
0000
,
1000
0000
0000
0000
,
1000
0000
0000
0000
,
0010
0000
0000
0000
,
1000
0000
0000
0000
,
0001
0000
0000
0000
,
0001
0000
0000
0000
,
1000
0000
0000
0000
,
0100
0000
0000
0000
,
1000
0000
0000
0000
,
1000
0000
0000
0000
,
0001
0000
0000
0000
,
0001
0000
0000
0000
,
1000
0000
1000
0000
,
0001
0000
0000
0000
,
0001
0000
0001
0000
,
0100
0000
0000
0000
,
0100
0000
0100
0000
,
0010
0000
0000
0000
,
0010
0000
1000
0000
,
0100
0000
0000
0000
,
0100
0000
0000
0000
,
1000
0000
0000
0000
,
0001
0000
0000
0000
,
0100
0000
0100
0000
,
0010
0000
0010
0000
,
0010
0000
0000
0000
,
0100
0000
0100
0000
,
0100
0100
0100
0000
;

//--------------- dance-single - OrangeRight ----------------
#NOTES:
     dance-single:
     OrangeRight:
     Easy:
     4:
     0,0,0,0,0:
0000
0000
0000
0000
,
0000
0000
0000
0000
,
0000
0000
0000
0000
,
1000
0100
1000
0000
,
0001
0100
0001
0000
,
1000
0000
0001
0000
,
0100
0010
0100
0000
,
0001
0010
0001
0000
,
1000
0010
1000
0000
,
0001
0000
1000
0000
,
0100
0000
0010
0000
,
0002
0000
0103
0100
,
0020
0000
1030
1000
,
0200
0000
1300
1000
,
0001
1000
0001
0000
,
2000
0000
3100
1000
,
0002
0000
0103
0001
,
2000
3000
0002
0003
,
0100
0010
1000
0000
,
1001
0000
1000
0100
,
1000
0000
0001
0100
,
0001
0000
1000
0010
,
0200
0300
0020
0030
,
1000
0100
0010
0000
,
0001
0100
0010
0000
,
1000
0001
1000
0000
,
0001
1000
0001
1000
,
0001
0010
0001
0000
,
1000
0010
1000
0000
,
0001
0010
0100
0000
,
1000
0010
0100
0000
,
1001
0000
0001
0010
,
0001
0000
1000
0010
,
1000
0000
0001
1000
,
0100
0010
0002
0003
,
2000
0000
0000
3000
,
1000
0100
1000
0000
,
0001
0010
0001
0000
,
1000
0000
0001
0000
,
0100
0010
0100
0000
,
0001
0100
0001
0000
,
1000
0010
1000
0000
,
0010
0000
0100
0000
,
0001
1000
0001
0000
,
2000
0000
3001
0001
,
0200
0000
0310
0010
,
2000
0000
3010
0010
,
0200
0000
0301
0001
,
2000
0000
3010
1000
,
0002
0000
0013
0001
,
2000
3000
0002
0003
,
0010
0100
1000
0000
,
1001
0000
1000
0010
,
0100
0000
0001
0010
,
0100
0000
1000
0100
,
0020
0030
0002
0003
,
1000
0010
0100
0000
,
0001
0010
0100
0000
,
1000
0001
1000
0001
,
0100
0100
0010
0000
,
1000
0010
0200
0301
,
0001
0010
0200
1300
,
1000
0001
0200
0301
,
0001
1000
0020
1030
,
1001
0000
1000
0010
,
0100
0000
0001
0010
,
0100
1000
0010
0100
,
0001
0001
1000
1000
;

//--------------- dance-single - OrangeRight ----------------
#NOTES:
     dance-single:
     OrangeRight:
     Medium:
     7:
     0,0,0,0,0:
0000
0000
0000
0000
,
0000
0000
0000
0000
,
0000
0000
0000
0000
,
1000
0100
1000
0000
0100
0000
0010
0000
,
0001
0010
0001
0000
1000
0000
0001
0000
,
0100
0010
0100
0000
0001
0000
0010
0000
,
0100
1000
1000
0000
0001
0000
0100
0000
,
0001
0100
0001
0000
0100
0000
0010
0000
,
1000
0010
1000
0000
0001
0000
1000
0000
,
0100
0010
0100
0000
1000
0000
0010
0000
,
0100
0001
1000
0100
,
2000
0001
0100
3100
,
0002
1000
0100
0103
,
2000
0010
0100
3001
,
0002
0010
0100
1003
,
1000
0001
1000
0000
0010
0000
0100
0000
,
0001
1000
0001
0000
0010
0000
0200
0000
,
1300
0100
1000
0000
0001
0100
0001
0000
,
1000
0001
1000
0001
1000
0000
0001
0000
,
1001
1001
1001
0100
,
0110
0110
0110
0010
,
1000
0000
0100
0010
0001
0000
1000
0000
,
0010
0000
0100
0000
0001
1000
0000
0001
,
1000
0000
0100
0010
0100
0000
1000
0000
,
0001
0100
0001
0000
1000
0000
1001
0000
,
1000
0100
1000
0100
0010
0000
0001
0000
,
0100
0010
0100
0010
0100
0010
0000
1000
,
0001
0000
1000
0100
1000
0000
0010
0000
,
0100
0001
0100
0000
0010
0000
1000
0000
,
0100
0010
0100
0000
1000
0000
0001
0000
,
1000
0010
0100
0010
1000
0000
1001
0000
,
0110
0110
0110
0001
,
1001
1001
1001
0100
,
1000
0000
0100
0010
0001
0000
1000
0000
,
0010
0000
0100
0000
0001
1000
0000
0001
,
1000
0000
0001
0000
,
1000
0010
1000
0000
0010
0000
0100
0000
,
0001
0100
0001
0000
1000
0000
0001
0000
,
1000
0100
1000
0000
0010
0000
0100
0000
,
0001
0010
0100
1000
,
0001
0010
0001
0000
0010
0000
0100
0000
,
1000
0100
1000
0000
0001
0000
1000
0000
,
0010
0100
0010
0000
1000
0000
0100
0000
,
0010
0001
0010
0000
0001
0100
0001
0000
,
2000
0010
0001
3100
,
0002
0010
1000
0103
,
0001
0010
0001
0000
0100
0000
0010
0000
,
1000
0100
1000
0000
0010
0000
0100
0000
,
0001
1000
0001
0000
0010
0000
0100
0000
,
1000
0001
1000
0000
0010
0000
0200
0000
,
0301
0010
0001
0000
1000
0010
1000
0000
,
0001
1000
0001
1000
0001
0000
1000
0000
,
1001
1001
1001
0100
,
0110
0110
0110
0010
,
0001
0000
0100
0010
1000
0000
0001
0000
,
0010
0000
0100
0000
1000
0001
0000
1000
,
0001
0000
0100
0010
0100
0000
0001
0000
,
1000
0001
1000
0001
1000
0000
0001
0000
,
0100
0010
1000
0010
0100
0000
0001
0000
,
1000
0001
1000
0001
1000
0001
0000
0100
,
0010
0000
1000
0100
1000
0000
0010
0000
,
0100
0001
1000
0001
0100
0000
0010
0000
,
1000
0100
1000
0001
1000
0000
0010
0000
,
0100
0001
0100
0010
1000
0000
1001
0000
,
1100
1100
1100
0010
,
0011
0011
0011
0100
,
1000
0000
0010
0100
0001
0000
1000
0000
,
0001
0000
0010
0000
0100
1000
0000
1001
;

//--------------- dance-single - OrangeRight ----------------
#NOTES:
     dance-single:
     OrangeRight:
     Hard:
     10:
     0,0,0,0,0:
0000
0000
0000
0000
,
0000
0000
0000
0000
,
0000
0000
0000
0000
,
1000
0100
1000
0100
0010
0000
0010
0000
,
0001
0100
0001
0100
0010
0000
0010
0000
,
1000
0001
1000
0000
0100
0000
0010
0000
,
0001
0100
0001
0000
1000
0100
1000
0000
,
0001
0010
0100
0000
1000
0001
0100
0000
,
0001
0100
0010
0000
1000
0001
1000
0000
,
0001
0100
0001
0000
1000
0100
0010
0001
,
0100
0010
1000
1000
,
2010
0000
3100
1000
0001
0000
1001
0000
,
0012
0000
0103
0001
1000
0000
1001
0000
,
1000
0100
1000
0001
0020
0000
0130
0000
,
1000
0010
0100
0001
2000
0000
3001
0000
,
1000
0001
0010
0001
0100
0010
1000
0000
,
0001
1000
0100
1000
0010
0100
0002
0000
,
1003
0000
0100
0000
0010
0000
0001
0000
1000
0000
0000
0010
0000
0000
0100
0000
,
0001
0010
0100
1000
0001
0000
0110
0000
,
1001
0000
1100
0000
1001
0000
0001
0100
,
0010
0000
1000
0010
1010
0000
0100
0001
,
0010
0000
0100
1000
0010
0100
0010
0000
,
1010
0000
1100
0000
0100
0010
0001
1000
,
0001
0000
0100
0001
0010
0000
0110
0000
,
0100
1000
0010
1000
0100
0000
1001
0000
,
1000
0100
0001
0100
1000
0000
0010
0000
,
0100
0000
0001
0000
0100
0000
1000
0000
0100
0000
0010
0000
1000
0000
0001
1000
,
0001
0000
0010
0100
2100
0000
3010
0000
,
0010
0100
0001
0010
0012
0000
0103
0000
,
0001
1000
0010
0100
0210
0000
0301
0000
,
0001
0010
1000
0010
0012
0000
0103
0000
,
1001
0000
1010
0000
1001
0000
0001
1000
,
0100
0000
1000
0001
1001
0000
0001
0100
,
0010
0000
0100
0001
0010
0100
0010
0000
,
0011
0000
0101
0000
0001
1000
0001
0010
,
0100
0000
0000
0000
1000
0000
0000
0000
0001
0000
1000
0001
1000
0000
0000
0000
,
1000
0100
1000
0000
1000
0001
1000
0000
,
0001
0100
0001
0000
0001
1000
0010
0000
,
1000
0010
0100
0000
0001
1000
0100
0000
,
1000
0000
0010
1000
0001
0000
0011
0000
,
0001
0010
0001
0000
0001
1000
0001
0000
,
1000
0010
0100
0000
0001
1000
0100
0000
,
1000
0010
0100
0001
0010
0001
0100
0000
,
0010
1000
0100
0000
1000
0000
0001
0000
,
2100
0000
3010
0100
0001
0000
0101
0000
,
0102
0000
0013
0100
1000
0000
1100
0000
,
1000
0001
0100
0001
2000
0000
3010
0000
,
0010
1000
0100
1000
0002
0000
0013
0000
,
0010
0001
0100
0010
1000
0100
0001
0000
,
0100
1000
0010
0100
0001
0010
2000
0000
,
3010
0001
0100
0000
0010
1000
0100
0000
,
1000
0000
0001
0000
0010
0000
0100
0000
1000
0000
0001
1000
0001
0000
0000
0000
,
1001
0000
0011
0000
1001
0000
1000
0010
,
0100
0000
0001
0100
0101
0000
0010
1000
,
0100
0000
0010
0001
0100
1000
0100
0000
,
0101
0000
0011
0000
0010
0100
1000
0001
,
1000
0000
0010
1000
0100
0000
0110
0000
,
0010
0001
0100
0001
0010
0000
1001
0000
,
0001
0010
1000
0010
0001
0000
0100
0000
,
0010
0000
1000
0000
0010
0000
0001
0000
0010
0000
0100
0000
0001
0000
1000
0001
,
1000
0000
0010
1000
1200
0000
0310
0000
,
0100
1000
0010
0100
0201
0000
0310
0000
,
0100
0001
0010
0100
1200
0000
0301
0000
,
0100
1000
0010
0001
0021
0000
1030
0000
,
1001
0000
0101
0000
1001
0000
1000
0001
,
0010
0000
0001
1000
1001
0000
1000
0010
,
0100
0000
0010
1000
0100
0001
0100
0000
,
1100
0000
1010
0000
0110
0101
0000
1001
;

//--------------- dance-double - OrangeRight ----------------
#NOTES:
     dance-double:
     OrangeRight:
     Easy:
     4:
     0,0,0,0,0:
00000000
00000000
00000000
00000000
,
00000000
00000000
00000000
00000000
,
00000000
00000000
00000000
00000000
,
10000000
01000000
10000000
00000000
,
00010000
01000000
00010000
00000000
,
00100000
00000000
00001000
00000000
,
00010000
00000100
00001000
00000000
,
00000001
00000100
00000001
00000000
,
00001000
00000100
00001000
00000000
,
00000010
00000000
00010000
00000000
,
00001000
00000000
01000000
00000000
,
00020000
00000000
00130000
00100000
,
02000000
00000000
13000000
10000000
,
00020000
00000000
10030000
01000000
,
20000000
00000000
30010000
01000000
,
00010000
00100000
00002000
00003000
,
00010000
00000100
00002000
00003000
,
00000010
00000100
00000001
00001000
,
00000001
00000000
00001000
00000000
,
00001001
00000000
00000001
00000100
,
00000001
00000000
00001000
00000100
,
00001000
00000000
00000010
00000100
,
00000002
00000003
00002000
00003000
,
00000100
00010000
00001000
00000000
,
00010000
00001000
00100000
00000000
,
00010000
00100000
01000000
10000000
,
00010000
10000000
00010000
10000000
,
00010000
00100000
00010000
00000000
,
10000000
00100000
10000000
00000000
,
00010000
01000000
00001000
00000000
,
00010000
00000100
00001000
00000000
,
00001001
00000000
00001000
00000010
,
00001000
00000000
00000100
00010000
,
00001000
00000000
00100000
00000000
,
00010000
01000000
00100000
10000000
,
00020000
00000000
00000000
00030000
,
10000000
00010000
10000000
00000000
,
00010000
01000000
00010000
00000000
,
00100000
00001000
00010000
00000000
,
00000100
00000000
00001000
00000000
,
00000001
00001000
00000001
00000000
,
00001000
00000100
00001000
00000000
,
00000100
00010000
00001000
00000000
,
00010000
00000010
00001000
00000000
,
00000002
00000000
00000103
00000100
,
00000020
00000000
00001030
00001000
,
00000200
00000000
00010300
00010000
,
00002000
00000000
01003000
01000000
,
00010000
00100000
02000000
03000000
,
10000000
00100000
02000000
03000000
,
00010000
00100000
00010000
10000000
,
00010000
01000000
00010000
00000000
,
10010000
00000000
10000000
00100000
,
01000000
00000000
00010000
00100000
,
01000000
00000000
01000000
00100000
,
00020000
00030000
20000000
30000000
,
00100000
01000000
00010000
00000000
,
00100000
00001000
00010000
00000000
,
00001000
00010000
00000100
00001000
,
00000001
00001000
00000001
00001000
,
00000001
00000100
00000010
00000000
,
00001000
00000100
00000010
00000000
,
00000100
00001000
00000010
00000000
,
00001000
00000100
00000010
00000001
,
00001001
00000000
00001000
00000100
,
00000010
00000000
00000001
00000100
,
00000010
00000000
00000100
00000000
,
00000001
00000001
00001000
00001000
;

//--------------- dance-double - OrangeRight ----------------
#NOTES:
     dance-double:
     OrangeRight:
     Medium:
     7:
     0,0,0,0,0:
00000000
00000000
00000000
00000000
,
00000000
00000000
00000000
00000000
,
00000000
00000000
00000000
00000000
,
00010000
00001000
00010000
00000000
00001000
00000000
00100000
00000000
,
00001000
00010000
00001000
00000000
00010000
00000000
00000100
00000000
,
00010000
00001000
00100000
00010000
,
01000000
01000000
00100000
00000000
10000000
00010000
10000000
00000000
,
00010000
01000000
00010000
00000000
10000000
00000000
00010000
00000000
,
10000000
01000000
10000000
00000000
00010000
00000000
10000000
00000000
,
00010000
01000000
00010000
00000000
00100000
00000000
00001000
00000000
,
00010000
00000100
00001000
00000010
,
00002000
00000001
00000100
00003100
,
00000002
00001000
00000100
00000103
,
00001000
00000100
00020000
00031000
,
00001000
00100000
00020000
10030000
,
20000000
00000000
30100000
00000000
00100000
10000000
00100000
00000000
,
02000000
00000000
03010000
00000000
01000000
00010000
01000000
00000000
,
00010000
00100000
01000000
10000000
,
00100000
01000000
00010000
00000000
,
01010000
10010000
11000000
10000000
,
10100000
10010000
00110000
00010000
,
00100000
00000000
00001000
00010000
00001000
00000000
00010000
00000000
,
00000100
00000000
00001000
00000000
00000001
00001000
00000000
00000001
,
00001000
00000000
00000100
00000010
00000100
00000000
00001000
00000000
,
00000001
00000100
00000001
00000000
00001000
00000000
00000100
00000000
,
00010000
00001000
00010000
00001000
00100000
00000000
00010000
00000000
,
01000000
00100000
01000000
00100000
01000000
00100000
00000000
10000000
,
00010000
00000000
01000000
00010000
01000000
00000000
00100000
00000000
,
10000000
00010000
10000000
00000000
01000000
00000000
00100000
00000000
,
00010000
00100000
00010000
00000000
00100000
00000000
00001000
00000000
,
00010000
00001000
00010000
00001000
00010000
00000000
00001000
00000000
,
00011000
00011000
00011000
00000000
,
00101000
00110000
00101000
00000000
,
00100000
00000000
00010000
01000000
00100000
00000000
10000000
00000000
,
00010000
00000000
10000000
00000000
00100000
01000000
00000000
00010000
,
10000000
00000000
00010000
00000000
,
10000000
01000000
10000000
00000000
00100000
00000000
01000000
00000000
,
00010000
00100000
00010000
00000000
00100000
00000000
00100000
00000000
,
00001000
00010000
00001000
00000000
00010000
00000000
00000100
00000000
,
00001000
00000010
00000100
00000001
,
00001000
00000100
00001000
00000000
00000010
00000000
00000100
00000000
,
00000001
00000010
00000001
00000000
00000100
00000000
00000100
00000000
,
00000010
00001000
00000010
00000000
00001000
00000000
00000100
00000000
,
00010000
00001000
00100000
00010000
,
20000000
00010000
01000000
31000000
,
00020000
10000000
01000000
01030000
,
00010000
01000000
00002000
00013000
,
00010000
00000010
00002000
00003001
,
00000002
00000000
00000013
00000000
00000010
00000001
00000010
00000000
,
00000200
00000000
00001300
00000000
00000100
00001000
00000100
00000000
,
00001000
00000010
00000100
00000001
,
00001000
00000100
00010000
00000000
,
00011000
00011000
00011000
00000000
,
00010100
00001100
00010100
00000000
,
00000100
00000000
00001000
00000010
00000100
00000000
00000001
00000000
,
00001000
00000000
00000001
00000000
00000010
00000100
00000000
00001000
,
00000001
00000000
00000100
00000010
00000100
00000000
00000001
00000000
,
00000010
00000100
00000010
00000000
00000100
00000000
00010000
00000000
,
00001000
00010000
00001000
00010000
00000100
00000000
00010000
00000000
,
00001000
00010000
00001000
00010000
00001000
00100000
00000000
00010000
,
10000000
00000000
00100000
01000000
00100000
00000000
01000000
00000000
,
00010000
00100000
00010000
00000000
01000000
00000000
00001000
00000000
,
00010000
00001000
00010000
00000000
00000100
00000000
00001000
00000000
,
00000001
00001000
00000001
00001000
00000001
00000000
00001000
00000000
,
00001010
00001001
00000011
00000001
,
00000101
00001001
00001100
00001000
,
00000010
00000000
00001000
00000100
00001000
00000100
00001000
00000000
,
00000010
00000000
00000100
00000000
00000001
00001000
00000000
00001001
;

//--------------- dance-double - OrangeRight ----------------
#NOTES:
     dance-double:
     OrangeRight:
     Hard:
     10:
     0,0,0,0,0:
00000000
00000000
00000000
00000000
,
00000000
00000000
00000000
00000000
,
00000000
00000000
00000000
00000000
,
00010000
00001000
00100000
00000000
00010000
01000000
00010000
00000000
,
10000000
00100000
01000000
00010000
10000000
00000000
00010000
00000000
,
10000000
01000000
00100000
00000000
00100000
01000000
10000000
00000000
,
00100000
01000000
00010000
00100000
00001000
00010000
00001000
00000000
,
00010000
00000100
00001000
00000000
00000010
00001000
00000010
00000000
,
00001000
00000100
00010000
00000000
00001000
00010000
00001000
00000000
,
00010000
00001000
01000000
00000000
00010000
00100000
01000000
10000000
,
00100000
00000000
01000000
00000000
00010000
10000000
00010000
00000000
,
20010000
00100000
31000000
10010000
,
10020000
00100000
01030000
10010000
,
00010000
01000000
00001000
00000000
00020000
00000000
00031000
00000000
,
00001000
00010000
00000100
00000000
00002000
00000000
00003010
00000000
,
00000100
00000001
00000010
00000001
00001000
00000001
00001000
00000000
,
00000100
00001000
00000010
00001000
00000001
00001000
00000002
00000000
,
00001003
00000000
00000100
00000000
00010000
00000000
00001000
00000000
00100000
00000000
00000000
00010000
00000000
00000000
01000000
00000000
,
00100000
10000000
00010000
10000000
01000000
00000000
10010000
00000000
,
11000000
00000000
10010000
00000000
01010000
00000000
00010000
01000000
,
00001000
00000000
00010000
00000010
00001000
00000000
00000001
00001000
,
00000001
00000000
00001000
00000100
00000001
00000100
00001000
00000000
,
00010100
00000000
01001000
00000000
00010000
01000000
00100000
10000000
,
00010000
00000000
10000000
00100000
10100000
00000000
01010000
00000000
,
00010000
00100000
00001000
00010000
00010100
00000000
00001100
00000000
,
00000100
00001000
00000010
00001000
00000100
00000000
00000010
00000000
,
00000001
00000000
00000100
00000000
00001000
00000000
00000100
00000000
00000010
00000000
00000100
00000000
00000001
00000000
00001000
00000001
,
00001000
00000000
00000001
00001000
00001200
00000000
00010300
00000000
,
00010000
00001000
00100000
00010000
01020000
00000000
00130000
00000000
,
00100000
01000000
10000000
00010000
02010000
00000000
13000000
00000000
,
01000000
00010000
00100000
10000000
10200000
00000000
00310000
00000000
,
10010000
00000000
01010000
00000000
10010000
00000000
10000000
00100000
,
01000000
00000000
00010000
00100000
00001000
00000000
00010000
00000100
,
00001000
00000000
00000010
00001000
00000100
00000001
00000100
00000000
,
00001100
00000000
00001010
00000000
00000010
00000100
00000001
00001000
,
00000001
00000000
00000000
00000000
00000001
00000000
00000000
00000000
00001000
00000000
00000001
00001000
00000001
00000000
00000000
00000000
,
00001000
00000100
00001000
00000000
00000100
00010000
00000100
00000000
,
00010000
00001000
00010000
00000000
00001000
00100000
00010000
00000000
,
10000000
00010000
01000000
00000000
00100000
10000000
01000000
00000000
,
00100000
00010000
01000000
00010000
10000000
00000000
10010000
00000000
,
00010000
00100000
00010000
00000000
01000000
00001000
01000000
00000000
,
00001000
00100000
00001000
00000000
00010000
00000100
00001000
00000000
,
00000010
00000100
00000001
00000010
00000100
00001000
00000001
00000000
,
00001000
00000000
00000000
00000010
00000000
00000000
00000100
00000000
00000001
00000000
00000000
00000000
00001001
00000000
00000000
00000000
,
00001002
00000010
00000103
00000110
,
00002001
00000100
00003010
00000110
,
00000010
00001000
00000100
00010000
00002000
00000000
00103000
00000000
,
00010000
01000000
00100000
10000000
02000000
00000000
03100000
00000000
,
00010000
01000000
00100000
10000000
01000000
00100000
00010000
00000000
,
01000000
00001000
00010000
00000100
00001000
00000010
00000200
00000000
,
00000301
00000010
00001000
00000010
00000001
00000000
00001000
00000000
,
00000001
00000000
00000100
00000000
00001000
00000000
00000100
00000000
00000001
00000000
00001000
00000001
00001000
00000000
00000000
00000000
,
00000011
00000000
00001001
00000000
00001010
00000000
00001000
00000010
,
00010000
00000000
00001000
01000000
00010000
00000000
10000000
00010000
,
10000000
00000000
00010000
00100000
10000000
00100000
00010000
00000000
,
00101000
00000000
00010010
00000000
00001000
00000010
00000100
00000001
,
00001000
00000000
00000001
00000100
00000101
00000000
00001010
00000000
,
00001000
00000100
00010000
00001000
00101000
00000000
00110000
00000000
,
00100000
00010000
01000000
00010000
00100000
00000000
01000000
00000000
,
10000000
00000000
00100000
00000000
00010000
00000000
00100000
00000000
01000000
00000000
00100000
00000000
10000000
00000000
00010000
10000000
,
00010000
00000000
10000000
00010000
00210000
00000000
00301000
00000000
,
00001000
00010000
00000100
00001000
00002010
00000000
00003100
00000000
,
00000100
00000010
00000001
00001000
00001020
00000000
00000031
00000000
,
00000010
00001000
00000100
00000001
00000201
00000000
00001300
00000000
,
00001001
00000000
00001010
00000000
00001001
00000000
00000001
00000100
,
00000010
00000000
00001000
00000100
00010000
00000000
00001000
00100000
,
00010000
00000000
01000000
00010000
00100000
10000000
00100000
00000000
,
00110000
00000000
01010000
00000000
01100000
10100000
00000000
10010000
;
