#TITLE:Brokenhearted;
#SUBTITLE:;
#ARTIST:Karmin;
#TITLETRANSLIT:;
#SUBTITLETRANSLIT:;
#ARTISTTRANSLIT:;
#GENRE:;
#CREDIT:;
#MUSIC:Brokenhearted.mp3;
#BANNER:;
#BACKGROUND:;
#CDTITLE:;
#SAMPLESTART:62.170;
#SAMPLELENGTH:10.000;
#SELECTABLE:YES;
#OFFSET:1.830;
#BPMS:0.000=120.000;
#STOPS:;
#BGCHANGES:;
#FGCHANGES:;

//--------------- dance-single - RaverAce ----------------
#NOTES:
     dance-single:
     RaverAce:
     Beginner:
     1:
     0,0,0,0,0:
0000
0000
0000
0000
,
0000
0000
0000
0000
,
0000
0000
0000
0000
,
0000
0000
0000
0000
,
0000
0000
0000
0000
,
1000
0000
0000
0000
,
0001
0000
0000
0000
,
1000
0000
0000
0000
,
0001
0000
0000
0000
,
0010
0000
0000
0000
,
0010
0000
0000
0000
,
0100
0000
0000
0000
,
0100
0000
0000
0000
,
1000
0000
0000
0000
,
1000
0000
0000
0000
,
0010
0000
0010
0000
,
1000
0000
0100
0000
,
1000
0000
0000
0000
,
1000
0000
0000
0000
,
0010
0000
0000
0000
,
0010
0000
0000
0000
,
0100
0000
0000
0000
,
0100
0000
0000
0000
,
0001
0000
0000
0000
,
0001
0000
0001
0000
,
1000
0000
0000
0000
,
0100
0000
0000
0000
,
0010
0000
0000
0000
,
0001
0000
0000
0000
,
0100
0000
0000
0000
,
0010
0000
0000
0000
,
1000
0000
0001
0000
,
1000
0000
0000
0000
,
1001
0000
0000
0000
,
0100
0000
0000
0000
,
0010
0000
0000
0000
,
0100
0000
0000
0000
,
1000
0000
0000
0000
,
0001
0000
0000
0000
,
0100
0000
0000
0000
,
0010
0000
0000
0000
,
1001
0000
0000
0000
,
0100
0000
0000
0000
,
0010
0000
0000
0000
,
0100
0000
0000
0000
,
0001
0000
0000
0000
,
1000
0000
0000
0000
,
0100
0000
0000
0000
,
0010
0000
0000
0000
;

//--------------- dance-single - RaverAce ----------------
#NOTES:
     dance-single:
     RaverAce:
     Easy:
     3:
     0,0,0,0,0:
0000
0000
0000
0000
,
0000
0000
0000
0000
,
0000
0000
0000
0000
,
0000
0000
0000
0000
,
0000
0000
0000
0000
,
0000
0001
0000
0001
,
0000
0001
0000
0001
,
0000
1000
0000
1000
,
0000
1000
0000
1000
,
0010
1000
0100
0000
,
0010
0001
0100
0000
,
0001
1000
0100
0000
,
1000
0001
0100
0000
,
0010
0100
0001
0000
,
1000
0100
0001
0100
,
1000
0001
1000
0000
,
0001
1000
0001
0000
,
0010
0001
0100
0000
,
0010
1000
0100
0000
,
1000
0001
0100
0000
,
0001
1000
0100
0000
,
0010
0100
1000
0000
,
0001
0100
1000
0100
,
0001
1000
0001
0000
,
1000
0001
1000
0001
,
1001
0000
1000
0010
,
0100
0000
0001
0010
,
0100
0000
1000
0001
,
0100
0000
0001
1000
,
0100
1000
0010
0000
,
0100
0001
0010
0100
,
1000
0100
0001
0000
,
0001
0100
1000
0001
,
1002
0000
0100
0000
,
1003
0100
0010
0001
,
2000
0000
0010
0000
,
3001
0010
0100
1000
,
0010
0000
1000
0000
,
0001
0000
0010
0001
,
1000
0000
1000
0000
,
0001
0000
0100
0001
,
2001
0000
0100
0000
,
3001
0100
0010
1000
,
0002
0000
0010
0000
,
1003
0010
0100
0001
,
0010
0000
0001
0000
,
1000
0000
0010
1000
,
0001
0000
0001
0000
,
1000
0000
0100
1000
,
0001
0000
0000
0000
;

//--------------- dance-single - RaverAce ----------------
#NOTES:
     dance-single:
     RaverAce:
     Medium:
     6:
     0,0,0,0,0:
0000
0000
0000
0000
,
0000
0000
0000
0000
,
0000
0000
0000
0000
,
0000
0000
0000
0000
,
0000
0000
0000
0000
,
1000
0100
1000
0000
0001
0000
1000
0000
,
0010
1000
0010
0000
0100
0000
0001
0000
,
0010
0001
0010
0000
0001
0000
0100
0000
,
0001
0100
0001
0000
1000
0000
0100
1000
,
0001
0100
0010
0100
,
0001
0000
0100
0000
0010
0000
0100
0001
,
0010
0100
0001
0100
,
0010
0000
0001
0000
0100
0000
0010
0100
,
0001
1000
0001
0000
0100
0000
0001
0000
,
1000
0100
1000
0000
0010
0000
0100
0000
,
0001
0010
0001
0000
0100
0000
0010
0000
,
1000
0001
1000
0000
0001
0000
0100
0010
,
1000
0100
0010
0100
,
1000
0000
0100
0000
0010
0000
0100
1000
,
0010
0100
1000
0100
,
0010
0000
1000
0000
0100
0000
0010
0100
,
1000
0001
1000
0000
0100
0000
1000
0000
,
0001
0100
0001
0000
0010
0000
0100
0000
,
1000
0010
1000
0000
0100
0000
0010
0000
,
0001
1000
0001
0000
1000
0000
0100
0010
,
0001
1000
0001
0000
0100
0000
0010
0000
,
0100
0010
0100
0000
0001
0000
1000
0000
,
0100
1000
0100
0000
1000
0000
0010
0000
,
0100
0001
0100
0000
0001
0000
0010
0000
,
0100
0010
0100
0000
0010
0000
0001
0000
,
0100
0010
0100
0000
0001
0000
1000
0000
,
0100
0010
0100
0000
1000
0000
0010
0000
,
0100
0020
0200
0000
0000
0000
0330
0000
,
1001
0000
0001
1000
0100
0000
1000
0010
,
1000
0000
0001
0000
1000
0000
0100
0010
,
0001
0000
0100
0001
0100
0000
0001
0000
,
1000
0000
0010
0000
1000
0000
0100
1000
,
0010
0000
0100
0001
1000
0100
1000
0000
,
0001
0000
0100
0010
0100
0001
1000
0100
,
2000
0010
0001
0100
,
0001
0000
0010
0000
3001
0100
0010
1000
,
1001
0000
1000
0001
0100
0000
0001
0010
,
0001
0000
1000
0000
0001
0000
0100
0010
,
1000
0000
0100
1000
0100
0000
1000
0000
,
0001
0000
0010
0000
0001
0000
0100
0001
,
0010
0000
0100
1000
0001
0100
0001
0000
,
1000
0000
0100
0010
0100
1000
0001
0100
,
0002
0010
1000
0100
,
1000
0000
0010
0000
1003
0100
0010
0001
,
1000
0000
0000
0000
;

//--------------- dance-single - RaverAce ----------------
#NOTES:
     dance-single:
     RaverAce:
     Hard:
     10:
     0,0,0,0,0:
0000
0000
0000
0000
,
0000
0000
0000
0000
,
0000
0000
0000
0000
,
0000
0000
0000
0000
,
0000
0000
0000
0000
,
0001
0000
0100
0000
0001
0000
0000
0000
1000
0000
0001
0100
0000
0001
0100
0000
,
0010
0000
0100
0000
0001
0000
0000
0000
0010
0000
0100
0010
0000
0100
0010
0001
,
1000
0000
0100
0000
1000
0000
0000
0000
0001
0000
1000
0100
0000
1000
0100
0000
,
0010
0100
1000
0000
0010
0010
0010
1000
,
0001
0100
0001
0010
0100
0000
0100
0010
,
0001
0000
0100
0000
0010
0000
0000
0000
0100
0000
0010
0100
0000
0010
0100
0000
,
0001
1000
0100
1000
0010
0000
0100
0001
,
0010
0100
1000
0001
0100
0000
0001
1000
,
0100
0000
1000
0000
0001
0000
0000
0000
0100
0000
0001
1000
0000
0001
1000
0000
,
0100
1000
0010
0100
0001
1000
0100
1000
,
0001
0000
0100
0000
0010
0000
0000
0000
0010
0000
0100
0001
0000
1000
0001
0000
,
1000
0000
0100
0000
0010
0000
0000
0000
0100
0000
1000
0001
0000
0100
0010
0000
,
1000
0100
1000
0010
0100
0000
0100
0010
,
1000
0000
0100
0000
0010
0000
0000
0000
0100
0000
0010
0100
0000
0010
0100
0000
,
1000
0001
0100
0001
0010
0000
0100
1000
,
0010
0100
0001
1000
0100
0000
1000
0001
,
0100
0000
0001
0000
1000
0000
0000
0000
0100
0000
1000
0001
0000
1000
0001
0000
,
0100
0001
0010
0100
1000
0001
0100
0001
,
1000
0000
0100
0000
0010
0000
0000
0000
0010
0000
0100
1000
0000
0001
1000
0000
,
0001
0000
0100
0000
0010
0000
0000
0000
0100
0000
0001
1000
0000
0100
0010
0000
,
0100
1000
0010
0100
0001
1000
0100
0001
,
0100
1000
0010
0100
0001
1000
0100
1000
,
0010
0001
0010
0100
0001
0010
0100
1000
,
0010
0100
0001
1000
0100
1000
0001
0100
,
0010
0000
0000
0000
0100
0000
0001
0000
1000
0000
0001
1000
0000
0001
1000
0000
,
0100
0000
1000
0000
0010
0000
0100
0000
0001
0000
1000
0000
0100
0000
0000
0100
,
1000
0000
0010
0000
0100
0000
0000
0000
0001
0000
0010
0001
0000
1000
0001
0000
,
0200
0020
0000
0000
0000
0000
0330
0000
,
1001
0000
0001
0010
1000
0000
1000
0010
,
0001
0100
0010
0100
0001
1000
0100
0010
,
0001
0000
1000
0100
0001
0000
0001
0100
,
1000
0010
0100
0001
1000
0100
1000
0001
,
0010
0000
0001
1000
0010
0100
0001
1000
,
0100
0001
0100
1000
0010
0100
0001
1000
,
0100
0000
1000
0000
0001
0000
0000
0000
0100
0000
0010
0100
0000
0010
0100
0000
,
0001
1000
0100
0000
1000
0001
0010
0001
,
1001
0000
1000
0010
0001
0000
0001
0010
,
1000
0100
0010
0100
1000
0001
0100
0010
,
1000
0000
0001
0100
1000
0000
1000
0100
,
0001
0010
0100
1000
0001
0100
0001
1000
,
0010
1000
0100
1000
0010
0100
0001
0010
,
0001
0100
1000
0100
0010
0100
0001
1000
,
0100
0000
0010
0000
0001
0000
1000
0000
0001
0000
0100
0010
0000
0100
0010
0000
,
1000
0000
0100
0000
0010
0000
0001
1000
0001
0000
0010
0100
0000
0010
0100
0000
,
1000
0000
0000
0000
;
