#TITLE:Body Heat;
#SUBTITLE:;
#ARTIST:; #CREDIT;
#MUSIC:Body Heat.mp3;
#OFFSET:0.491721;
#SAMPLESTART:0.000;
#SAMPLELENGTH:15.000;
#SELECTABLE:YES;
#BPMS:0.000=122.000000;
#STOPS:;
#BGCHANGES:;
#NOTES:
     dance-single:
     :
     Easy:
     1:
     0.000,0.000,0.000,0.000,0.000:
0000
0000
0000
0000,
0000
0000
0000
0000,
0000
0000
0000
0000,
0000
0000
0000
0000,
0000
0000
0000
0000,
0000
0000
0000
0000,
0000
0000
0000
0000,
0000
0000
0000
0000,
0000
0000
0000
0010,
0000
0010
0000
0100,
0000
0100
0000
1000,
0000
1000
0000
0001,
0000
0001
0000
0010,
0000
1001
0000
0010,
0000
1001
0000
1000,
0000
0100
0000
0100,
0000
0100
0000
1000,
0000
1000
0000
0001,
0000
0001
0000
0001,
0000
0100
0000
1000,
0000
0100
0000
0010,
0100
1000
0000
1001,
0000
0000
0000
0001,
0100
1000
0000
1001,
0000
0000
0000
0010,
0100
0010
0100
1000,
0001
1000
0001
0010,
0100
0010
0100
1000,
0001
1000
0001
0010,
0100
1001
0000
0010,
0000
0100
0000
0010,
0000
0001
1000
0010,
0000
1001
0000
0000,
0000
0010
0100
1000,
0000
1001
0000
0000,
0000
0001
0100
1000,
0000
1001
0000
0000,
0000
0010
0000
0001,
0000
0100
0000
1000,
0000
0010
0000
1000,
0000
0100
0000
0001,
0000
1001
0000
0000
;
