#TITLE:Dumhdurum;
#SUBTITLE:;
#ARTIST:Apink;
#TITLETRANSLIT:;
#SUBTITLETRANSLIT:;
#ARTISTTRANSLIT:;
#CREDIT:;
#BANNER:Dumhdurum.png;
#BACKGROUND:Dumhdurum-bg.png;
#LYRICSPATH:;
#CDTITLE:;
#MUSIC:Dumhdurum.mp3;
#OFFSET:0.360;
#SAMPLESTART:50.700;
#SAMPLELENGTH:15.000;
#SELECTABLE:YES;
#DISPLAYBPM:114.000;
#BPMS:0.000=114.980;
#STOPS:;
#BGCHANGES:0.660=Dumhdurum.avi=1.000=0=0=0,
99999=-nosongbg-=1.000=0=0=0 // don't automatically add -songbackground-
;

//---------------dance-single - ----------------
#NOTES:
     dance-single:
     :
     Hard:
     13:
     0.505,0.510,0.014,0.071,0.432: // measure 1
0000
0000
0000
0000
,  // measure 2
0000
0000
0000
0000
,  // measure 3
0000
0000
0000
0000
,  // measure 4
0000
0000
0000
0000
,  // measure 5
0000
0000
0000
0000
,  // measure 6
1000
0000
0010
1000
0010
1000
0001
0000
0000
0000
0100
0001
0100
0001
0010
0000
,  // measure 7
0000
0000
0100
0010
0100
0000
0001
0100
0001
0000
1000
0010
0100
0001
1000
0000
,  // measure 8
0010
0000
0100
0010
0100
0001
1000
0000
0000
0000
0010
1000
0001
0100
0001
0000
,  // measure 9
0000
0000
1000
0000
0010
0000
1000
0000
0001
0000
0000
0001
0100
0000
0010
0000
,  // measure 10
1000
0000
0000
0000
0000
0000
0001
0000
0100
0000
0001
0000
0000
0000
1000
0010
,  // measure 11
0100
0010
1000
0001
0100
0000
0001
0000
,  // measure 12
1000
0100
0010
0001
2000
0000
3010
0000
,  // measure 13
0010
0100
0001
1000
0002
0000
0013
0000
,  // measure 14
0010
0001
1000
0100
1000
0001
0000
0100
,  // measure 15
0000
0010
1000
0010
1000
0000
0100
0000
,  // measure 16
0000
0000
0001
1000
0100
1000
0001
1000
0010
0000
0100
0000
0000
0000
0010
0000
,  // measure 17
1000
0010
0100
0001
,  // measure 18
0001
0010
0100
1000
0010
1000
0001
1000
,  // measure 19
0100
0000
0001
0000
1000
0000
0010
1000
,  // measure 20
0100
1000
0010
0100
0002
0000
0103
0000
,  // measure 21
1000
0010
0100
0010
2000
0000
3001
0000
,  // measure 22
0001
0000
1000
0010
1000
0001
0100
0001
,  // measure 23
1000
0000
0000
0000
0000
0000
2000
0000
0000
0000
3000
0000
0000
0000
1000
0010
,  // measure 24
0100
0001
1000
0001
0010
0000
0100
0000
0020
0000
0000
0000
0130
0000
0010
0000
,  // measure 25
0000
0000
1000
0000
0001
0000
1000
0000
0001
0000
0100
0001
0100
0000
0010
1000
,  // measure 26
0010
0000
0000
0000
0100
0000
0010
1000
0010
0000
0100
0000
0001
0000
1000
0000
,  // measure 27
0010
0000
0000
0000
1000
0000
0000
0001
0100
0000
0001
0000
1000
0000
0010
0000
,  // measure 28
0100
0000
0000
0010
0000
0000
0001
1000
0001
0000
1000
0000
1010
0000
0000
0000
,  // measure 29
0001
0000
0000
1000
0000
0000
0010
0100
0010
0000
0100
0010
0100
0000
0001
1000
,  // measure 30
0001
0000
0000
0000
0100
0000
0100
0001
0010
0000
0100
0000
1000
0000
0010
0000
,  // measure 31
1000
0000
0000
0000
0010
0000
0000
1000
0010
0000
0100
0000
0001
0000
1000
0000
,  // measure 32
0010
0000
1000
0000
0010
0000
0100
0010
0000
0100
0000
0001
0000
1000
0000
0010
,  // measure 33
0000
0000
0100
0000
0002
0000
0000
0000
1003
0000
0000
0010
0100
0000
0010
0000
,  // measure 34
1000
0000
0010
1000
0010
1000
0001
0000
0000
0000
0100
0001
0100
0001
0010
0000
,  // measure 35
0000
0000
0100
0010
0100
0000
0001
0100
0001
0000
1000
0010
0100
0001
1000
0000
,  // measure 36
0010
0100
0010
0000
0100
0010
0000
1000
,  // measure 37
0000
0000
1000
0000
0010
0000
1000
0000
0001
0000
0000
0001
1000
0000
1000
0000
,  // measure 38
0001
0000
0100
0001
0100
0001
1000
0000
0000
0000
0010
1000
0010
1000
0100
0000
,  // measure 39
0000
0000
0010
0100
0010
0000
1000
0010
1000
0000
0001
0100
0010
1000
0001
0000
,  // measure 40
0100
0000
0010
0100
0010
0000
1000
0001
0100
0000
0001
1000
0010
0000
0000
0000
,  // measure 41
0200
0310
0001
1000
,  // measure 42
0001
0000
0100
0001
1000
0000
0010
0010
,  // measure 43
0010
0100
0001
1000
0000
0000
0001
0000
0000
0100
0000
0000
,  // measure 44
0010
0000
0000
1000
0000
0010
0100
0000
0100
0010
0000
0000
,  // measure 45
0100
0001
0100
0001
0000
0001
1000
0000
0000
0010
0000
0000
,  // measure 46
0100
0000
0010
1000
0001
0000
1000
0001
,  // measure 47
0100
0010
1000
0010
0100
0001
1000
0000
0001
1000
0000
0000
,  // measure 48
0010
0000
0000
0000
0000
0000
0100
0000
0000
0010
0000
0000
0000
0000
0000
0000
0010
0000
1000
0000
0010
0000
1000
0000
,  // measure 49
0001
0000
0000
0000
0001
0000
0200
0000
0000
0000
0000
0000
0300
0000
0000
0020
0000
0000
0100
0000
0000
0000
0000
0000
,  // measure 50
0130
0000
0100
0001
0100
0001
1000
0000
0000
0000
0010
1000
0010
1000
0100
0000
,  // measure 51
0000
0000
0010
0100
0010
0000
1000
0010
1000
0000
0001
0100
0010
1000
0001
0000
,  // measure 52
0100
0000
0010
0100
0010
1000
0001
0000
0000
0000
0100
0001
1000
0010
1000
0000
,  // measure 53
0000
0000
0001
0000
0100
0000
0001
0000
1000
0000
0000
1000
0001
0000
0001
0000
,  // measure 54
1000
0000
0010
1000
0010
1000
0001
0000
0000
0000
0100
0001
0100
0001
0010
0000
,  // measure 55
0000
0000
0100
0010
0100
0000
0001
0100
0001
0000
1000
0010
0100
0001
1000
0000
,  // measure 56
0010
0000
0100
0010
0100
0001
1000
0000
0000
0000
1000
0001
0100
0001
1000
0000
,  // measure 57
0000
0000
1000
0000
0001
0000
0100
0000
0001
0000
0000
1000
0001
0000
1000
0000
,  // measure 58
0010
0000
0010
1000
0010
1000
0001
0000
0000
0000
0100
0001
0100
0001
0010
0000
,  // measure 59
0000
0000
0100
0010
0100
0000
0001
0100
0001
0000
1000
0010
0100
0001
1000
0000
,  // measure 60
0010
0100
0010
0000
0100
0010
0000
0010
,  // measure 61
0000
0000
1000
0000
0010
0000
1000
0000
0001
0000
0000
0001
1000
0000
1000
0000
,  // measure 62
0001
0000
0100
0001
0100
0001
1000
0000
0000
0000
0010
1000
0010
1000
0100
0000
,  // measure 63
0000
0000
0010
0100
0010
0000
1000
0010
1000
0000
0001
0100
0010
1000
0001
0000
,  // measure 64
0100
0000
0010
0100
0010
0000
1000
0001
0100
0000
0001
1000
0010
0000
0000
0000
,  // measure 65
0000
0000
1000
0000
0010
0000
0100
0000
0001
0000
0000
1000
0001
0000
0100
0000
,  // measure 66
0110
0000
0000
0000
;
