#TITLE:still my words;
#SUBTITLE:;
#ARTIST:TaQ feat. Meg;
#TITLETRANSLIT:;
#SUBTITLETRANSLIT:;
#ARTISTTRANSLIT:;
#GENRE:beatmania IIDX;
#CREDIT:;
#BANNER:;
#BACKGROUND:;
#LYRICSPATH:;
#CDTITLE:;
#MUSIC:still my words.ogg;
#OFFSET:1.231000;
#SAMPLESTART:42.168995;
#SAMPLELENGTH:15.000000;
#LASTBEATHINT:0.157539;
#SELECTABLE:YES;
#BPMS:0.000000=68.000000
,18.500000=136.000000
,50.500000=68.000000
,66.000000=136.000000
;
#STOPS:
;
#BGCHANGES:;
#KEYSOUNDS:;
#ATTACKS:;

//---------------dance-single - ----------------
#NOTES:
     dance-single:
     :
     Hard:
     11:
     0.464822,0.603885,0.090841,0.049550,0.156907,394.000000,383.000000,11.000000,6.000000,0.000000,0.000000,0.464822,0.603885,0.090841,0.049550,0.156907,394.000000,383.000000,11.000000,6.000000,0.000000,0.000000:
0000
0000
0000
0000
,
0000
0000
0000
0000
,
0000
0000
0102
0000
,
0203
0000
2300
0000
,
3020
0000
0000
0000
0030
0100
0000
0100
,
0000
0010
0100
0010
0100
0001
0000
0001
,
0000
1000
0001
1000
0001
0010
0000
0010
,
0000
0100
0010
0100
0010
1000
0000
1000
,
0000
0001
1000
0001
1000
0010
1000
0010
,
0000
0100
0010
0100
0010
0001
0010
0001
,
0000
1000
0001
1000
0001
0100
0010
0100
,
0000
0001
0010
0100
1000
0100
0010
0100
,
0000
0000
1000
0000
0100
0000
0010
0000
0001
0000
0010
0100
0010
0000
1000
0000
,
0100
0000
0010
0001
0010
0000
0100
0000
1000
0000
0001
1000
0001
0000
0100
0000
,
0010
0000
1000
0001
1000
0000
0100
1000
0010
0000
0001
0100
0010
0000
1000
0000
,
1001
0000
1000
0010
0100
0000
0001
0000
1001
0000
0100
1000
0010
0000
0010
0001
,
0100
0000
0100
0000
0010
0000
1000
0001
1001
0000
0000
0000
0100
0000
1000
0000
,
0010
0000
0000
0010
0000
0000
0010
0000
0001
0000
0100
0000
0010
0000
1000
0000
,
0001
0000
0001
1000
1001
0000
0010
0001
,
0100
0000
0000
0100
0000
0000
0100
0000
1000
0000
0010
0000
0100
0000
0001
0000
,
1000
0000
1001
0000
0001
1000
0010
0000
,
1000
0001
0100
0000
0001
0100
1000
0010
,
0001
0100
1000
0000
0001
1000
0001
1000
,
0010
0100
0010
0100
0001
0010
0100
1000
,
1001
0000
0110
0000
1000
0100
1000
0100
,
0010
0000
0000
0010
0000
0000
0010
0000
0001
0000
0010
0000
0001
0000
0010
0000
,
0100
0000
0000
0100
0000
0000
0100
0000
1000
0000
0100
0000
0010
0000
0001
0000
,
1000
0000
0000
1000
0000
0000
1000
0000
0001
0000
0010
0000
0100
0000
1000
0000
,
0001
0000
0000
0001
0000
0000
0001
0000
1000
0000
0100
0000
0010
0000
0000
0000
,
0100
0000
0000
0010
0000
0000
0100
0000
0001
0000
0010
0000
0100
0000
0000
0000
,
0010
0000
0000
0100
0000
0000
0010
0000
1000
0000
0100
0000
0010
0000
0000
0000
,
0001
0010
0100
0000
1000
0001
1000
0001
,
0100
0000
0010
0000
0100
0000
0000
0000
0001
0010
0000
0001
0010
0000
0001
0010
,
0000
0001
0010
0000
0001
0010
0000
0000
0100
0010
0000
0100
0010
0000
0100
0010
,
0000
0100
0010
0000
0100
0010
0000
0000
1000
0100
0000
1000
0100
0000
1000
0100
,
0000
1000
0100
0000
1000
0100
0000
0000
1000
0001
0000
1000
0001
0000
1000
0001
,
0000
1000
0001
0000
1000
0001
0000
0000
0001
0000
0010
0000
0100
0000
1000
0000
,
0001
0010
0100
1000
0001
0100
0010
1000
,
0001
0100
0010
1000
1000
0100
0010
0001
,
1000
0100
0010
0001
1000
0010
0100
0001
,
1000
0010
0100
0001
1000
0001
1000
0000
,
0010
0100
0010
0000
0001
0010
0100
1000
,
0100
0010
0001
0000
1000
0010
0100
0000
,
0001
0100
0010
0000
1000
0100
0010
0001
,
0010
0100
1000
0000
0001
1000
0001
1000
,
0010
0100
0010
0100
0001
0010
0100
1000
,
0001
0000
1001
0000
1000
0001
1000
0001
,
0100
0010
0100
0010
1000
0100
0010
0001
,
1000
0000
1001
0000
1000
0100
0010
0000
,
0001
0010
0100
0000
0001
0100
1000
0010
,
0001
0100
1000
0000
1000
0100
0010
0000
,
0001
0010
0100
0000
1000
0100
0001
0010
,
1000
0100
0001
0000
0010
0100
0010
0000
,
1000
0001
1000
0000
0010
0100
0010
0000
,
0001
1000
0001
0000
1000
0100
0010
0001
,
1000
0100
0010
0001
1000
0010
0100
0001
,
1000
0010
0100
0001
2002
0000
0000
0000
,
0000
0000
0000
0000
,
0000
0000
3003
0000
;

//---------------dance-single - ----------------
#NOTES:
     dance-single:
     :
     Medium:
     8:
     0.326791,0.410642,0.115616,0.156907,0.008258,277.000000,263.000000,14.000000,19.000000,0.000000,0.000000,0.326791,0.410642,0.115616,0.156907,0.008258,277.000000,263.000000,14.000000,19.000000,0.000000,0.000000:
0000
0000
0000
0000
,
0000
0000
0000
0000
,
0000
0000
2000
3200
,
0320
0000
0032
0023
,
0230
0000
0000
0000
0300
1000
0000
0100
,
0000
0010
0000
0010
0010
0010
0000
0001
,
0000
0010
0000
0100
0100
0100
0000
1000
,
0000
0100
0000
0001
0001
0001
0000
0001
,
0000
0010
0000
1000
1000
1000
0000
0010
,
0000
0100
0000
0010
0010
0010
0000
0100
,
0000
0010
0000
0100
0100
0100
0000
0001
,
0000
1000
0000
0001
0001
0001
0000
1000
,
0000
0001
0000
1000
1000
1000
0000
0100
,
1000
0020
0000
0130
0000
1001
0000
0010
,
0001
0000
0200
0000
0000
0000
0310
0000
0000
0000
1000
0100
0010
0000
1001
0000
,
0000
0000
0001
0010
0100
0000
1001
0000
0000
0000
0200
0000
0000
0000
2300
0000
,
0000
3020
0000
0130
1001
0000
0100
0000
,
0010
0100
0010
0000
1000
0000
0010
0000
,
0001
1001
0001
0010
,
0100
0010
0100
0000
0010
0000
0100
0000
,
1000
1001
1000
0100
,
0001
0000
0010
0000
1000
1000
1000
0000
,
0010
0000
0100
0000
0001
0001
0001
0000
,
0100
0010
2000
0000
,
0002
3003
0100
1000
,
0010
0010
0100
0001
,
0010
0010
0100
1000
,
0001
0001
0100
0001
,
1000
1000
0100
1000
,
0010
0010
0010
0000
0100
0000
0001
0000
,
0010
0010
0010
0000
0100
0000
1000
0000
,
0001
0001
0001
0000
0010
0000
0001
0000
,
1000
1000
1000
0000
0001
1000
0001
1000
,
0001
1000
0001
1000
0010
0100
0010
0100
,
0010
0100
0010
0100
0001
0010
0100
0000
,
1000
0000
1001
0000
1000
0100
0010
0000
,
0001
0000
1001
0000
1000
0100
1000
0100
,
1000
0100
1000
0100
0010
0001
0010
0001
,
0010
0001
0010
0001
0010
0100
1000
0000
,
0010
0000
0110
0000
1000
0100
0001
0000
,
0001
1001
0200
1000
,
0010
1300
0020
0100
,
0001
0130
0002
0100
,
1000
0013
2000
0100
,
0001
0000
3010
0000
1000
0010
0100
0000
,
0001
0000
1001
0000
0001
0100
0010
0000
,
1000
1001
1000
0100
,
0010
0001
1000
0010
,
0100
0001
0100
1000
,
0010
0010
0010
0000
0100
0000
0001
0000
,
0010
0010
0010
0000
0100
0000
0001
0000
,
1000
1000
1000
0000
0010
0000
1000
0000
,
0001
0001
0001
0000
0100
0000
1000
0000
,
0010
0010
0010
0000
0100
0000
0001
0000
,
0010
0010
0010
0000
0100
0000
1000
0000
,
0001
0010
0100
0001
,
1000
1001
0220
0000
,
0000
0000
0000
0000
,
0000
0000
0330
0000
;

//---------------dance-single - ----------------
#NOTES:
     dance-single:
     :
     Easy:
     5:
     0.248927,0.265709,0.107357,0.132132,0.000000,211.000000,198.000000,13.000000,16.000000,0.000000,0.000000,0.248927,0.265709,0.107357,0.132132,0.000000,211.000000,198.000000,13.000000,16.000000,0.000000,0.000000:
0000
0000
0000
0000
,
0000
0000
0000
0000
,
0000
0000
2000
0000
,
3200
0000
0320
0000
,
0032
0000
0000
0000
0000
1003
0000
1000
,
0000
0100
0000
0010
0000
0001
0000
0001
,
0000
0010
0000
0100
0000
1000
0000
0010
,
0000
0100
0000
0001
0000
0001
0000
0010
,
0000
0100
0000
1000
0000
0001
0000
0100
,
0000
0010
0000
0010
0000
1000
0000
0010
,
0000
0100
0000
0100
0000
1000
0000
0100
,
0000
0001
0000
0001
0000
0001
0000
0010
,
0000
1000
0000
1000
0000
0200
0000
1300
,
0000
0200
0000
0301
0000
0020
0000
1030
,
0000
0020
0000
0031
0000
0100
0000
1000
,
0000
0001
0000
0010
0000
0100
0000
0010
,
0100
0000
0010
0100
0110
0000
0000
0000
,
1000
0001
1000
0000
,
0001
1000
0001
0000
,
0100
0010
0100
0000
,
0010
0100
1001
0000
,
0100
1000
0110
0000
,
0001
0100
0110
0000
,
1000
0001
1001
0000
,
0110
0000
1000
0100
,
0020
0130
0001
0010
,
0200
0310
1000
0100
,
0001
0010
0001
0010
,
1000
0100
0001
1000
,
0001
1001
0100
0010
,
0100
0110
1000
0100
,
0010
0001
1000
0010
,
0100
0000
0001
0000
1000
0000
0000
1000
,
0000
0000
1000
0000
0000
1000
0000
0000
,
1000
0000
1000
0000
0001
0000
0000
0001
,
0000
0000
0001
0000
0000
0001
0000
0000
,
0001
0000
0001
0000
0100
0000
0000
0100
,
0000
0000
0100
0000
0000
0100
0000
0000
,
0100
0000
0100
0000
0010
0000
0000
0010
,
0000
0000
0010
0000
0000
0010
0000
0000
,
0010
0010
1000
0100
,
0020
0130
0001
0010
,
0200
0310
1000
0100
,
0002
1003
0001
0010
,
2000
3001
0100
1000
,
0010
0010
0100
0001
,
0010
0010
1000
0100
,
0001
0010
0100
1000
,
0010
0001
1000
0001
,
1000
1001
0010
0100
,
0010
0110
1000
0100
,
0010
0001
0001
0010
,
0100
1000
0001
1000
,
0001
1001
0100
0010
,
0100
0110
0001
0010
,
1000
0100
0001
1000
,
0001
0001
0001
0000
2002
0000
0000
0000
,
0000
0000
0000
0000
,
0000
0000
3003
0000
;

//---------------dance-single - ----------------
#NOTES:
     dance-single:
     :
     Beginner:
     2:
     0.077864,0.116648,0.008258,0.033033,0.000000,66.000000,65.000000,1.000000,4.000000,0.000000,0.000000,0.077864,0.116648,0.008258,0.033033,0.000000,66.000000,65.000000,1.000000,4.000000,0.000000,0.000000:
// measure 0
0000
0000
0000
0000
,  // measure 1
0000
0000
0000
0000
,  // measure 2
0000
0000
0000
0000
,  // measure 3
0000
0000
0000
0000
,  // measure 4
0000
0000
0000
0000
0000
1000
0000
0000
,  // measure 5
0000
0000
0000
0000
0000
0001
0000
0000
,  // measure 6
0000
0000
0000
0000
0000
1000
0000
0000
,  // measure 7
0000
0000
0000
0000
0000
0001
0000
0000
,  // measure 8
0000
0000
0000
0000
0000
0100
0000
0000
,  // measure 9
0000
0000
0000
0000
0000
0010
0000
0000
,  // measure 10
0000
0000
0000
0000
0000
0100
0000
0000
,  // measure 11
0000
0000
0000
0000
0000
0010
0000
0000
,  // measure 12
0000
0000
0000
0000
0000
1000
0000
0000
,  // measure 13
0000
0100
0000
0000
0000
0010
0000
0000
,  // measure 14
0000
0001
0000
0000
0000
1000
0000
0000
,  // measure 15
0000
0010
0000
0000
0000
0100
0000
0000
,  // measure 16
0000
0001
0000
0000
1000
0000
0000
0000
,  // measure 17
0100
0000
1000
0000
,  // measure 18
0000
0000
0001
0000
,  // measure 19
0010
0000
0001
0000
,  // measure 20
0000
0000
1000
0000
,  // measure 21
0001
0000
1000
0000
,  // measure 22
0000
0000
0001
0000
,  // measure 23
1000
0000
0001
0000
,  // measure 24
0000
0000
0100
0000
,  // measure 25
0000
0000
0100
0000
,  // measure 26
0000
0000
0010
0000
,  // measure 27
0000
0000
0010
0000
,  // measure 28
0000
0000
0001
0000
,  // measure 29
0000
0000
0001
0000
,  // measure 30
0000
0000
1000
0000
,  // measure 31
0000
0000
1000
0000
,  // measure 32
0000
0000
0200
0000
,  // measure 33
0000
0000
0300
0000
,  // measure 34
0000
0000
0020
0000
,  // measure 35
0000
0000
0030
0000
,  // measure 36
0000
0000
2000
0000
,  // measure 37
0000
0000
3000
0000
,  // measure 38
0000
0000
0002
0000
,  // measure 39
0000
0000
0003
0000
,  // measure 40
0000
0000
1000
0000
,  // measure 41
1000
0000
0100
0000
,  // measure 42
0000
0000
0001
0000
,  // measure 43
0001
0000
0010
0000
,  // measure 44
0000
0000
1000
0000
,  // measure 45
0100
0000
0010
0000
,  // measure 46
0000
0000
0001
0000
,  // measure 47
0010
0000
0100
0000
,  // measure 48
0000
0000
1000
0000
,  // measure 49
0001
0000
1000
0000
,  // measure 50
0000
0000
0001
0000
,  // measure 51
1000
0000
0001
0000
,  // measure 52
0000
0000
0100
0000
,  // measure 53
0010
0000
0100
0000
,  // measure 54
0000
0000
0010
0000
,  // measure 55
0100
0000
0010
0000
,  // measure 56
0000
0000
1001
0000
;
