#TITLE:starmine (beatnation summit ver);
#SUBTITLE:;
#ARTIST:Ryu☆;
#TITLETRANSLIT:;
#SUBTITLETRANSLIT:;
#ARTISTTRANSLIT:;
#GENRE:REFLEC BEAT;
#CREDIT:;
#BANNER:;
#BACKGROUND:;
#LYRICSPATH:;
#CDTITLE:;
#MUSIC:starmine (beatnation summit ver).ogg;
#OFFSET:-0.780000;
#SAMPLESTART:90.438675;
#SAMPLELENGTH:15.000000;
#SELECTABLE:YES;
#BPMS:0.000000=182.000000
;
#STOPS:
;
#BGCHANGES:;
#KEYSOUNDS:;
#ATTACKS:;

//---------------dance-single - ----------------
#NOTES:
     dance-single:
     :
     Beginner:
     4:
     0.167967,0.176365,0.008398,0.016797,0.000000,137.000000,1.000000,2.000000,0.000000,0.000000,0.000000,0.167967,0.176365,0.008398,0.016797,0.000000,137.000000,1.000000,2.000000,0.000000,0.000000,0.000000:
// measure 0
0000
0000
0000
0000
,  // measure 1
0000
0000
0000
0000
,  // measure 2
0000
0000
0000
0000
,  // measure 3
0000
0000
0000
0000
,  // measure 4
0000
0000
0000
0000
,  // measure 5
0000
0000
0000
0000
,  // measure 6
1000
0000
0100
0000
,  // measure 7
1000
0000
0100
0000
,  // measure 8
1000
0000
0100
0000
,  // measure 9
1000
1000
1000
0000
,  // measure 10
0002
0000
0000
0000
,  // measure 11
0003
0000
0000
0000
,  // measure 12
1000
0000
0000
0000
,  // measure 13
0001
0000
0000
0000
,  // measure 14
1000
0000
0000
0000
,  // measure 15
0001
0000
0000
0000
,  // measure 16
0010
0000
0000
0000
,  // measure 17
0100
0000
0000
0000
,  // measure 18
0010
0000
0000
0000
,  // measure 19
0100
0000
0000
0000
,  // measure 20
0010
0000
0010
0000
,  // measure 21
0001
0000
0001
0000
,  // measure 22
0100
0000
0100
0000
,  // measure 23
1000
0000
1000
0000
,  // measure 24
0010
0000
1000
0000
,  // measure 25
0010
0000
0001
0000
,  // measure 26
0010
0000
0010
0000
,  // measure 27
0100
0100
0100
0000
,  // measure 28
1000
0000
0100
0000
,  // measure 29
0010
0000
0001
0000
,  // measure 30
1000
0000
0010
0000
,  // measure 31
0100
0000
0001
0000
,  // measure 32
1000
0000
0100
0000
,  // measure 33
0010
0000
0001
0000
,  // measure 34
1000
0000
0010
0000
,  // measure 35
0100
0000
0000
0000
,  // measure 36
0001
0000
0010
0000
,  // measure 37
0100
0000
1000
0000
,  // measure 38
0001
0000
0100
0000
,  // measure 39
0010
0000
1000
0000
,  // measure 40
0001
0000
0010
0000
,  // measure 41
0100
0000
1000
0000
,  // measure 42
0001
0000
0100
0000
,  // measure 43
0010
0010
0010
0000
,  // measure 44
1000
0000
0100
0000
,  // measure 45
0010
0000
0001
0000
,  // measure 46
1000
0000
0100
0000
,  // measure 47
0010
0000
0001
0000
,  // measure 48
1000
0000
0010
0000
,  // measure 49
0100
0000
0001
0000
,  // measure 50
1000
0000
0010
0000
,  // measure 51
0100
0100
0001
0000
,  // measure 52
0020
0000
0000
0000
,  // measure 53
0000
0000
0000
0000
,  // measure 54
0000
0000
0000
0000
,  // measure 55
0000
0000
0000
0000
,  // measure 56
0130
0000
0100
0000
,  // measure 57
0001
0000
0001
0000
,  // measure 58
1000
0000
1000
0000
,  // measure 59
0010
0000
0010
0000
,  // measure 60
0001
0000
0000
0000
,  // measure 61
0010
0000
0000
0000
,  // measure 62
0100
0000
0000
0000
,  // measure 63
1000
0000
0000
0000
,  // measure 64
0001
0000
0000
0000
,  // measure 65
0100
0000
0000
0000
,  // measure 66
0010
0000
0000
0000
,  // measure 67
1000
1000
1000
0000
,  // measure 68
0100
0000
1000
0000
,  // measure 69
0100
0000
0001
0000
,  // measure 70
0100
0000
1000
0000
,  // measure 71
0100
0000
0001
0000
,  // measure 72
0100
0000
1000
0000
,  // measure 73
0010
0000
0001
0000
,  // measure 74
0100
0000
1000
0000
,  // measure 75
0010
0000
0001
0000
,  // measure 76
1000
0000
0010
0000
,  // measure 77
0001
0000
0010
0000
,  // measure 78
1000
0000
0010
0000
,  // measure 79
0001
0000
0010
0000
,  // measure 80
1000
0000
0010
0000
,  // measure 81
0001
0000
0100
0000
,  // measure 82
1000
0000
0010
0000
,  // measure 83
0001
0100
1000
0000
,  // measure 84
1001
0000
0000
0000
;

//---------------dance-single - ----------------
#NOTES:
     dance-single:
     :
     Easy:
     8:
     0.397122,0.571088,0.260349,0.142772,0.000000,283.000000,31.000000,17.000000,0.000000,0.000000,0.000000,0.397122,0.571088,0.260349,0.142772,0.000000,283.000000,31.000000,17.000000,0.000000,0.000000,0.000000:
// measure 0
0000
0000
0000
0000
,  // measure 1
0000
0000
0000
0000
,  // measure 2
0000
0000
0000
0000
,  // measure 3
0000
0000
0000
0000
,  // measure 4
0000
0000
0000
0000
,  // measure 5
0000
0000
0000
0000
,  // measure 6
1000
0010
1000
0010
,  // measure 7
0001
0010
0001
0010
,  // measure 8
1001
0000
1001
0000
,  // measure 9
1001
0110
1001
0000
,  // measure 10
0220
0000
0000
0000
,  // measure 11
0330
0000
0000
0000
,  // measure 12
1000
0000
0010
0000
1000
0010
1000
0000
,  // measure 13
0001
0000
0010
0000
0100
0010
0100
0000
,  // measure 14
0001
0000
1000
0000
0100
1000
0100
0000
,  // measure 15
1000
0000
0001
0000
0001
1000
0100
0000
,  // measure 16
0010
0000
1000
0000
0010
1000
0010
0000
,  // measure 17
0001
0000
0010
0000
0001
0010
0001
0000
,  // measure 18
1000
0000
0001
0000
1000
0001
1000
0000
,  // measure 19
0001
0000
0100
0000
0010
1000
0001
0000
,  // measure 20
0020
0000
0000
0000
,  // measure 21
0130
0000
0001
1000
0010
0000
0000
0000
,  // measure 22
0200
0000
0000
0000
,  // measure 23
0310
0000
0001
1000
0010
0000
0000
0000
,  // measure 24
1000
1000
0010
0001
,  // measure 25
0100
0100
0001
0010
,  // measure 26
1000
0010
0000
0000
1001
0000
0000
0000
,  // measure 27
0101
1001
1010
0000
,  // measure 28
1000
0010
0100
0001
,  // measure 29
0100
0010
1000
0001
,  // measure 30
0100
0100
0010
0010
,  // measure 31
1000
1000
0001
0001
,  // measure 32
0100
0010
1000
0001
,  // measure 33
0100
1000
0010
0001
,  // measure 34
1000
1000
0010
0010
,  // measure 35
0100
0100
0001
0001
,  // measure 36
0100
0010
1000
0001
,  // measure 37
0100
0001
1000
0010
,  // measure 38
0100
0001
0100
0001
,  // measure 39
0100
1000
0100
1000
,  // measure 40
0010
1000
0001
0100
,  // measure 41
0001
1000
0010
0001
,  // measure 42
1000
0010
1000
0010
,  // measure 43
0001
0010
0001
0010
,  // measure 44
1000
0001
0100
0010
,  // measure 45
1000
0001
1000
0000
0110
0000
0000
0000
,  // measure 46
1000
0010
0100
0001
,  // measure 47
1000
0001
1000
0000
0110
0000
0000
0000
,  // measure 48
0001
0100
1000
0000
0010
0000
0000
0000
,  // measure 49
1000
0100
0001
0000
0100
0000
0000
0000
,  // measure 50
1000
0001
0000
0000
0001
1000
0000
0000
,  // measure 51
0110
0101
0110
0000
,  // measure 52
2000
0000
0000
0000
,  // measure 53
3020
0000
0000
0000
,  // measure 54
0230
0000
0000
0000
,  // measure 55
0302
0000
0000
0000
,  // measure 56
1003
0000
0010
0000
0000
1000
0010
0000
,  // measure 57
0000
0000
0001
0000
0000
0001
0010
0000
,  // measure 58
0000
0000
0100
0000
0000
0100
0010
0000
,  // measure 59
0000
0000
0100
0000
0000
0001
1000
0000
,  // measure 60
0010
1000
0001
1000
,  // measure 61
0010
0100
0001
1000
,  // measure 62
0010
1000
0100
0001
,  // measure 63
0010
0100
0001
1000
,  // measure 64
0020
0000
0230
0000
,  // measure 65
0302
0000
2003
0000
,  // measure 66
3010
0000
0110
0000
,  // measure 67
1100
0101
1001
0000
,  // measure 68
0001
1000
0010
1000
,  // measure 69
0100
0001
0100
1000
,  // measure 70
0010
1000
0001
0100
,  // measure 71
0010
0000
1000
0000
0001
1000
0001
0000
,  // measure 72
0010
1000
0100
0010
,  // measure 73
0100
0001
0010
1000
,  // measure 74
0100
0001
0100
1000
,  // measure 75
0010
0000
0001
0000
0100
0010
0100
0000
,  // measure 76
1100
0100
0101
0001
,  // measure 77
0011
0010
1010
1000
,  // measure 78
0001
1000
0010
0100
,  // measure 79
0001
0000
1000
0000
0010
0100
0010
0000
,  // measure 80
0110
0100
1100
1000
,  // measure 81
1001
0001
0101
0100
,  // measure 82
0220
0330
2200
3300
,  // measure 83
0101
0000
1100
0000
1000
0001
0100
0010
,  // measure 84
0200
0000
0000
0000
,  // measure 85
0300
0000
0000
0000
;

//---------------dance-single - ----------------
#NOTES:
     dance-single:
     :
     Medium:
     12:
     0.563889,0.571088,0.403121,0.285544,0.012598,388.000000,48.000000,34.000000,0.000000,0.000000,0.000000,0.563889,0.571088,0.403121,0.285544,0.012598,388.000000,48.000000,34.000000,0.000000,0.000000,0.000000:
// measure 0
0000
0000
0000
0000
,  // measure 1
0000
0000
0000
0000
,  // measure 2
0000
0000
0000
0000
,  // measure 3
0000
0000
0000
0000
,  // measure 4
0000
0000
0000
0000
,  // measure 5
0000
0000
0000
0000
,  // measure 6
1000
0000
0010
0000
0100
0001
1000
0000
,  // measure 7
0010
0000
0100
0000
0001
1000
0010
0000
,  // measure 8
1000
0010
0100
0000
0010
0100
0001
0000
,  // measure 9
0001
0100
0010
1000
0001
0000
0100
0000
,  // measure 10
0220
0000
0000
0000
,  // measure 11
0330
0000
0000
0000
,  // measure 12
1000
0000
0010
0000
1000
0001
0100
0000
,  // measure 13
0010
0000
1000
0000
0001
0010
0100
0000
,  // measure 14
0010
0000
1000
0000
0001
0100
0010
0000
,  // measure 15
1000
0000
0010
0000
1000
0001
0100
0000
,  // measure 16
0010
1000
0001
0000
0100
0000
1001
0000
,  // measure 17
0010
0100
0001
0000
1000
0000
1010
0000
,  // measure 18
0100
0001
0010
0000
1000
0010
0001
0000
,  // measure 19
0001
0100
1000
0010
1000
0100
0001
0000
,  // measure 20
1001
1000
1100
0100
,  // measure 21
0101
0001
0011
0010
,  // measure 22
1010
0010
1000
0001
,  // measure 23
0100
0000
0010
0000
1000
0001
0100
0000
,  // measure 24
0220
0330
2002
3003
,  // measure 25
2200
3300
0202
0303
,  // measure 26
2002
3003
0220
0330
,  // measure 27
1100
0101
1100
1001
,  // measure 28
1000
0010
0100
0000
0001
0000
0101
0000
,  // measure 29
0001
0100
0010
0000
1000
0010
0100
0000
,  // measure 30
1000
0000
0100
0000
0001
0010
0100
0000
,  // measure 31
1000
0010
0100
0001
0010
1000
1001
0000
,  // measure 32
0010
1000
0001
0000
0100
0000
1001
0000
,  // measure 33
0010
0100
1000
0000
0010
0000
1001
0000
,  // measure 34
0010
0100
0001
0000
0001
0100
1000
0000
,  // measure 35
1000
0100
0010
0100
0001
1000
1001
0000
,  // measure 36
0001
0100
1000
0000
1000
0100
0001
0000
,  // measure 37
0001
0010
1000
0000
1000
0010
0001
0000
,  // measure 38
0001
0100
1000
0100
0001
0100
1000
0000
,  // measure 39
0010
1000
0001
0000
1000
0000
1001
0000
,  // measure 40
0001
1000
0010
0000
0010
1000
0001
0000
,  // measure 41
0001
1000
0010
0000
0010
1000
0001
0000
,  // measure 42
0001
1000
0010
1000
0001
1000
0010
0000
,  // measure 43
0001
0100
1000
0000
1000
0000
1001
0000
,  // measure 44
1000
0100
0001
0000
0100
0000
1001
0000
,  // measure 45
0001
0010
1000
0000
0001
0000
1001
0000
,  // measure 46
0100
1100
0100
0101
,  // measure 47
0001
1000
0010
0100
0001
0000
1001
0000
,  // measure 48
0010
1000
0100
0000
0101
0000
1100
0000
,  // measure 49
0001
0100
0010
0000
0011
0000
1010
0000
,  // measure 50
0010
0100
0001
0000
0100
0010
1000
0000
,  // measure 51
1000
0010
0100
0001
0010
0000
1001
0000
,  // measure 52
0020
0000
0000
0000
,  // measure 53
0000
0000
0000
0000
,  // measure 54
0230
0000
0000
0000
,  // measure 55
0302
0000
0000
0000
,  // measure 56
1003
0000
0010
0000
0100
0000
0000
0001
0000
0000
0100
0000
0020
0000
0000
0000
,  // measure 57
0000
0000
1030
0000
0001
0000
0000
0100
0000
0000
0010
0000
2000
0000
0000
0000
,  // measure 58
3001
0000
0010
0000
1000
0000
0000
0010
0000
0000
0100
0000
0002
0000
0000
0000
,  // measure 59
0000
0013
0000
1000
0001
0010
0100
0000
,  // measure 60
0200
0000
0000
0000
1300
0000
0001
0100
,  // measure 61
0020
0000
0000
0000
0130
0000
0001
1000
,  // measure 62
0020
0000
0000
0000
0130
0000
0001
1000
,  // measure 63
0200
0000
0000
0000
0310
0000
1000
0001
,  // measure 64
0202
0303
2200
3300
,  // measure 65
2002
3003
0220
0330
,  // measure 66
0001
0010
1000
0000
1000
0100
0001
0000
,  // measure 67
0001
0010
1000
0010
0100
0001
1001
0000
,  // measure 68
0001
1000
0010
1000
0001
0000
1000
0000
,  // measure 69
0010
1000
0001
0000
0001
0100
1000
0000
,  // measure 70
0001
0100
0010
1000
0001
0000
1001
0000
,  // measure 71
0010
1000
0100
0000
0001
0100
0010
0000
,  // measure 72
1000
0001
0100
0010
1000
0000
0001
0000
,  // measure 73
1001
0010
1000
0000
1000
0010
0100
0000
,  // measure 74
0001
0010
1000
0100
0001
0000
1000
0000
,  // measure 75
0001
1000
0010
0000
1000
0010
0001
0000
,  // measure 76
0100
1000
0010
0000
1001
0000
1001
0000
,  // measure 77
0010
1000
0001
0000
0010
1000
0001
0000
,  // measure 78
0010
1000
0100
0000
1001
0000
1001
0000
,  // measure 79
0010
1000
0001
0000
0001
0100
1000
0000
,  // measure 80
1000
0100
0001
0100
1000
0100
0001
0100
,  // measure 81
1000
0010
0001
0010
1000
0010
0001
0010
,  // measure 82
1000
0010
0001
0010
0100
1000
0010
1000
,  // measure 83
0001
0010
0100
1000
0010
0000
1001
0000
,  // measure 84
0220
0000
0000
0000
,  // measure 85
0330
0000
0000
0000
;

//---------------dance-single - ----------------
#NOTES:
     dance-single:
     :
     Hard:
     16:
     0.827837,1.000000,0.411519,0.041992,0.650872,636.000000,49.000000,5.000000,0.000000,0.000000,0.000000,0.827837,1.000000,0.411519,0.041992,0.650872,636.000000,49.000000,5.000000,0.000000,0.000000,0.000000:
// measure 0
0000
0000
0000
0000
,  // measure 1
0000
0000
0000
0000
,  // measure 2
0000
0000
0000
0000
,  // measure 3
0000
0000
0000
0000
,  // measure 4
0000
0000
0000
0000
,  // measure 5
0000
0000
0000
0000
,  // measure 6
0010
0000
1000
0000
0100
1000
0100
1000
0100
0000
0010
0000
0100
0000
0001
0000
,  // measure 7
0100
0000
0001
0000
0010
0001
0010
0001
0010
0000
0100
0000
1000
0000
0100
0000
,  // measure 8
0010
0001
0010
0100
1000
0010
1000
0001
,  // measure 9
0010
1000
0010
0000
0100
0001
0100
0000
1000
0100
0001
1000
0010
0100
0001
0100
,  // measure 10
0020
0000
0000
0000
,  // measure 11
0200
0000
0000
0330
,  // measure 12
0001
0000
0010
0000
1000
0010
0000
1000
0010
0000
1000
0010
0000
1000
0010
0000
,  // measure 13
1000
0000
0100
0000
0001
0100
0000
0001
0100
0000
0001
0100
0000
0001
0100
0000
,  // measure 14
0010
0000
0100
0000
0001
1000
0000
0001
1000
0000
0001
1000
0000
0001
1000
0000
,  // measure 15
0001
0000
1000
0000
0010
0100
0000
0010
0100
0000
0010
0100
0000
0010
0100
0000
,  // measure 16
0010
0000
1000
0000
0001
0100
0000
0001
0100
0000
0010
1000
0000
0010
1000
0000
,  // measure 17
0001
0000
0010
0000
1000
0010
0000
1000
0010
0000
0100
0001
0000
0100
0001
0000
,  // measure 18
0010
0000
1000
0000
0100
0010
0000
0010
1000
0000
1000
0001
0000
0001
1000
0000
,  // measure 19
0010
1000
0000
1000
0001
0010
1000
0100
,  // measure 20
1001
0000
0100
0000
1000
0000
0010
1000
,  // measure 21
0000
0001
0000
1000
0010
0000
1001
0000
,  // measure 22
0010
1000
0001
0000
0001
0100
1000
0000
,  // measure 23
0001
0010
1000
0010
0100
0001
1001
0000
,  // measure 24
0010
1000
0010
0100
0001
0010
0100
1000
,  // measure 25
0010
1000
0010
0100
0001
0010
0100
1000
,  // measure 26
1100
0100
0101
0001
,  // measure 27
1001
0001
0010
1000
1001
0000
0110
0000
,  // measure 28
0010
0000
1000
0000
0010
1000
0000
1000
0010
0000
0010
0100
0000
0100
0001
0000
,  // measure 29
0010
0000
1000
0000
0001
0100
0000
0100
0001
0000
0001
1000
0000
1000
0010
0000
,  // measure 30
0001
0000
1000
0000
0010
1000
0000
1000
0010
0000
0010
0100
0000
0100
0001
0000
,  // measure 31
0010
0000
1000
0000
0001
1000
0000
1000
0001
0000
0010
1000
0000
1000
0010
0000
,  // measure 32
0001
0000
0100
0000
0010
1000
0000
1000
0010
0000
0001
0100
0000
0100
0010
0000
,  // measure 33
0001
0000
1000
0000
0010
1000
0000
1000
0100
0000
0100
0001
0000
0001
0010
0000
,  // measure 34
1000
0000
0001
0000
1000
0001
0000
0001
1000
0000
1000
0010
0000
0010
0100
0000
,  // measure 35
0001
0000
1000
0000
0010
0100
0000
0100
0001
0000
0100
0010
0000
0010
1000
0000
,  // measure 36
1001
0000
0010
0000
1000
0010
0000
0010
0100
0000
1000
0001
0000
0001
0100
0000
,  // measure 37
0010
0000
0100
0000
0001
1000
0000
1000
0010
0000
0001
0100
0000
0100
1000
0000
,  // measure 38
0010
0000
1000
0000
0010
1000
0000
1000
0001
0000
1000
0100
0000
0100
0010
0000
,  // measure 39
0001
0000
0010
0000
1000
0001
0000
0001
0010
0000
0100
1000
0000
1000
0001
0000
,  // measure 40
1001
0000
0010
0000
1000
0010
1000
0010
0100
0000
1000
0000
0001
0100
0001
0100
,  // measure 41
0010
0000
0100
0000
1000
0001
1000
0001
0100
0000
0010
0000
0001
1000
0001
1000
,  // measure 42
0010
0001
0010
1000
1001
0000
0100
1000
,  // measure 43
0100
0001
1001
0000
0001
1000
1001
0000
,  // measure 44
0010
0000
1000
0000
0100
0000
0010
0000
0100
0000
0001
0100
0000
0100
0001
0000
,  // measure 45
0010
0000
1000
0000
0100
0000
0010
0000
1000
0001
1000
0000
1001
0000
0000
0000
,  // measure 46
0010
1000
0100
0010
0100
0001
0010
0100
,  // measure 47
1000
0010
1000
0010
1000
0010
1000
0010
0001
0000
0100
0000
0110
0000
0000
0000
,  // measure 48
0001
0000
0100
0000
1000
0100
0010
0001
1000
0000
0100
0000
0001
0010
0100
1000
,  // measure 49
0001
0000
1000
0000
0100
1000
0010
0100
0001
0000
0100
0000
0001
0100
0010
1000
,  // measure 50
0001
1000
0001
1000
0010
0100
0010
0100
0001
0010
0100
1000
0001
0010
0100
1000
,  // measure 51
0001
0100
1000
0010
0001
0010
0100
1000
0010
1000
0100
0001
0010
0100
0010
1000
,  // measure 52
0002
0000
0000
0000
,  // measure 53
0000
0000
0000
0000
,  // measure 54
0203
0000
0000
0000
,  // measure 55
0000
0000
0000
0000
,  // measure 56
0310
0000
1000
0000
1010
0000
0000
1100
0000
0000
0001
0000
1001
0000
0000
0000
,  // measure 57
0000
0000
0010
0000
1010
0000
0000
0011
0000
0000
0100
0000
0010
0100
0000
0001
,  // measure 58
1000
0000
0010
0000
0011
0000
0000
1010
0000
0000
0100
0000
1001
0000
0000
0000
,  // measure 59
0000
0000
1000
0000
1100
0000
0000
0101
0000
0000
0001
0000
0100
0001
0000
0001
,  // measure 60
1000
0010
1000
0001
0010
1000
0100
0010
,  // measure 61
0100
0001
0010
0100
1000
0010
1000
0001
,  // measure 62
0100
0100
0010
0010
1000
1000
0001
0001
,  // measure 63
0010
0000
1000
0000
0100
0000
0010
0000
0100
0000
0001
0000
1000
0010
1000
0010
,  // measure 64
1000
0000
1001
0000
,  // measure 65
0011
0000
0101
0000
,  // measure 66
1001
0000
1010
0000
,  // measure 67
1100
0101
1100
0110
,  // measure 68
0001
0000
0010
0000
0100
0010
1000
0010
1000
0000
0001
0000
0100
0000
0010
0000
,  // measure 69
1000
0000
0001
0000
0010
0001
0100
0001
0100
0000
0010
0000
1000
0000
0001
0000
,  // measure 70
0010
0000
0100
0000
1000
0010
0001
0010
0001
0000
0010
0000
1000
0000
0001
0000
,  // measure 71
0010
0000
1000
0000
0001
1000
0010
1000
0010
0000
0001
0000
1000
0000
0100
0000
,  // measure 72
0110
0000
1000
0000
0001
1000
0001
1000
0010
0000
1000
0000
0100
0000
0010
0000
,  // measure 73
0001
0000
0100
0000
1000
0001
1000
0001
0100
0000
0010
0000
1000
0000
0001
0000
,  // measure 74
0010
0000
1000
0000
0100
0010
0100
0010
0001
0000
1000
0000
0010
0000
0100
0000
,  // measure 75
1000
0000
0010
0000
1000
0001
1000
0001
0100
0000
0010
0000
0100
0000
0001
0000
,  // measure 76
0110
0100
0010
1000
1100
0100
0001
0100
,  // measure 77
0101
0001
1000
0001
1001
0001
0010
1000
,  // measure 78
1010
0001
0010
1000
0100
0010
0001
0100
,  // measure 79
0010
1000
0100
1000
1100
1100
0101
0000
,  // measure 80
0011
0010
0100
0001
1001
0010
1000
0010
,  // measure 81
1010
0001
1000
0010
0011
0001
0100
0010
,  // measure 82
0101
1000
0010
0000
1010
0001
0100
0000
,  // measure 83
0001
0000
0010
0000
0100
0000
1000
0000
0010
0100
0010
0100
0001
1000
0010
0100
,  // measure 84
0002
0000
0000
0000
,  // measure 85
0003
0000
0000
0000
;
