#TITLE:squall;
#SUBTITLE:;
#ARTIST:猫叉Master+;
#TITLETRANSLIT:;
#SUBTITLETRANSLIT:;
#ARTISTTRANSLIT:Nekomata Master+;
#GENRE:jubeat;
#CREDIT:;
#BANNER:;
#BACKGROUND:;
#LYRICSPATH:;
#CDTITLE:;
#MUSIC:squall.ogg;
#OFFSET:0.540000;
#SAMPLESTART:83.755028;
#SAMPLELENGTH:15.000000;
#SELECTABLE:YES;
#DISPLAYBPM:190.000000;
#BPMS:0.000000=190.000000
;
#STOPS:
;
#BGCHANGES:;
#KEYSOUNDS:;
#ATTACKS:;

//---------------dance-single - ----------------
#NOTES:
     dance-single:
     :
     Beginner:
     3:
     0.131577,0.185030,0.016447,0.000000,0.000000,112.000000,110.000000,2.000000,0.000000,0.000000,0.000000,0.131577,0.185030,0.016447,0.000000,0.000000,112.000000,110.000000,2.000000,0.000000,0.000000,0.000000:
0000
0000
0000
0000
,
0000
0000
0000
0000
,
0000
0000
0000
0000
,
0000
0000
0000
0000
,
0000
0000
0000
0000
,
1000
0000
1000
0000
,
0100
0000
0100
0000
,
0001
0000
0001
0000
,
0100
0000
0100
0000
,
1000
0000
0000
0000
,
0010
0000
0000
0000
,
0100
0000
0000
0000
,
0010
0000
0000
0000
,
0100
0000
0000
0000
,
1000
0000
0000
0000
,
0001
0000
0000
0000
,
1000
0000
0000
0000
,
0001
0000
0000
0000
,
0100
0000
1000
0000
,
0100
0000
0000
0000
,
0010
0000
0001
0000
,
0010
0000
0000
0000
,
0100
0000
1000
0000
,
0010
0000
0000
0000
,
0010
0000
0001
0000
,
0100
0000
0000
0000
,
1000
0000
0100
0000
,
0100
0000
0001
0000
,
0001
0000
0000
0000
,
0010
0000
0000
0000
,
0001
0000
0001
0000
,
0010
0000
0010
0000
,
1000
0000
0000
0000
,
0100
0000
0000
0000
,
1000
0000
0100
0000
,
0100
0000
0010
0000
,
0010
0000
0001
0000
,
0000
0000
0001
0000
,
1000
0000
0000
0000
,
0010
0000
0100
0000
,
0010
0000
0000
0000
,
1000
0000
0001
0000
,
1000
0000
0000
0000
,
0100
0000
0000
0000
,
1000
0000
0000
0000
,
0010
0000
0000
0000
,
0001
0000
0000
0000
,
0100
0000
0000
0000
,
0001
0000
0000
0000
,
0010
0000
0000
0000
,
1001
0000
0000
0000
,
0000
0000
0000
0000
,
1001
0000
0000
0000
,
0000
0000
0000
0000
,
0100
0000
0000
0000
,
0100
0000
0000
0000
,
0010
0000
0000
0000
,
0010
0000
0000
0000
,
1000
0000
0100
0000
,
1000
0000
0000
0000
,
0001
0000
0000
0000
,
1000
0000
0000
0000
,
0001
0000
0000
0000
,
0100
0000
0000
0000
,
0010
0000
0000
0000
,
0100
0000
0000
0000
,
0010
0000
0000
0000
,
1000
0000
0100
0000
,
1000
0000
0000
0000
,
0001
0000
0010
0000
,
0001
0000
0000
0000
,
1000
0000
0010
0000
,
0100
0000
0000
0000
,
0001
0000
0100
0000
,
0010
0000
0000
0000
,
1000
0000
0010
0000
,
1000
0000
0000
0000
,
0001
0000
0100
0000
,
0001
0000
0000
0000
,
1000
0000
0100
0000
,
0010
0000
0000
0000
,
0001
0000
0010
0000
,
0100
0000
0000
0000
,
1000
0000
0000
0000
,
0001
0000
0000
0000
,
1000
0000
0000
0000
,
0001
0000
0000
0000
,
0100
0000
0000
0000
,
0010
0000
0000
0000
,
0100
0000
0000
0000
,
0010
0000
0000
0000
;

//---------------dance-single - ----------------
#NOTES:
     dance-single:
     :
     Easy:
     5:
     0.247881,0.374171,0.230259,0.328942,0.000000,211.000000,183.000000,28.000000,40.000000,0.000000,0.000000,0.247881,0.374171,0.230259,0.328942,0.000000,211.000000,183.000000,28.000000,40.000000,0.000000,0.000000:
0000
0000
0000
0000
,
0000
0000
0000
0000
,
0000
0000
0000
0000
,
0000
0000
0000
0000
,
0000
0000
0000
0000
,
1000
1000
1000
0100
,
0001
0001
0001
0100
,
1000
1000
1000
0010
,
0001
0001
0001
0010
,
0100
0000
0010
0000
,
2002
0000
3003
0010
,
0000
0000
0000
0000
,
2002
0000
3003
0100
,
0000
0000
0000
0000
,
0220
0000
0330
1000
,
0000
0000
0000
0000
,
0220
0000
0330
0001
,
0000
0000
0000
0000
,
1000
0100
1000
0100
,
0010
0010
0100
0000
,
0001
0010
0001
0010
,
0100
0100
0010
0000
,
1000
0100
0010
0001
,
0100
0100
0110
0000
,
0001
0010
0100
1000
,
0010
0010
0110
0000
,
1000
0100
1000
0000
,
0001
0010
0001
0000
,
0100
0010
0100
0000
,
1000
0001
1000
0010
,
1000
0100
0010
0000
,
0001
0010
0100
0000
,
1000
0010
0100
0000
,
0001
0100
0010
0000
,
1000
0100
0010
0100
,
1000
0100
0020
0030
,
0001
0010
0100
0010
,
0001
0010
0200
0300
,
1000
0100
0001
0100
,
1000
0100
0002
0003
,
0001
0010
1000
0010
,
0001
0010
2000
3000
,
0100
0000
0100
0000
,
0010
0000
0010
0000
,
1000
0000
1000
0000
,
0001
0000
0001
0000
,
0100
0000
1000
0000
,
0010
0000
0001
0000
,
0100
0000
0001
0000
,
0010
0000
1000
0000
,
2002
0000
3003
0000
,
0000
0000
0000
0000
,
0220
0000
0330
0000
,
0000
0000
0000
0000
,
2200
0000
3300
0000
,
0100
0000
0100
0000
,
0022
0000
0033
0000
,
0010
0000
0010
0000
,
1000
0000
0100
0000
,
0010
0000
0000
0001
,
0000
0000
0000
0000
,
0100
0000
0000
1000
,
0000
0000
0000
0000
,
0010
0000
0000
0100
,
0000
0000
1000
0000
,
0001
0000
0000
1000
,
0000
0000
0010
0000
,
0100
0000
0000
1100
,
0000
0000
0010
0000
,
0001
0000
0000
0011
,
0000
0000
0100
0000
,
0110
0000
0000
1100
,
0000
0000
0001
0000
,
1100
0000
0000
0101
,
0000
0000
0010
0000
,
0101
0000
0000
0110
,
0000
0000
1100
0000
,
1010
0000
0000
0110
,
0000
0000
0011
0000
,
0202
0303
0000
2200
,
3300
0000
2020
3030
,
0220
0330
0000
0022
,
0033
0000
0220
0330
,
1000
0000
0100
0000
,
0010
0000
0100
0000
,
0001
0000
0010
0000
,
0100
0000
0010
0000
,
0002
0000
0203
0000
,
0320
0000
2030
0000
,
3200
0000
0320
0000
,
0032
0000
2000
0000
,
3003
0000
0000
0000
;

//---------------dance-single - ----------------
#NOTES:
     dance-single:
     :
     Medium:
     8:
     0.391206,0.485087,0.328942,0.246706,0.000000,333.000000,293.000000,40.000000,30.000000,0.000000,0.000000,0.391206,0.485087,0.328942,0.246706,0.000000,333.000000,293.000000,40.000000,30.000000,0.000000,0.000000:
0000
0000
0000
0000
,
0000
0000
0000
0000
,
0000
0000
0000
0000
,
0000
0000
0000
0000
,
0000
0000
0000
0000
,
1000
0100
1000
0100
,
0001
0100
0001
0100
,
1000
0010
1000
0010
,
0001
0010
0001
0010
,
0100
0100
0010
0010
,
1000
0000
0000
0010
0000
0000
2002
0000
,
0000
0000
3003
0000
,
0001
0000
0000
0010
0000
0000
0220
0000
,
0000
0000
0330
0000
,
1000
0000
0000
0100
0000
0000
2200
0000
,
0000
0000
0000
3300
0000
0000
0000
0000
,
0010
0000
0000
0001
0000
0000
0022
0000
,
0000
0000
0033
0000
,
0001
0000
0100
1000
0000
1000
0100
0000
,
0010
0100
0001
1000
,
0010
0000
0001
0010
0000
0010
0001
0000
,
0100
0010
1000
1001
,
0010
0000
1000
0100
0000
0100
0010
0000
,
0001
1000
0010
0110
,
0001
0000
0001
0010
0000
0010
0100
0000
,
1000
0010
0100
1001
,
0001
0100
1000
0100
,
0001
0010
1000
0010
,
1001
0000
0110
0000
,
1000
0100
0010
0001
,
0011
0000
0110
0000
,
1100
0001
0100
0010
,
1010
0000
0110
0000
,
0011
0100
0010
1000
,
0101
0000
1100
0000
,
1010
0000
0011
0000
,
0101
0000
1100
1000
,
0010
0100
0001
0100
,
1100
0000
0110
0000
,
0011
0000
0110
0000
,
1100
0100
0100
0010
,
0001
1000
0010
0100
,
0101
0000
0000
0100
0000
0000
1000
0000
,
0010
0000
0000
1000
0000
0000
0010
0000
,
0100
0000
0000
0001
0000
0000
1000
0000
,
0010
0000
0000
1000
0000
0000
0001
0000
,
0200
0000
0000
0320
0000
0000
1030
0000
,
0001
0000
0000
0100
0000
0000
0010
0000
,
2000
0000
0000
3002
0000
0000
0103
0000
,
0010
0000
0000
1000
0000
0000
0010
0000
,
0110
0000
0000
2002
0000
0000
0000
0000
,
0000
0000
0000
3003
,
0110
0000
0000
2002
0000
0000
0000
0000
,
0000
0000
0000
3003
,
1100
0000
0000
0102
0000
0000
0000
0000
,
0010
0010
0100
0103
,
0011
0000
0000
2010
0000
0000
0000
0000
,
0010
0010
0100
3100
,
0001
0100
0010
1000
,
0002
0000
0000
2003
0000
0000
3020
0000
,
0000
0000
0031
1000
,
0200
0000
0000
0320
0000
0000
2030
0000
,
0000
0000
3001
0100
,
0020
0000
0000
0032
0000
0000
2003
0000
,
0000
0000
3010
1000
,
0200
0000
0000
0320
0000
0000
0032
0000
,
0000
0000
1003
0010
,
1000
0000
1000
0100
0000
0100
0001
0000
,
0010
0100
1000
0110
,
0010
0000
0001
0010
0000
0010
1000
0000
,
0001
0100
0010
1001
,
1000
0000
0010
0100
0000
0001
1000
0000
,
0010
0100
0001
0011
,
0100
0000
1000
0100
0000
0001
0010
0000
,
0001
1000
0100
1100
,
1000
0000
0100
0001
0000
1000
0010
0000
,
1000
0010
0100
0000
0001
0100
0010
0000
,
1000
0000
0100
0010
0000
0001
1000
0000
,
0010
1000
0001
0000
0100
0001
1000
0000
,
0010
0000
1000
0100
0000
0001
0010
0000
,
1000
0001
0100
0000
0001
1000
0010
0000
,
1000
0000
0001
0010
0000
0100
1000
0000
,
0010
1000
0001
0000
0001
1000
0100
0000
,
0010
0100
0010
0100
,
0001
1000
0001
1000
,
0001
0010
0001
0010
,
1000
0100
1000
0100
,
0010
0001
0100
1000
,
0010
0001
0100
1000
,
0010
1000
0100
0001
,
0010
1000
0100
1001
;

//---------------dance-single - ----------------
#NOTES:
     dance-single:
     :
     Hard:
     12:
     0.609717,0.709624,0.444072,0.172695,0.353613,519.000000,465.000000,54.000000,21.000000,0.000000,0.000000,0.609717,0.709624,0.444072,0.172695,0.353613,519.000000,465.000000,54.000000,21.000000,0.000000,0.000000:
// measure 0
0000
0000
0000
0000
,  // measure 1
0000
0000
0000
0000
,  // measure 2
0000
0000
0000
0000
,  // measure 3
0000
0000
0000
0000
,  // measure 4
0000
0000
0000
0000
,  // measure 5
0100
0000
1000
0000
0010
0000
0100
0000
0001
0000
0010
0000
,  // measure 6
0100
0000
0010
0000
1000
0000
0001
0000
0100
0000
0020
0000
,  // measure 7
0000
0000
0031
0000
1000
0000
0100
0000
0001
0000
1000
0000
,  // measure 8
0010
0000
1000
0000
0100
0000
0010
0000
0001
0000
0100
0000
,  // measure 9
0011
0000
0001
0000
0010
0000
0100
0000
1000
0000
0010
0000
,  // measure 10
1000
0000
0010
0100
0000
0001
0010
0000
,  // measure 11
1000
0010
0100
0000
0001
0100
0010
0000
,  // measure 12
1000
0000
0100
0001
0000
0100
1000
0000
,  // measure 13
0010
1000
0001
0000
1000
0100
0001
0000
,  // measure 14
0010
0000
0100
1000
0000
0010
0001
0000
,  // measure 15
0010
0100
1000
0000
0010
0100
0001
0000
,  // measure 16
1000
0000
0010
1000
0000
0100
0001
0000
,  // measure 17
0010
0000
0100
0000
1000
0000
1001
0000
0000
0011
0000
0000
,  // measure 18
1000
0010
0100
0001
0010
0100
1000
0010
,  // measure 19
1000
0001
0010
0100
0010
0010
0110
0000
,  // measure 20
0001
0010
0100
1000
0010
1000
0100
0001
,  // measure 21
0010
1000
0010
0001
0100
0100
0110
0000
,  // measure 22
0001
0100
0010
1000
1000
0100
0010
0001
,  // measure 23
0010
0100
0010
1000
0001
1000
1001
1000
,  // measure 24
0001
0000
0010
0000
0100
0010
0100
0000
1000
0000
0100
0000
0002
0000
0000
0000
,  // measure 25
0000
0013
1000
0001
0100
0010
0110
0000
,  // measure 26
1000
0000
0000
0000
0100
0000
0010
0000
0000
0000
0010
0000
,  // measure 27
0001
0000
0000
0000
0001
0000
1000
0000
0000
0000
0001
1000
,  // measure 28
0001
0000
0000
0000
1000
0000
0001
0000
0000
0000
0001
0000
,  // measure 29
0010
0000
0000
0000
0000
0000
0000
0000
0001
0000
1000
0000
0100
0000
0001
0010
,  // measure 30
0001
0000
0000
0000
1000
0000
0100
0000
0000
0000
0100
0000
,  // measure 31
0010
0000
0000
0000
0000
0000
1000
0000
0000
0010
0000
0000
0001
0000
0000
0000
0000
0000
0000
0000
0100
0000
0010
0000
,  // measure 32
0100
0000
0000
0000
0001
0010
0001
0000
0000
0000
1000
0100
,  // measure 33
1000
0000
0000
0000
0010
0000
0100
0000
0000
1000
0000
0000
,  // measure 34
0001
0000
0000
0000
0010
0000
0100
0000
0000
0000
0100
0000
,  // measure 35
1000
0000
0000
0000
1000
0000
0001
0000
0000
0000
1000
0001
,  // measure 36
1000
0000
0000
0000
0001
1000
0001
0000
0000
0000
1000
0000
,  // measure 37
0100
0000
0000
0000
0000
0000
0000
0000
1000
0000
0001
0000
0010
0000
1000
0100
,  // measure 38
1000
0000
0000
0000
0001
0000
0010
0000
0000
0000
0010
0000
,  // measure 39
0100
0000
0000
0000
0100
0000
1000
0000
0000
0110
0000
0000
,  // measure 40
0010
0100
1000
0000
0100
0010
0001
0000
,  // measure 41
0001
0100
0010
1000
0010
0100
0001
1000
,  // measure 42
1100
0000
0000
0101
0000
0000
0010
0000
,  // measure 43
0100
0001
1000
0000
0010
0100
0001
0000
,  // measure 44
0110
0000
0000
1010
0000
0000
0001
0000
,  // measure 45
0010
1000
0100
0000
0001
0100
0010
0000
,  // measure 46
0110
0000
0000
0011
0000
0000
1000
0000
,  // measure 47
0010
1000
0001
0000
0100
1000
0001
0000
,  // measure 48
0110
0000
0000
1100
0000
0000
0101
0000
,  // measure 49
0010
0100
1000
0010
0100
0001
0010
0000
,  // measure 50
0011
0000
0000
0210
0000
0000
0000
0000
,  // measure 51
0010
0000
0000
1000
0000
0000
0300
0000
,  // measure 52
1100
0000
0000
0120
0000
0000
0000
0000
,  // measure 53
0100
0000
0000
0001
0000
0000
0030
0000
,  // measure 54
0011
0000
0000
0110
0000
0000
1100
0000
,  // measure 55
0000
0010
0000
0100
0001
0010
1000
0000
,  // measure 56
1010
0000
0000
0110
0000
0000
0101
0000
,  // measure 57
0100
0001
1000
0010
0100
0001
1100
0000
,  // measure 58
1000
0000
0010
0000
0100
0000
0001
0000
0100
0000
0010
0000
,  // measure 59
2000
0000
0000
3200
0000
0000
0320
0000
,  // measure 60
0000
0032
0000
0000
0013
0100
0001
1000
,  // measure 61
0020
0000
0000
0032
0000
0000
0203
0000
,  // measure 62
0000
2300
0000
0000
3010
0100
0001
1000
,  // measure 63
0020
0000
0000
2030
0000
0000
3002
0000
,  // measure 64
0000
0203
0000
0000
0310
0100
0001
0010
,  // measure 65
2000
0000
0000
3020
0000
0000
0032
0000
,  // measure 66
0103
0000
0010
0000
1000
0001
0100
0010
,  // measure 67
1100
0000
0100
0101
0000
0001
1001
0000
,  // measure 68
0001
1000
0010
1000
0100
0010
0001
0100
,  // measure 69
0101
0000
0010
0110
0000
0100
1100
0000
,  // measure 70
0010
1000
0010
0100
0001
0010
0100
0010
,  // measure 71
0011
0000
0001
0101
0000
0100
1100
0000
,  // measure 72
1000
0010
1000
0100
0010
0100
0001
0010
,  // measure 73
0110
0000
0100
1100
0000
1000
1001
0000
,  // measure 74
0010
1000
0010
0100
0001
0100
1000
0100
,  // measure 75
1010
0000
0010
0101
0000
0100
1010
0000
,  // measure 76
0010
1000
0100
0010
0100
0001
0010
0100
,  // measure 77
0011
0000
0010
1100
0000
0100
0011
0000
,  // measure 78
1000
0010
0100
0001
0010
0100
0001
1000
,  // measure 79
0110
0000
0001
0110
0000
1000
0110
0000
,  // measure 80
0010
1000
0001
0100
0010
1000
0001
0100
,  // measure 81
1001
0000
0010
1001
0000
0100
1001
0000
,  // measure 82
0001
1000
0100
0010
0001
0100
0010
1000
,  // measure 83
1100
0000
0100
0000
0010
0000
0100
0000
0001
0000
0100
0000
,  // measure 84
0010
0000
1000
0000
0010
0000
1000
0000
0100
0000
0001
0000
,  // measure 85
0020
0000
0000
0000
0130
0000
0001
0000
1000
0000
0010
0000
,  // measure 86
1000
0000
0100
0000
0010
0000
0001
0000
0100
0000
0010
0000
,  // measure 87
1000
0000
0001
0000
0010
0000
1000
0000
0100
0000
0010
0000
,  // measure 88
0001
0000
0010
0000
0100
0000
1000
0000
0010
0000
0100
0000
,  // measure 89
0002
0000
0000
0000
0103
0000
0010
0000
1000
0000
0001
0000
,  // measure 90
0100
0000
0010
0000
1000
0000
0010
0000
0100
0000
1001
0000
;
