#TITLE:moon_child [E-S style mix];
#SUBTITLE:;
#ARTIST:少年ラジオ remixed by Mr.T;
#TITLETRANSLIT:;
#SUBTITLETRANSLIT:;
#ARTISTTRANSLIT:;
#GENRE:DDR;
#CREDIT:;
#BANNER:;
#BACKGROUND:;
#LYRICSPATH:;
#CDTITLE:;
#MUSIC:moon_child (E-S style mix).ogg;
#OFFSET:-0.510000;
#SAMPLESTART:101.000000;
#SAMPLELENGTH:15.000000;
#SELECTABLE:YES;
#DISPLAYBPM:160.000000;
#BPMS:0.000000=160.000000
,275.500000=167.999878
,276.000000=160.000000
;
#STOPS:
;
#BGCHANGES:;
#KEYSOUNDS:;
#ATTACKS:;

//---------------dance-single - ----------------
#NOTES:
     dance-single:
     :
     Beginner:
     2:
     0.110933,0.159773,0.013744,0.213031,0.000000,113.000000,111.000000,2.000000,31.000000,0.000000,0.000000,0.110933,0.159773,0.013744,0.213031,0.000000,113.000000,111.000000,2.000000,31.000000,0.000000,0.000000:
0000
0000
0000
0000
,
0000
0000
0000
0000
,
0000
0000
0000
0000
,
0000
0000
0000
0000
,
0000
0000
0000
0000
,
1000
0000
1000
0000
,
0001
0000
0001
0000
,
0100
0000
0100
0000
,
0010
0000
0010
0000
,
2000
0000
0000
0000
,
3000
0000
0000
0000
,
0002
0000
0000
0000
,
0003
0000
0000
0000
,
0200
0000
0000
0000
,
0300
0000
0000
0000
,
0020
0000
0000
0000
,
0130
0000
0100
0000
,
1000
0000
0100
0000
,
0020
0000
0030
0000
,
0001
0000
0010
0000
,
0200
0000
0300
0000
,
1000
0000
0100
0000
,
0002
0000
0003
0000
,
0001
0000
0010
0000
,
2000
0000
3000
0000
,
0001
0000
0000
0000
,
1000
0000
0000
0000
,
0010
0000
0000
0000
,
0100
0000
0000
0000
,
1000
0000
0000
0000
,
0001
0000
0000
0000
,
0100
0000
0000
0000
,
0010
0000
0000
0000
,
1000
0000
0100
0000
,
1000
0000
0000
0000
,
0001
0000
0010
0000
,
0001
0000
0000
0000
,
1000
0000
0010
0000
,
1000
0000
0000
0000
,
0001
0000
0100
0000
,
0001
0000
0000
0000
,
2002
0000
0000
0000
,
3003
0000
0000
0000
,
0200
0000
0000
0000
,
0300
0000
0000
0000
,
0020
0000
0000
0000
,
0030
0000
0000
0000
,
0200
0000
0000
0000
,
0300
0000
0000
0000
,
2002
0000
0000
0000
,
3003
0000
0000
0000
,
0100
0000
0000
0000
,
0000
0000
0000
0000
,
0010
0000
0000
0000
,
0010
0000
0000
0000
,
0100
0000
0100
0000
,
0100
0000
0100
0000
,
2000
0000
0000
0000
,
3002
0000
0000
0000
,
2003
0000
0000
0000
,
3020
0000
0000
0000
,
2030
0000
0000
0000
,
3002
0000
0000
0000
,
2003
0000
0000
0000
,
3200
0000
0000
0000
,
0310
0000
0010
0000
,
0100
0000
0100
0000
,
0001
0000
0001
0000
,
1000
0000
1000
0000
,
1000
0000
0100
0000
,
0010
0000
0000
0000
,
0001
0000
0010
0000
,
0100
0000
0000
0000
,
1000
0000
0100
0000
,
0001
0000
0000
0000
,
0001
0000
0010
0000
,
1000
0000
0000
0000
,
1000
0000
0100
0000
,
0020
0000
0030
0000
,
0001
0000
0010
0000
,
0200
0000
0300
0000
,
1000
0000
0100
0000
,
0002
0000
0003
0000
,
0001
0000
0010
0000
,
2000
0000
3000
0000
,
0100
0000
1000
0000
,
0200
0000
0300
0000
,
0010
0000
0001
0000
,
0020
0000
0030
0000
,
1000
0000
0100
0000
,
0002
0000
0003
0000
,
0001
0000
0010
0000
,
2000
0000
0000
0000
,
3001
0000
0000
0000
;

//---------------dance-single - ----------------
#NOTES:
     dance-single:
     :
     Easy:
     7:
     0.340653,0.415410,0.206159,0.268006,0.000000,347.000000,317.000000,30.000000,39.000000,0.000000,0.000000,0.340653,0.415410,0.206159,0.268006,0.000000,347.000000,317.000000,30.000000,39.000000,0.000000,0.000000:
0000
0000
0000
0000
,
0000
0000
0000
0000
,
0000
0000
0000
0000
,
0000
0000
0000
0000
,
0000
0000
0000
0000
,
2000
0100
0000
3100
,
0002
0100
0000
0103
,
2000
0010
0000
3010
,
0002
0010
0000
0013
,
1000
0100
0010
0000
,
0001
0010
0100
0000
,
1000
0100
0001
0000
,
0001
0010
1000
0000
,
1000
0100
0010
0100
,
0001
0010
0100
0010
,
0001
0001
1000
1000
,
0010
0100
0010
0110
,
1000
0100
0020
0000
,
0031
0010
0200
0000
,
1300
0100
0002
0003
,
0001
0010
2000
3000
,
1000
0010
0100
0100
,
0001
0100
0010
0010
,
1000
0010
0100
0001
,
0001
0100
0010
1000
,
1001
1000
0100
0010
,
0001
0010
0100
1000
,
0100
1000
0010
0001
,
0100
0001
0010
1000
,
0100
1000
0001
0010
,
1000
0100
0010
0001
,
2000
0010
0100
3001
,
0002
0100
0010
1003
,
0010
1000
0001
1001
,
0010
0000
0101
1001
,
0100
1000
0010
1001
,
0100
0000
1010
1001
,
0100
1000
0010
0011
,
0001
0100
0010
1010
,
0100
1000
0001
0010
,
2000
0001
0100
3010
,
0001
0100
0010
1000
,
0001
1000
0001
1000
,
0010
1000
0001
0100
,
0001
1000
0001
1000
,
0200
1000
0010
0301
,
0020
0001
0100
1030
,
0001
1000
0010
0100
,
0101
1100
1010
0011
,
0002
0000
1000
0000
,
0100
0000
0010
0000
,
2003
0000
0001
0000
,
0010
0000
0100
0000
,
3020
0000
0130
0000
,
0200
0000
0310
0000
,
1001
0000
1001
0000
,
0010
0100
0110
1001
,
0200
0000
1000
0310
,
0020
0000
0001
0130
,
2000
0000
0001
3100
,
0002
0000
1000
0013
,
0100
0010
1000
1001
,
0010
1000
0001
1001
,
0100
1000
0010
1001
,
0010
0001
0100
1001
,
0200
1000
0010
0301
,
0020
0001
0100
1030
,
0002
0203
0320
2030
,
3020
2030
3002
0203
,
0310
1000
0010
1001
,
0010
0001
0100
1001
,
0100
1000
0001
0010
,
1001
0100
0010
1000
,
0002
1000
0100
0013
,
2000
0001
0010
3100
,
0010
1000
0001
0100
,
0010
0010
0100
0110
,
2000
0010
0100
3010
,
0001
1000
0010
0110
,
0002
0100
0010
0103
,
0001
1000
0001
0110
,
1000
0010
0100
0001
,
0001
0100
0010
1000
,
0010
0001
1000
0100
,
0010
0100
0001
1001
,
0200
1000
0000
0010
,
0301
0010
1000
0001
,
0020
0001
0000
0130
,
1000
0010
0100
0001
,
2000
0001
0000
3100
,
0010
1000
0001
0100
,
0002
1000
0000
0103
,
0010
1000
0010
0100
,
1001
0000
0000
0000
;

//---------------dance-single - ----------------
#NOTES:
     dance-single:
     :
     Medium:
     10:
     0.457476,0.511273,0.302366,0.281750,0.000000,466.000000,422.000000,44.000000,41.000000,0.000000,0.000000,0.457476,0.511273,0.302366,0.281750,0.000000,466.000000,422.000000,44.000000,41.000000,0.000000,0.000000:
0000
0000
0000
0000
,
0000
0000
0000
0000
,
0000
0000
0000
0000
,
0000
0000
0000
0000
,
0000
0000
0000
0000
,
2000
0100
0000
3010
,
0002
0010
0000
0103
,
2000
0001
0000
3100
,
0002
1000
0000
0103
,
0001
0100
1000
1010
,
1000
0010
0001
0101
,
0100
1000
0010
0110
,
0010
0001
0100
1001
,
0100
0000
1000
0000
0010
0010
0010
0000
,
0100
0000
0001
0000
0010
0010
0010
0000
,
1000
1000
1000
0000
0001
0001
0001
0000
,
1000
0001
1000
0001
0100
0010
0100
0000
,
0001
0100
1000
0000
1000
0100
0001
0000
,
0010
1000
0001
1001
,
0001
0010
1000
0000
1000
0010
0001
0000
,
1000
0010
0100
1001
,
0001
0100
1000
0000
1000
0100
0001
0000
,
0010
1000
0001
1001
,
1000
0010
0100
0000
0001
0100
0010
0000
,
1000
0010
0001
1001
,
0100
1000
0010
0000
0001
0000
1001
0000
,
0010
0001
0100
0000
1000
0000
1001
0000
,
0100
1000
0010
0000
0001
0000
1001
0000
,
0010
0001
0100
0000
1000
0000
1001
0000
,
0100
1000
0010
0000
0010
0100
0001
0000
,
0001
1000
0010
0110
,
0001
0100
0010
0000
1000
0010
0100
0000
,
0001
0100
1000
1001
,
0100
1000
0010
0000
0001
0000
1001
0000
,
0010
0001
0100
0000
1000
0000
1001
0000
,
0100
1000
0010
0000
0010
0001
0100
0000
,
0100
0001
1000
0010
0100
0000
1001
0000
,
0020
0000
1030
0001
0100
0000
0010
0000
,
1001
0000
0010
0100
0001
0000
1000
0000
,
2000
3020
0230
0302
,
0103
0010
1000
0001
0000
1001
0000
0000
,
0100
1000
0010
0001
0000
0000
1001
0000
,
0010
1000
0001
0110
,
0001
0010
1000
0100
0000
0000
1001
0000
,
0010
1000
0001
0110
,
0001
0010
0100
1000
0000
0000
1001
0000
,
1000
0100
0010
0001
0000
0000
1001
0000
,
0200
2300
3020
0032
,
0103
0010
1000
0000
0010
0100
0001
0000
,
0200
0000
2300
0000
,
3020
0000
0032
0000
,
0203
0000
0302
0000
,
2003
0000
0000
0000
3020
0000
0000
0030
,
1000
0001
0100
0110
,
0001
1000
0010
0110
,
0001
0100
1000
0000
1000
0100
0001
0000
,
0010
0100
0010
0100
0001
1000
0001
0000
,
0200
1000
0010
0301
,
0020
0001
0100
1030
,
2000
0001
0100
3010
,
0002
1000
0010
0103
,
0001
0100
1000
0000
0001
0000
1001
0000
,
1000
0010
0001
0000
1000
0000
1001
0000
,
0100
1000
0010
0000
0001
0000
1001
0000
,
0010
0001
0100
0000
1000
0000
1001
0000
,
0200
2300
3020
0032
,
0203
0320
2030
3002
,
1003
0010
0100
0000
0001
0100
0010
0000
,
0001
0100
1000
0100
0001
0100
1000
0100
,
0001
0010
1000
0010
0001
0000
1001
0000
,
1000
0010
0001
0010
1000
0000
1001
0000
,
0001
0100
1000
0100
0001
0000
1001
0000
,
1000
0010
0001
0100
1000
0000
1001
0000
,
0100
1000
0010
0000
0010
0001
0100
0000
,
0001
1000
0001
1000
0010
0100
0010
0100
,
0001
0100
0010
0000
1000
0010
0100
0000
,
0001
0100
0001
0100
1000
0010
1000
0010
,
0200
0001
1000
0310
,
0002
1000
0010
0103
,
2000
0010
0100
3001
,
0020
1000
0001
0130
,
0001
0100
1000
0000
0001
0000
1001
0000
,
1000
0010
0001
0000
1000
0000
1001
0000
,
0100
1000
0010
0000
0001
0000
1001
0000
,
0010
0001
0100
0000
1000
0000
1001
0000
,
0200
1000
0010
0301
,
0010
1000
0001
0000
1000
0000
1001
0000
,
0020
0001
0100
1030
,
0010
0100
0001
0000
1000
0000
1001
0000
,
0200
1000
0001
1300
,
0020
0001
1000
0031
,
1000
0010
0100
0000
0001
0000
1001
0000
,
0001
0100
0010
0000
1000
0000
1001
0000
,
0110
0000
0000
0000
;

//---------------dance-single - ----------------
#NOTES:
     dance-single:
     :
     Hard:
     13:
     0.611604,0.703001,0.158055,0.151183,0.192415,623.000000,600.000000,23.000000,22.000000,0.000000,0.000000,0.611604,0.703001,0.158055,0.151183,0.192415,623.000000,600.000000,23.000000,22.000000,0.000000,0.000000:
// measure 0
0000
0000
0000
0000
,  // measure 1
0000
0000
0000
0000
,  // measure 2
0000
0000
0000
0000
,  // measure 3
0000
0000
0000
0000
,  // measure 4
0000
0000
0000
0000
,  // measure 5
1000
0000
0110
0100
0001
1000
0010
0000
,  // measure 6
0001
0000
0110
0100
0010
1000
0001
0000
,  // measure 7
0100
0000
1001
1000
0010
0001
0100
0000
,  // measure 8
1000
0000
0000
0000
1001
0000
0001
0000
0100
0000
1000
0000
0010
0100
0010
0000
,  // measure 9
0100
0000
0000
0001
0000
0000
0100
0000
0010
0000
0000
1000
0000
0000
0010
0000
,  // measure 10
0100
0000
0000
0001
0000
0000
1000
0000
0010
0000
0000
0100
0000
0000
0001
0000
,  // measure 11
0010
0000
0000
1000
0000
0000
0100
0000
0001
0000
0000
0010
0000
0000
0100
0000
,  // measure 12
1000
0000
0000
1000
0000
0000
0100
0000
0010
0000
0000
0001
0000
0000
0001
0000
,  // measure 13
0010
0000
0000
0100
0000
0000
1000
0000
0001
0000
0000
1000
0000
0000
0010
0000
,  // measure 14
0100
0000
0000
0001
0000
0000
0100
0000
0010
0000
0000
1000
0000
0000
0001
0000
,  // measure 15
1001
0000
0000
0010
0000
0000
1000
0000
0110
0000
0000
0010
0000
0000
0100
0000
,  // measure 16
0001
0100
0010
1000
0100
0010
0001
0000
,  // measure 17
0001
0100
1000
0100
0001
0100
1000
0100
,  // measure 18
0001
0010
1000
0010
0001
0010
1000
0010
,  // measure 19
0001
0100
0010
0100
0001
0100
0010
0100
,  // measure 20
1000
0010
0100
0010
1000
0010
0100
0010
,  // measure 21
1000
0100
0001
0100
1000
0100
0001
0100
,  // measure 22
1000
0010
0001
0010
1000
0010
0001
0010
,  // measure 23
1000
0100
0010
0100
1000
0100
0010
0100
,  // measure 24
0100
0010
0001
0010
0100
0010
0002
0000
,  // measure 25
0103
0010
0100
1000
0010
0100
1001
0000
,  // measure 26
0010
0100
1000
0010
0100
0001
0110
0000
,  // measure 27
0001
0100
1000
0010
0100
0001
1001
0000
,  // measure 28
0100
1000
0010
0100
0001
0100
0110
0000
,  // measure 29
0001
0100
0010
1000
0100
1000
1100
0000
,  // measure 30
1000
0010
0100
0001
0010
0001
0011
0000
,  // measure 31
0001
0100
1000
0010
1000
0100
1001
0000
,  // measure 32
0010
0100
1000
0010
0100
0001
0110
0000
,  // measure 33
0100
0000
1000
0100
1000
0000
0100
0000
0010
0000
0001
0000
1000
0000
0010
0000
,  // measure 34
0100
0000
0001
0010
0001
0000
0010
0000
0100
0000
1000
0000
0010
0000
0100
0000
,  // measure 35
0001
0000
1000
0001
1000
0000
0010
0000
0100
0000
1000
0000
0010
0000
0100
0000
,  // measure 36
0002
1000
0100
0013
,  // measure 37
1001
0000
0000
0000
0010
0100
0010
0000
1000
0000
0001
0000
0100
0000
0010
0000
,  // measure 38
1000
0000
0000
0000
0010
0100
0010
0000
0100
0000
0001
0000
1000
0000
0100
0000
,  // measure 39
0010
0100
0010
0000
0001
0000
0100
0000
0001
1000
0001
0000
1000
0000
0010
0000
,  // measure 40
0100
1000
0010
1001
0000
0110
0000
0000
,  // measure 41
0001
0100
1000
0100
0001
0100
1000
0100
,  // measure 42
0001
0010
1000
0010
0001
0010
1000
0010
,  // measure 43
0001
1000
0010
0100
0001
1000
0010
0100
,  // measure 44
0001
0010
0100
1000
0001
0010
0100
1000
,  // measure 45
0010
1000
0010
0000
1000
0000
0001
0000
0000
0000
0001
0000
0011
0000
0000
0000
,  // measure 46
0100
0001
0100
0000
0001
0000
1000
0000
0000
0000
1000
0000
1100
0000
0000
0000
,  // measure 47
0100
0000
1000
0100
0000
0100
0010
0000
0010
0001
0000
0001
,  // measure 48
1000
0000
0100
0000
0010
0000
0100
0000
1000
0001
1000
0001
1000
0000
0000
0000
,  // measure 49
0200
1000
0000
0010
,  // measure 50
0001
0010
0000
0010
,  // measure 51
2300
0001
0000
0001
,  // measure 52
0100
0010
0000
0010
,  // measure 53
3020
0001
0000
0001
,  // measure 54
0230
1000
0000
0010
,  // measure 55
0302
2003
3020
0230
,  // measure 56
0301
0000
0100
0000
0010
0000
1000
0000
0010
0100
0010
0100
0010
0000
0100
0000
,  // measure 57
0002
1000
0100
0013
,  // measure 58
2000
0001
0010
3100
,  // measure 59
0001
0000
1000
0000
0010
0100
0010
0000
,  // measure 60
1000
0000
0001
0000
0100
0010
0100
0000
,  // measure 61
0001
0000
0000
0000
1000
0010
1000
0000
0001
0000
1000
0000
0010
0000
0100
0000
,  // measure 62
0001
0000
0000
0000
0010
0001
0010
0000
0001
0000
0100
0000
0010
0000
1000
0000
,  // measure 63
0001
0000
0000
0000
0100
0010
0100
0000
0001
0000
0100
0000
0010
0000
1000
0000
,  // measure 64
0100
0000
0010
0100
0010
0000
0001
0000
0100
0000
0001
1000
0001
0000
0010
0000
,  // measure 65
0002
2003
3020
0230
,  // measure 66
0302
2003
3020
0230
,  // measure 67
0301
0000
0000
0001
0100
0000
0000
0100
1000
0000
0000
1000
0100
0000
0000
0100
,  // measure 68
0010
0100
0010
0000
0100
0010
0100
0000
1000
0001
1000
0001
1000
0001
1000
0000
,  // measure 69
0100
0010
1000
0100
0010
0100
0001
0010
,  // measure 70
0100
0000
1000
0000
0010
0000
1000
0000
0100
0000
0010
0000
0100
0010
0100
0000
,  // measure 71
0001
1000
0010
0100
1000
0010
0100
0001
,  // measure 72
2000
0000
3000
0010
0100
0001
1000
0010
,  // measure 73
0100
0000
0001
1000
0001
0000
0100
0010
0100
0000
0001
0000
1000
0000
0010
0000
,  // measure 74
0100
0010
0100
0000
0001
1000
0001
0000
0100
0000
1000
0000
0010
0000
1000
0000
,  // measure 75
0001
0100
0010
1000
0100
0010
0001
1000
,  // measure 76
0001
1000
0001
0000
0010
0100
0010
0100
0020
0000
0000
0000
0000
0000
0000
0000
,  // measure 77
1030
0001
0100
1000
0010
0100
1000
0001
,  // measure 78
0100
0010
1000
0100
0010
0001
0100
1000
,  // measure 79
0010
0100
0001
1000
0100
0010
0100
0001
,  // measure 80
0100
0010
1000
0100
0001
0100
0010
1000
,  // measure 81
0100
0001
0010
0100
1000
0100
0010
0100
,  // measure 82
0001
1000
0010
0100
0001
0010
0100
1000
,  // measure 83
0100
1000
0010
0100
0001
0100
0010
1000
,  // measure 84
0001
0000
0100
0000
0010
0000
1000
0000
0001
0000
0100
0000
0001
1000
0001
1000
,  // measure 85
0001
0010
1000
0001
,  // measure 86
0100
0010
1000
1001
,  // measure 87
1000
0010
0100
0001
,  // measure 88
0100
0010
1000
0110
,  // measure 89
0001
1000
0010
0100
,  // measure 90
0001
0100
1000
1001
,  // measure 91
1000
0010
0100
0001
,  // measure 92
0010
0000
0100
0000
1000
0001
1000
0001
,  // measure 93
1001
0000
0000
0000
;
