#TITLE:kors k's How to make OTOGE CORE;
#SUBTITLE:;
#ARTIST:kors k;
#TITLETRANSLIT:;
#SUBTITLETRANSLIT:;
#ARTISTTRANSLIT:;
#GENRE:beatmania IIDX;
#CREDIT:;
#BANNER:;
#BACKGROUND:;
#LYRICSPATH:;
#CDTITLE:;
#MUSIC:kors k's How to make OTOGE CORE.ogg;
#OFFSET:-1.325000;
#SAMPLESTART:5.159032;
#SAMPLELENGTH:15.000000;
#SELECTABLE:YES;
#BPMS:0.000000=124.000000
,52.000000=190.000000
,104.000000=124.000000
,138.000000=190.000000
,207.000000=124.000000
,239.000000=190.000000
;
#STOPS:
;
#BGCHANGES:4.000=kors k's How to make OTOGE CORE.avi=1.000=0=0=0=StretchNoLoop====,
99999=-nosongbg-=1.000=0=0=0 // don't automatically add -songbackground-
;
#KEYSOUNDS:;
#ATTACKS:;

//---------------dance-single - ----------------
#NOTES:
     dance-single:
     :
     Beginner:
     3:
     0.119282,0.217840,0.045962,0.091924,0.003830,109.000000,103.000000,6.000000,12.000000,0.000000,0.000000,0.119282,0.217840,0.045962,0.091924,0.003830,109.000000,103.000000,6.000000,12.000000,0.000000,0.000000:
0000
0000
0000
0000
,
0000
0000
0000
0000
,
1000
0000
0000
0000
,
0001
0000
0001
0000
,
1000
0000
0000
0000
,
1000
0000
1000
0000
,
0001
0000
0000
0000
,
0100
0000
0100
0000
,
0010
0000
0000
0000
,
0010
0000
0010
0000
,
0100
0000
0100
0000
,
0100
0000
0000
0000
,
0110
0000
0000
0000
,
2000
0000
0000
3000
,
0002
0000
0000
0003
,
0200
0000
0000
0300
,
0020
0000
0000
0030
,
2000
0000
0000
3000
,
0002
0000
0000
0003
,
1001
0000
0000
0000
,
0000
0000
0000
0000
,
1000
0000
1000
0000
,
0001
0000
0001
0000
,
0100
0000
0100
0000
,
0010
0000
0010
0000
,
0110
0000
0000
0000
,
1000
0000
1000
0000
,
0001
0000
0000
0000
,
0100
0000
0100
0000
,
0010
0000
0000
0000
,
0001
0000
1000
0000
,
0001
0000
0000
0000
,
1000
0000
0001
0000
,
1000
0000
0000
0000
,
0000
0000
0000
0000
,
1000
0000
0000
0000
,
1000
0000
0000
0000
,
0001
0000
0000
0000
,
0001
0000
0000
0000
,
0200
0000
0300
0000
,
0020
0000
0030
0000
,
0200
0000
0300
0000
,
0020
0000
0030
0000
,
1000
0000
0000
0000
,
0001
0000
0000
0000
,
1000
0000
0000
0000
,
0001
0000
0000
0100
,
0000
0100
0000
0010
,
0000
0010
0000
0100
,
0000
0100
0000
0010
,
0010
0010
0000
1001
,
0000
0000
0000
1000
,
0000
1000
0000
0001
,
0000
0000
0000
0001
,
0000
0001
0000
1000
,
0000
0000
0000
1000
,
0000
0100
0000
1000
,
0000
0000
0000
0000
0000
0010
0000
0000
0000
0000
0000
0000
0000
0000
0000
0000
,
0000
0001
0000
0010
,
0000
0000
0000
1000
,
0000
0001
0000
1001
,
0000
0000
0000
1000
,
0000
0000
0000
0001
,
0000
0000
0000
1000
,
0000
0000
0000
0010
,
0000
0010
0000
0100
,
0000
0000
0000
0100
,
0000
0100
0000
0010
,
0000
0000
0000
1000
,
0000
0100
0000
1000
,
0000
0000
0000
0001
,
0000
0010
0000
0001
,
0000
0000
0000
1000
,
0000
0001
0000
1000
,
0000
0000
0000
0001
,
0000
1000
0000
0001
,
0000
0000
0000
0000
,
2002
0000
0000
0000
,
0000
0000
0000
0000
,
0000
0000
0000
0000
,
0000
0000
0000
0000
,
0000
3003
0000
0000
;

//---------------dance-single - ----------------
#NOTES:
     dance-single:
     :
     Easy:
     6:
     0.265922,0.325563,0.053622,0.122565,0.007660,243.000000,236.000000,7.000000,16.000000,0.000000,0.000000,0.265922,0.325563,0.053622,0.122565,0.007660,243.000000,236.000000,7.000000,16.000000,0.000000,0.000000:
0000
0000
0000
0000
,
0000
0000
0000
0000
,
1000
0000
0100
0000
,
1000
1000
1000
0000
,
0001
0000
0010
0000
,
0001
0001
0001
0000
,
1000
0000
0100
0000
,
0010
0010
0010
0000
,
0001
0000
0010
0000
,
0100
0100
0100
0000
,
1000
1000
0001
0001
,
0100
0100
0200
0300
,
0220
0000
0330
0000
,
1000
1000
1000
1000
,
0000
0001
0000
0001
,
0000
0100
0100
0100
,
0000
0010
0000
0010
0000
0010
0000
0000
,
0001
0001
0001
0001
,
0000
1000
0000
1000
0000
1000
0000
0000
,
2002
0000
3003
0000
,
0000
0000
0000
0000
,
0001
1000
0001
1000
,
0010
0100
0010
0100
,
0001
0010
0100
1000
,
0001
0100
0010
1000
,
2002
0000
3003
0000
,
1000
0000
0100
0000
,
1000
0000
0010
0010
,
0001
0000
0100
0000
,
0001
0000
0010
0010
,
1000
0100
0010
0001
,
1000
0010
0100
0001
,
0001
0100
0010
1000
,
0001
0010
0100
1000
,
0000
0000
0000
0000
,
0001
1000
0000
1000
,
0100
1000
0000
0010
,
0100
0010
0000
0001
,
0010
0001
0000
1000
,
0100
1000
0100
0000
,
0010
0001
0010
0000
,
0001
1000
0001
0000
,
1000
0001
1000
0000
,
0100
1000
0001
0000
,
0010
0001
1000
0000
,
0100
1000
0010
0000
,
0010
0001
0100
0100
,
1000
0100
0010
0001
,
0010
0100
1000
0001
,
1000
0001
1000
0010
,
0100
0010
0100
2002
,
0000
3003
0000
1000
,
0000
0100
0000
0010
,
0010
0010
0000
0001
,
0010
0100
1000
0200
,
0000
0320
0000
1030
,
0100
0010
0001
1000
,
0001
0000
0000
0000
0000
1000
0000
0000
0000
0000
0000
0000
0000
0000
0000
0000
,
1000
0100
0010
0001
,
0200
0300
0000
0001
,
1000
0001
1000
0010
,
1001
0100
1000
0010
,
0001
0100
1000
0010
,
0010
0100
0100
0001
,
1000
0001
1000
0010
,
1000
0100
0001
0010
,
0100
0001
1000
0100
,
1000
0010
0001
0100
,
0010
1000
0002
0003
,
1001
0100
1000
0010
,
0001
0100
0100
0001
,
0100
0010
1000
0001
,
0100
0010
0010
1000
,
0001
1000
0001
0100
,
0010
0100
0010
0001
,
0010
0100
1000
0001
,
0100
0010
1000
0000
,
2002
0000
0000
0000
,
0000
0000
0000
0000
,
0000
0000
0000
0000
,
0000
0000
0000
0000
,
0000
3003
0000
0000
,
0000
0000
0000
0000
0000
0000
0000
0000
0000
0000
0000
0200
0000
0000
0000
0000
,
0000
0000
0000
0000
,
0000
0000
0000
0000
,
0300
0000
0000
0000
;

//---------------dance-single - ----------------
#NOTES:
     dance-single:
     :
     Medium:
     9:
     0.384110,0.488345,0.260451,0.168527,0.007660,351.000000,317.000000,34.000000,22.000000,0.000000,0.000000,0.384110,0.488345,0.260451,0.168527,0.007660,351.000000,317.000000,34.000000,22.000000,0.000000,0.000000:
// measure 0
0000
0000
0000
0000
,  // measure 1
0000
0000
0000
0000
,  // measure 2
1000
0100
0010
0001
,  // measure 3
1000
0001
1000
0000
2002
0000
3003
0000
,  // measure 4
0001
0010
0100
1000
,  // measure 5
0001
1000
0001
0000
2002
0000
3003
0000
,  // measure 6
0100
1000
0010
0001
,  // measure 7
0100
0010
0100
0000
0220
0000
0330
0000
,  // measure 8
0001
0010
1000
0100
,  // measure 9
0010
0100
0010
0000
0220
0000
0330
0000
,  // measure 10
0001
0100
1000
0010
,  // measure 11
0001
1000
0001
0000
1001
0000
0100
0000
,  // measure 12
0220
0000
0330
0000
,  // measure 13
0001
1000
0001
1000
,  // measure 14
0000
0110
0000
0110
,  // measure 15
0000
0010
0010
0010
,  // measure 16
0000
0001
0000
0001
0000
0001
0000
0001
,  // measure 17
1000
0100
1000
0100
,  // measure 18
0000
0100
0000
0010
0000
0100
0000
0010
,  // measure 19
2002
0000
3003
0000
,  // measure 20
0000
0000
0000
0000
,  // measure 21
1000
0100
0010
0001
,  // measure 22
1000
0010
0100
0001
,  // measure 23
0001
0100
0010
1000
,  // measure 24
0001
0010
0100
1000
,  // measure 25
2002
0000
0000
0000
0000
0000
0000
0000
0000
0000
0000
3003
0000
0000
0000
0000
,  // measure 26
0100
1000
0100
0010
,  // measure 27
0001
1000
0001
0000
1000
0001
1000
0000
,  // measure 28
0001
0010
0100
1000
,  // measure 29
0001
1000
0001
0000
1000
0001
1000
0000
,  // measure 30
0100
1000
0010
0001
,  // measure 31
0100
0010
0100
0000
0010
0100
0010
0000
,  // measure 32
0001
0010
0100
1000
,  // measure 33
0010
0000
0100
0000
0010
0000
0000
0000
0220
0000
0000
0000
0000
0330
0000
0000
,  // measure 34
0000
0000
0000
0000
,  // measure 35
1000
0000
0000
0100
0000
0000
0010
0000
,  // measure 36
0001
0000
0000
0010
0000
0000
0100
0000
,  // measure 37
1000
0000
0000
0100
0000
0000
0001
0000
,  // measure 38
0001
0000
0000
0010
0000
0000
1000
0000
,  // measure 39
1000
0100
0010
0001
,  // measure 40
0010
0100
1000
1001
,  // measure 41
0001
0010
0100
1000
,  // measure 42
0100
0010
0001
1001
,  // measure 43
0100
0000
1000
0000
0010
0001
0010
0000
,  // measure 44
0010
0000
0001
0000
0100
1000
0100
0000
,  // measure 45
1000
0000
0010
0000
0100
0010
0001
0000
,  // measure 46
0001
0000
0100
0000
0010
0100
1000
0000
,  // measure 47
1001
0000
0100
0001
1000
0000
0010
0000
,  // measure 48
0001
0000
0010
1000
0001
0000
0110
0000
,  // measure 49
1000
0001
0100
0000
0110
0000
0001
1000
,  // measure 50
0100
0110
0010
0220
,  // measure 51
0000
0000
0000
0000
0330
0000
0001
0100
,  // measure 52
1000
0000
0001
0000
1000
0000
1000
0100
,  // measure 53
0001
0000
1000
0000
0001
0000
0001
0010
,  // measure 54
0100
0000
1000
0000
0001
0000
1000
0100
,  // measure 55
0010
0000
1000
0000
0001
0000
0100
1000
,  // measure 56
0010
0000
0010
0001
0100
0000
0010
1000
,  // measure 57
0001
0000
0000
0000
0000
1001
0000
0000
0000
0000
0000
0000
0000
0000
0000
0000
,  // measure 58
0100
0000
1000
0001
0010
0000
0001
1000
,  // measure 59
0100
1001
0000
1000
,  // measure 60
0100
0010
0001
1001
,  // measure 61
0001
1000
0100
0000
0010
0000
0001
0000
,  // measure 62
1000
0000
0001
0100
0001
0100
0001
0000
,  // measure 63
0001
0100
1000
0010
,  // measure 64
0001
0000
1000
0010
1000
0010
1000
0000
,  // measure 65
1000
0100
0001
0100
1000
0000
1000
0100
,  // measure 66
0001
0100
1000
0000
0001
0000
1001
0000
,  // measure 67
0001
0010
1000
0010
0001
0000
0001
0010
,  // measure 68
1000
0010
0001
0000
1000
0000
1001
0000
,  // measure 69
0100
1000
0010
0000
0001
0000
1001
0000
,  // measure 70
0010
0001
0100
0000
1000
0000
1001
0000
,  // measure 71
0100
1000
0010
0000
0001
0000
1001
0000
,  // measure 72
0010
0001
0100
0000
1000
0000
1001
0000
,  // measure 73
0100
1000
0010
0000
1001
0000
0010
0001
,  // measure 74
0100
0000
1001
0000
0100
1000
0100
0000
,  // measure 75
0001
1000
0100
0000
1001
0000
1000
0001
,  // measure 76
0010
1001
1001
0000
,  // measure 77
0220
0000
0000
0000
,  // measure 78
0000
0000
0000
0000
,  // measure 79
0000
0000
0000
0000
,  // measure 80
0000
0000
0000
0000
,  // measure 81
0000
0330
0000
0000
,  // measure 82
0000
0000
0000
0000
0000
0000
0000
0000
0000
0000
0000
2002
0000
0000
0000
0000
,  // measure 83
0000
0000
0000
0000
,  // measure 84
0000
0000
0000
0000
,  // measure 85
3003
0000
0000
0000
;

//---------------dance-single - ----------------
#NOTES:
     dance-single:
     :
     Hard:
     12:
     0.485883,0.586014,0.260451,0.176187,0.034471,444.000000,410.000000,34.000000,23.000000,0.000000,0.000000,0.485883,0.586014,0.260451,0.176187,0.034471,444.000000,410.000000,34.000000,23.000000,0.000000,0.000000:
// measure 0
0000
0000
0000
0000
,  // measure 1
0000
0000
0000
0000
,  // measure 2
1000
0000
0100
0000
0010
0010
0010
0000
,  // measure 3
0001
0000
0010
0000
0100
0100
0100
0000
,  // measure 4
1000
0100
0010
0000
0001
0010
0100
0000
,  // measure 5
1000
0001
1000
0001
1000
0000
1001
0000
,  // measure 6
0001
0100
1000
0000
0010
0000
1001
0000
,  // measure 7
1000
0010
0001
0000
0100
0000
1001
0000
,  // measure 8
0100
1000
0010
0000
0010
0001
0100
0000
,  // measure 9
2000
0001
0001
3001
,  // measure 10
0001
0001
0001
0000
1000
1000
1000
0000
,  // measure 11
0010
0100
0010
0100
0010
0000
0110
0000
,  // measure 12
2002
0000
0000
0000
0000
0000
0000
0000
0000
3003
0000
0000
0000
0000
0000
0000
,  // measure 13
1000
0001
1000
0001
,  // measure 14
0000
1001
0000
1001
,  // measure 15
0000
0000
0000
0000
0001
0000
1000
0000
0001
1000
0001
0000
1000
0000
0001
0000
,  // measure 16
0000
0010
0000
0100
0000
0010
0000
0100
,  // measure 17
0010
0100
0010
0100
,  // measure 18
0000
1000
0000
0001
0000
1000
0000
0001
,  // measure 19
2002
0000
3003
0000
,  // measure 20
0000
0000
0000
0000
,  // measure 21
0001
0010
0100
1000
0001
0010
0100
1000
,  // measure 22
0001
0100
0010
1000
0001
0100
0010
1000
,  // measure 23
0001
0010
0100
1000
0001
0010
0100
1000
,  // measure 24
0001
0100
0010
1000
0001
0100
0010
1000
,  // measure 25
2002
0000
0000
3003
,  // measure 26
1000
1000
1000
0000
0010
0010
0010
0000
,  // measure 27
0001
0100
0010
1000
0001
0000
1001
0000
,  // measure 28
0001
0001
0001
0000
0100
0100
0100
0000
,  // measure 29
1000
0010
0100
0001
1000
0000
1001
0000
,  // measure 30
0001
0100
0010
0000
1000
0010
0100
0000
,  // measure 31
0001
0100
1000
0010
0001
0000
1001
0000
,  // measure 32
1000
0010
0100
0000
0001
0100
0010
0000
,  // measure 33
1000
0100
0001
0010
1000
0000
2002
0000
,  // measure 34
3003
0000
0000
0000
,  // measure 35
0100
0000
0010
0000
0000
0000
1000
0000
0000
0000
0001
0100
0001
0000
0000
0000
,  // measure 36
0100
1000
0000
1000
0100
0010
0000
0000
,  // measure 37
0100
0000
0010
0000
0000
0000
0001
0000
0000
0000
1000
0010
1000
0000
0010
0000
,  // measure 38
0000
1001
0000
0002
0000
2003
0000
3000
,  // measure 39
0001
1000
0100
0100
1000
0000
0001
1000
,  // measure 40
0010
0010
0001
0000
0001
1001
0000
0000
,  // measure 41
1000
0010
0001
0001
0100
0000
0001
0100
,  // measure 42
1000
1000
0010
0001
1001
0000
0000
0000
,  // measure 43
0001
0000
0100
0000
0000
0000
1000
0000
0000
0000
1000
0100
1000
0000
0000
0000
,  // measure 44
0010
0100
0000
0001
1000
0010
0000
0000
,  // measure 45
1000
0000
0010
0000
0000
0000
0001
0000
0000
0000
0001
0010
0001
0000
0010
0000
,  // measure 46
0000
0002
0000
0203
0000
2300
3100
0000
,  // measure 47
0001
0010
0100
1000
0001
0000
1000
0100
,  // measure 48
0010
0001
1000
0000
1000
1001
0000
0000
,  // measure 49
0001
0100
0010
1000
0001
0000
1000
0010
,  // measure 50
0100
0001
1000
0001
0011
0000
2002
0000
,  // measure 51
0000
0000
3003
0000
0000
0000
1000
0100
,  // measure 52
0010
0000
0001
0010
0100
0000
0001
0100
,  // measure 53
1000
0010
0001
0000
1001
0000
1000
0010
,  // measure 54
0100
0000
0001
0100
0010
0000
2000
0000
,  // measure 55
0001
0000
0100
0000
3010
0000
0001
0100
,  // measure 56
1000
0000
1000
0010
0001
0000
1000
0010
,  // measure 57
0100
0000
0001
0000
2000
0002
0000
0000
0000
0000
3003
0000
0000
0000
0000
0000
,  // measure 58
0100
0000
1000
0010
0100
0000
0001
0100
,  // measure 59
0010
1000
1001
0000
0000
0000
1000
0000
,  // measure 60
0100
0010
0001
1001
,  // measure 61
0001
0100
1000
0100
0001
0100
1000
0010
,  // measure 62
0001
0010
1000
0010
0001
0010
1000
0010
,  // measure 63
0100
0001
1000
0010
0100
0001
0001
0010
,  // measure 64
0100
1000
0001
0010
0100
1000
1001
0000
,  // measure 65
1000
0100
0010
0001
0100
0000
0001
0010
,  // measure 66
0100
1000
0010
0000
0001
1000
1001
0000
,  // measure 67
1000
0010
0100
0001
1000
0000
0001
0100
,  // measure 68
0010
1000
0001
1000
1001
0000
0001
0000
,  // measure 69
1000
0000
0010
0000
0000
0000
1001
0000
0000
0000
0001
1000
0001
0000
0000
0000
,  // measure 70
0001
0100
0000
0100
0010
1000
1001
0000
,  // measure 71
0001
0000
1000
0000
0000
0000
0110
0000
0000
0000
0100
0010
0100
0000
0010
0000
,  // measure 72
0000
1001
0000
0110
0000
1000
1001
0000
,  // measure 73
0001
1000
0010
0100
0001
0000
1000
0001
,  // measure 74
0100
0010
1000
0000
1000
0001
1001
0000
,  // measure 75
0010
1000
0100
0010
0001
0000
0010
0001
,  // measure 76
0010
0100
1000
0001
1000
0001
0000
0000
,  // measure 77
2200
0000
0000
0000
,  // measure 78
0000
0000
0000
0000
,  // measure 79
0000
0000
0000
0000
,  // measure 80
0000
0000
0000
0000
,  // measure 81
0000
3300
0000
0000
,  // measure 82
0000
0000
0000
0000
0000
0000
0000
0000
0000
0000
0000
0022
0000
0000
0000
0000
,  // measure 83
0000
0000
0000
0000
,  // measure 84
0000
0000
0000
0000
,  // measure 85
0033
0000
0000
0000
;
