#TITLE:jewelry girl*;
#SUBTITLE:;
#ARTIST:jun;
#TITLETRANSLIT:;
#SUBTITLETRANSLIT:;
#ARTISTTRANSLIT:;
#GENRE:pop'n music;
#CREDIT:Nanolite;
#BANNER:;
#BACKGROUND:;
#LYRICSPATH:;
#CDTITLE:;
#MUSIC:jewelry girl.ogg;
#OFFSET:0.640000;
#SAMPLESTART:35.417171;
#SAMPLELENGTH:15.000000;
#SELECTABLE:YES;
#DISPLAYBPM:173.000000;
#BPMS:0.000000=173.000000
,236.000000=86.500000
,252.000000=173.000000
;
#STOPS:
;
#BGCHANGES:;
#KEYSOUNDS:;
#ATTACKS:;

//---------------dance-single - ----------------
#NOTES:
     dance-single:
     :
     Hard:
     11:
     0.445682,0.652712,0.215157,0.041376,0.016551,377.000000,351.000000,26.000000,5.000000,0.000000,0.000000,0.445682,0.652712,0.215157,0.041376,0.016551,377.000000,351.000000,26.000000,5.000000,0.000000,0.000000:
// measure 0
0000
0000
0000
0000
,  // measure 1
0000
0000
0000
0000
,  // measure 2
0000
0000
0000
0000
,  // measure 3
0000
0000
0000
0000
,  // measure 4
0000
0000
0000
0000
,  // measure 5
1000
0100
0010
0000
,  // measure 6
0001
0010
0100
1000
,  // measure 7
0001
0010
0100
0000
,  // measure 8
1000
0100
0010
0001
,  // measure 9
1000
0100
0000
0100
,  // measure 10
0000
0100
0000
0100
,  // measure 11
0001
0010
0000
0010
,  // measure 12
0000
0010
0000
0010
,  // measure 13
1000
0100
0000
0100
,  // measure 14
0000
0100
0000
0100
,  // measure 15
0010
0001
0000
0001
,  // measure 16
0010
0100
1000
0001
,  // measure 17
1000
1000
0100
0010
,  // measure 18
0001
0001
0010
0100
,  // measure 19
1000
1000
0010
0100
,  // measure 20
0001
0001
0100
0010
,  // measure 21
1000
0100
0010
0010
,  // measure 22
0001
0010
0100
0100
,  // measure 23
1000
0010
0100
0100
,  // measure 24
0001
0100
0010
0010
,  // measure 25
0220
0000
0000
0330
,  // measure 26
0001
0000
0100
0010
1000
0000
0100
0000
,  // measure 27
0001
0000
1000
0100
0010
0000
0001
0000
,  // measure 28
0100
0000
0001
1000
0010
0000
0100
0000
,  // measure 29
0001
0000
1000
0010
0100
0000
0001
0000
,  // measure 30
0010
0000
0001
0010
0100
0000
1000
0000
,  // measure 31
0100
0000
1000
0100
0010
0000
0001
0000
,  // measure 32
0010
0100
0001
0000
0100
0010
1000
0000
,  // measure 33
1000
0100
0010
0001
1000
0000
1001
0000
,  // measure 34
0001
0010
0100
1000
0010
0000
1000
0000
,  // measure 35
1000
0100
0010
0001
0010
0000
0100
0000
,  // measure 36
0001
0100
0010
1000
0100
0000
0010
0000
,  // measure 37
1000
0010
0100
0001
0010
0000
0001
0000
,  // measure 38
0100
1000
0010
0100
0001
0000
1000
0000
,  // measure 39
0100
0001
0100
0010
1000
0000
0001
0000
,  // measure 40
0100
0010
1000
0100
0010
0001
0010
0100
,  // measure 41
0001
1000
0001
1000
0010
0100
0010
0100
,  // measure 42
0001
0000
0001
0000
0010
0000
0000
0100
,  // measure 43
0000
0100
0010
0000
0001
0000
0000
0000
,  // measure 44
1000
0000
1000
0000
0010
0000
0000
0001
,  // measure 45
0000
0001
1000
0000
0010
0000
0000
0000
,  // measure 46
0100
0000
0100
0000
0010
0000
0000
1000
,  // measure 47
0000
1000
0001
0000
1001
0000
0000
0000
,  // measure 48
0010
0000
0100
1000
0000
1001
0000
0100
,  // measure 49
0000
0010
0000
0001
0010
0100
1000
0000
,  // measure 50
1001
0000
0110
0000
1001
0000
0000
0010
,  // measure 51
0000
0001
1000
0000
0110
0000
0000
0000
,  // measure 52
1100
0000
0011
0000
1100
0000
0000
1001
,  // measure 53
0000
0010
0100
0000
1001
0000
0000
0000
,  // measure 54
0011
0000
1100
0000
0011
0000
0000
0110
,  // measure 55
0000
0001
1000
0000
1001
0000
0000
0000
,  // measure 56
1000
0100
0010
0000
1001
0000
0000
0000
,  // measure 57
0001
0010
0100
1000
0010
0100
0001
2000
,  // measure 58
0000
0000
0000
0000
,  // measure 59
3001
0010
0100
1000
,  // measure 60
0100
0010
0001
1000
,  // measure 61
2002
0000
0000
3003
,  // measure 62
0001
0000
0010
0000
0100
0000
1000
0000
0001
1000
0001
1000
0001
0000
0000
0000
,  // measure 63
1001
0100
0010
0000
0100
1000
0010
0000
,  // measure 64
0001
0100
0010
0000
1000
0010
0100
0000
,  // measure 65
0001
0010
0100
1000
0010
0100
0001
0000
,  // measure 66
1000
0100
0010
0001
0100
0010
1000
0000
,  // measure 67
1000
0010
1000
0001
0100
0010
1000
0001
,  // measure 68
0001
0100
0001
1000
0010
0100
0001
1000
,  // measure 69
0001
0010
0100
1000
0010
0100
0001
1000
,  // measure 70
0010
0100
0010
0100
0010
0000
0001
0000
1000
0000
0010
0000
1001
0000
0000
0000
,  // measure 71
1000
0000
1100
0000
0100
0010
0001
0000
,  // measure 72
0001
0000
0011
0000
0001
0100
0010
0000
,  // measure 73
1000
0000
1100
0000
1000
0010
0100
0000
,  // measure 74
0001
0000
0011
0000
0010
0100
1000
0000
,  // measure 75
1000
0100
0010
0000
0001
0010
0100
0000
,  // measure 76
1000
0010
0100
0000
0001
0100
0010
0000
,  // measure 77
1000
0010
0100
0001
0100
0010
1000
0000
,  // measure 78
0001
0100
0010
1000
0010
0100
0001
0001
;

//---------------dance-single - ----------------
#NOTES:
     dance-single:
     :
     Medium:
     9:
     0.358201,0.456898,0.016551,0.041376,0.004138,303.000000,301.000000,2.000000,5.000000,0.000000,0.000000,0.358201,0.456898,0.016551,0.041376,0.004138,303.000000,301.000000,2.000000,5.000000,0.000000,0.000000:
0000
0000
0000
0000
,
0000
0000
0000
0000
,
0000
0000
0000
0000
,
0000
0000
0000
0000
,
0000
0000
0000
0000
,
1000
1000
0100
0000
,
0010
0010
0001
0010
,
0001
0001
0010
0000
,
0100
1000
0100
0100
,
0010
0100
0000
0100
,
0000
0100
0000
0100
,
1000
0100
0000
0100
,
0000
0100
0000
0100
,
0001
0100
0000
0100
,
0000
0100
0000
0100
,
1000
0100
0000
0100
,
0001
0100
1000
0000
,
0010
0010
0100
0000
,
0010
0010
0100
1000
,
0001
0001
1000
0000
,
0001
0001
1000
0100
,
0010
0010
0100
0000
,
0010
0010
0100
1000
,
0001
0001
1000
0000
,
0001
0001
1000
0100
,
0020
0000
0000
0000
,
0130
0000
0001
0000
1000
0001
1000
0000
,
0010
0000
0100
0000
1000
0001
1000
0000
,
0010
0000
0100
0000
1000
0100
1000
0000
,
0010
0000
0100
0000
0001
0010
0001
0000
,
0100
0000
0010
0000
1000
0001
1000
0000
,
0010
0000
0100
0000
0001
1000
0001
0000
,
1000
0100
0010
0000
0001
0010
0100
0000
,
0001
1000
0001
1000
0010
0000
1001
0000
,
0100
1000
0010
0100
,
0001
0100
0010
0000
1000
0010
0100
0000
,
0001
0100
0010
1000
,
0001
0100
0010
0000
1000
0010
0100
0000
,
0001
0100
1000
0010
,
1000
0100
0010
0000
0001
0010
0100
0000
,
1000
0001
0010
0100
,
0001
0100
0010
0000
1000
0010
0100
0000
,
1000
0000
1000
0000
0100
0000
0000
0010
,
0000
0010
0000
0010
0100
0000
0000
0000
,
0001
0000
0001
0000
0010
0000
0000
1000
,
0000
1000
0000
1000
0001
0000
0000
0000
,
0100
0000
0100
0000
0010
0000
0000
0001
,
0000
0001
0000
0001
0010
0000
0000
0000
,
0100
0000
0100
0000
1000
0000
0000
1000
,
0000
1000
0000
1000
0001
0000
1000
0000
,
0010
0000
0100
0000
0010
0000
0000
0100
,
0000
0001
0000
0100
0001
0000
0000
0000
,
0010
0000
1000
0000
0010
0000
0000
0100
,
0000
1000
0000
0100
1000
0000
0000
0000
,
0100
0000
0001
0000
0010
0000
0000
0001
,
0000
0100
0000
0010
1000
0000
0000
0000
,
1000
0000
0001
0000
0100
0000
0000
0001
,
0000
1000
0000
0001
1000
0000
1000
0000
,
2002
0000
0000
0000
0000
0000
0000
0000
0000
0000
0000
0000
0000
0000
0000
3003
,
0000
0100
0010
0100
,
2000
3000
0002
0003
,
0100
0100
0100
0100
,
0010
0000
0100
0000
0010
0000
0100
0000
0010
0000
1000
0001
1000
0000
0000
0000
,
0100
1000
0010
0010
,
0100
0001
0010
0010
,
1000
0010
0100
0000
0001
0100
0010
0000
,
1000
0100
0010
0001
0010
0100
1000
0000
,
0001
0100
0010
0010
,
1000
0010
0100
0100
,
1000
0010
0100
0000
0001
0100
0010
0000
,
1000
0010
0100
0001
0100
0010
1000
0000
,
0100
0000
1000
0000
0000
0100
1000
0000
,
0010
0000
0100
0000
0000
0010
0100
0010
,
0001
0000
0010
0000
0000
0001
0010
0000
,
0001
0000
0010
0000
0000
0001
0010
0100
,
1000
0000
0100
0000
0000
1000
0100
0000
,
1000
0000
0010
0000
0000
0100
0010
1000
,
0001
0001
1000
1000
,
0010
0000
0010
0000
0100
0010
0100
0010
;

//---------------dance-single - ----------------
#NOTES:
     dance-single:
     :
     Easy:
     6:
     0.275448,0.325839,0.074477,0.107578,0.000000,233.000000,224.000000,9.000000,13.000000,0.000000,0.000000,0.275448,0.325839,0.074477,0.107578,0.000000,233.000000,224.000000,9.000000,13.000000,0.000000,0.000000:
0000
0000
0000
0000
,
0000
0000
0000
0000
,
0000
0000
0000
0000
,
0000
0000
0000
0000
,
0000
0000
0000
0000
,
1000
1000
0010
0000
,
0001
0001
0100
0000
,
1000
1000
0010
0000
,
0001
0001
0100
0000
,
0001
0100
0000
0100
,
0000
0100
0000
0100
,
0000
0100
0000
0100
,
0000
0100
0000
0100
,
1000
0100
0000
0100
,
0000
0100
0000
0100
,
0001
0100
0000
0100
,
0000
0100
0000
0100
,
1000
0100
0010
0000
,
0001
0010
0100
0000
,
1000
0100
0001
0000
,
0001
0010
1000
0000
,
1000
0010
0100
0000
,
0001
0100
0010
0000
,
1000
0100
0010
0001
,
1000
1000
0001
0001
,
2002
0000
0000
3003
,
0100
1000
0010
0000
,
0001
0100
0010
0000
,
1000
0100
0010
0001
,
0100
0100
0110
0000
,
0001
0010
0100
0000
,
1000
0100
0010
0000
,
0001
0100
0010
1000
,
0010
0010
0110
0000
,
1000
0100
0020
0030
,
0001
0010
0200
0300
,
1000
0100
0010
0001
,
1000
1000
2002
3003
,
0001
0010
2000
3000
,
1000
0100
0002
0003
,
0001
0100
0010
1000
,
0001
0001
2002
3003
,
0100
1000
0100
0000
,
0010
0010
0100
0010
,
0001
0010
0001
0000
,
0100
0100
0010
0100
,
1000
0100
1000
0000
,
0010
0010
0100
0010
,
0001
0010
0001
0000
,
0100
0010
0100
0010
,
1000
0001
1000
0000
,
0010
0100
0001
1000
,
0010
0100
0010
0000
,
1000
0001
0100
0010
,
1000
0100
1000
0000
,
0010
0100
0001
1000
,
0001
0010
0001
0000
,
0100
0010
1000
0002
,
0000
0000
0000
0000
,
1003
0000
0100
0000
,
0010
0000
0001
0000
,
2002
0000
0000
3003
,
0001
0000
0010
0000
0100
1000
0100
0000
,
1000
0100
0010
0000
,
0001
0010
0100
0000
,
1000
0100
0010
0001
,
0100
0100
0110
0000
,
0001
0010
0100
0000
,
1000
0100
0010
0000
,
0001
0010
0100
1000
,
0010
0010
0110
0000
,
1000
0100
0000
0100
,
0000
0100
0000
0100
,
0001
0010
0000
0010
,
0000
0010
0000
0010
,
1000
0100
0000
0100
,
0000
0100
0000
0100
,
0001
0010
0000
0010
,
0100
1000
0001
1001
;

//---------------dance-single - ----------------
#NOTES:
     dance-single:
     :
     Beginner:
     2:
     0.086299,0.163437,0.041376,0.049652,0.000000,73.000000,68.000000,5.000000,6.000000,0.000000,0.000000,0.086299,0.163437,0.041376,0.049652,0.000000,73.000000,68.000000,5.000000,6.000000,0.000000,0.000000:
0000
0000
0000
0000
,
0000
0000
0000
0000
,
0000
0000
0000
0000
,
0000
0000
0000
0000
,
0000
0000
0000
0000
,
0100
0000
0100
0000
,
0000
0000
0100
0000
,
0010
0000
0010
0000
,
0000
0000
0010
0000
,
1001
0000
0000
0000
,
0000
0000
0000
0000
,
0100
0000
0000
0000
,
0010
0000
0000
0000
,
0100
0000
0000
0000
,
0000
0000
0000
0000
,
0001
0000
0000
0000
,
1000
0000
0000
0000
,
0001
0000
0000
0000
,
0001
0000
0000
0000
,
1000
0000
0000
0000
,
1000
0000
0000
0000
,
0010
0000
0000
0000
,
0010
0000
0000
0000
,
0100
0000
0000
0000
,
0100
0000
0000
0000
,
0000
0000
0000
0000
,
1001
0000
0000
0000
,
0100
0000
0000
0000
,
1000
0000
0000
0000
,
0010
0000
0000
0000
,
0100
0000
0000
0000
,
0001
0000
0000
0000
,
0010
0000
0000
0000
,
1000
0000
0000
0000
,
0100
0000
0000
0000
,
1000
0000
0000
0000
,
0010
0000
0000
0000
,
0001
0000
0000
0000
,
0100
0000
0000
0000
,
0010
0000
0000
0000
,
1000
0000
0000
0000
,
0001
0000
0000
0000
,
1001
0000
0000
0000
,
0000
0000
0000
0000
,
0100
0000
0000
0000
,
0000
0000
0000
0000
,
0010
0000
0000
0000
,
0000
0000
0000
0000
,
0100
0000
0000
0000
,
0100
0000
0000
0000
,
0010
0000
0000
0000
,
0000
0000
0000
0000
,
1000
0000
0000
0000
,
0000
0000
0000
0000
,
0001
0000
0000
0000
,
0000
0000
0000
0000
,
0100
0000
0000
0000
,
0100
0000
0000
0000
,
0020
0000
0000
0000
,
0130
0000
0000
0000
,
0100
0000
0000
0000
,
0200
0000
0000
0000
,
0310
0010
0010
0000
,
1000
0000
0000
0000
,
0001
0000
0000
0000
,
0100
0000
0000
0000
,
0010
0000
0000
0000
,
1001
0000
0000
0000
,
0100
0000
0000
0000
,
1000
0000
0000
0000
,
0001
0000
0000
0000
,
0120
0000
0000
0000
,
0000
0000
0000
0000
,
0230
0000
0000
0000
,
0000
0000
0000
0000
,
0302
0000
0000
0000
,
0000
0000
0000
0000
,
2003
0000
0000
0000
,
3001
0000
0001
0000
,
0001
0000
0000
0000
;
