#TITLE:home.(kors k remix);
#SUBTITLE:;
#ARTIST:秋桜 + WORLD SEQUENCE remixed by kors k;
#TITLETRANSLIT:;
#SUBTITLETRANSLIT:;
#ARTISTTRANSLIT:AkiSakura + WORLD SEQUENCE remixed by kors k;
#GENRE:pop'n music;
#CREDIT:;
#BANNER:;
#BACKGROUND:;
#LYRICSPATH:;
#CDTITLE:;
#MUSIC:home(kors k remix).ogg;
#OFFSET:1.739999;
#SAMPLESTART:68.997124;
#SAMPLELENGTH:15.000000;
#LASTBEATHINT:1.390084;
#SELECTABLE:YES;
#DISPLAYBPM:128.000000;
#BPMS:0.000000=128.000000
;
#STOPS:
;
#BGCHANGES:;
#KEYSOUNDS:;
#ATTACKS:;

//---------------dance-single - ----------------
#NOTES:
     dance-single:
     :
     Hard:
     12:
     0.443073,0.579339,0.192277,0.142118,0.175557,371.000000,348.000000,23.000000,17.000000,0.000000,0.000000,0.443073,0.579339,0.192277,0.142118,0.175557,371.000000,348.000000,23.000000,17.000000,0.000000,0.000000:
0000
0000
0000
0000
,
0000
0000
0000
0000
,
0000
0000
0000
0000
,
0000
0000
0000
0000
,
0000
0000
0000
0000
,
0000
0000
0000
0000
,
0001
0000
0010
0100
1000
0000
0010
0000
,
1000
0000
0100
0010
0001
0000
0100
0000
,
1000
0000
0010
0100
0001
0000
0100
0010
,
1000
0000
0100
0001
1000
0000
0010
0000
,
1001
0000
0000
0100
0000
0000
0000
0000
1000
0000
0000
1001
0000
0000
0000
0000
,
0100
0000
0000
0110
0000
0000
0000
0000
0001
0000
0000
0011
0000
0000
0000
0000
,
0001
0000
0000
0011
0000
0010
0100
0000
0110
0000
0000
1010
0000
1000
0100
0000
,
1000
0000
0000
1100
0000
0000
1000
0000
2002
0000
0000
0000
3003
0000
0000
0000
,
1000
0000
0000
0100
0010
0000
0002
0000
,
0000
0000
0100
0000
0010
0000
0003
0100
,
0010
0000
0000
1000
0100
0000
0001
0010
,
0000
0100
0000
1000
0010
0000
0001
0000
,
1001
0000
0000
0000
0010
0000
1000
0000
0100
0000
0000
0000
0010
0000
0001
0010
,
0001
0010
0001
0000
0010
0000
0001
0000
0010
0000
0000
0000
0001
0000
0000
0000
,
0010
0000
0000
0100
0000
0000
0010
0000
0100
0000
0001
0000
1000
0000
0010
0000
,
0100
0000
0000
0001
0000
0010
0100
0000
1000
0000
0100
0000
0010
0000
0001
0000
,
2000
0100
0010
3100
,
0002
0100
0010
0103
,
2000
0010
0100
3001
,
0002
0100
0010
1003
,
0100
1000
0010
0000
0001
0100
0010
0000
,
1000
0010
0100
0000
0001
0100
0010
0000
,
1000
0100
0010
0001
0010
0100
1000
0010
,
0100
0001
0010
0100
1000
0100
0010
0001
,
0020
0000
0100
0000
0001
0030
0100
0000
,
0200
0000
0010
0000
1000
0300
0010
0000
,
0001
0000
1000
0100
0010
0000
0001
0010
,
0100
0000
0001
1000
0100
0000
1000
0001
,
0020
0000
0100
0000
0001
0030
0100
0000
,
2000
0000
0100
0000
0010
3000
0100
0000
,
0002
0000
0100
0000
0010
0003
0100
0000
,
0010
0100
1000
0100
0010
0000
0110
0000
,
0001
0000
0100
0010
1000
0000
0010
0100
,
0001
0010
0100
1000
0100
0000
0010
0100
,
0001
0000
1000
0010
0100
0000
1000
0001
,
0100
0000
1000
0000
0010
0000
0001
0000
1000
0000
0000
0000
0001
0000
1000
0100
,
0010
0000
0010
0001
0010
0000
1000
0100
,
0010
0100
0001
0000
0010
0100
0001
0100
,
1000
0000
1000
0100
0001
0000
0001
0010
,
1000
0000
1000
0001
0100
0010
1000
0000
,
1100
0000
0100
0010
0110
0000
0010
0001
,
0011
0000
0001
0000
0010
0000
0100
0000
0110
0000
0000
0100
1000
0000
0100
0000
,
1100
0000
0000
0100
0000
0100
0010
0000
0110
0000
0000
0010
0000
0010
0001
0000
,
0011
0000
0000
0001
0000
0001
1000
0000
1001
0000
0000
0000
1100
0000
0000
0000
,
1000
0000
0000
0100
1000
0000
0100
0000
0010
0000
0001
0010
0100
0000
1000
0000
,
0001
0000
0010
0100
1000
0000
0001
0000
1000
0000
0100
0010
0001
0000
1000
0000
,
0001
0000
0000
0010
0001
0000
0010
0000
0100
0000
1000
0100
0010
0000
0001
0000
,
1000
0000
0100
0010
0001
0000
1000
0000
0001
0000
0010
0100
1000
0000
0001
0100
,
1000
0000
0000
0100
0010
0000
1000
0000
0100
0000
0010
0000
0002
0000
0000
0000
,
0100
0000
0000
0000
0010
0000
0000
0000
0103
0000
0010
0000
1000
0000
0010
0100
,
0001
0000
0000
1000
0010
0000
0100
0000
0001
0000
0010
0000
0100
0000
1000
0000
,
0010
0000
0020
0100
0030
0000
1000
0000
0001
0000
0100
0000
0010
0000
1000
0001
,
0010
0000
0000
1000
0100
0000
0001
0000
0010
0000
0100
0000
2000
0000
0000
0000
,
3100
0000
0000
0010
0100
0000
0001
0000
0010
0000
1000
0000
1100
0000
0000
0000
,
0001
0000
0000
1001
0000
0000
1000
0000
1001
0000
0000
0000
1000
0000
0100
0000
,
0010
0000
0000
0001
0000
0010
0100
0000
1000
0000
0100
0000
0010
0000
0001
2000
,
0002
0000
0000
0000
,
3003
0000
0000
0000
;

//---------------dance-single - ----------------
#NOTES:
     dance-single:
     :
     Medium:
     8:
     0.335589,0.368671,0.075239,0.200637,0.062699,281.000000,272.000000,9.000000,24.000000,0.000000,0.000000,0.335589,0.368671,0.075239,0.200637,0.062699,281.000000,272.000000,9.000000,24.000000,0.000000,0.000000:
0000
0000
0000
0000
,
0000
0000
0000
0000
,
0000
0000
0000
0000
,
0000
0000
0000
0000
,
0000
0000
0000
0000
,
0000
0000
0000
0000
,
1000
0000
0100
0000
0010
0000
0001
0010
,
1000
0000
0100
0000
0010
0000
0001
1000
,
0100
0000
1000
0000
0001
0000
0100
0001
,
1000
0000
0001
0000
0100
0000
0001
1000
,
0100
0000
0000
1000
0000
0000
1000
0000
0000
0000
0000
0010
0000
0000
0010
0000
,
0000
0000
0000
0100
0000
0000
0100
0000
0000
0000
0000
0001
0000
0000
0001
0000
,
0010
0000
0000
0010
0000
0000
0000
0000
0100
0000
0000
0100
0000
0000
0000
0000
,
1000
0000
0000
0100
0000
0000
0010
0000
0001
0000
0000
0000
1001
0000
0000
0000
,
0020
0000
0130
0002
,
0000
0000
0000
0003
0010
0000
0000
0000
0100
0000
0010
0000
1000
0000
0001
0000
,
0200
0000
1300
0020
,
0000
0000
0130
0000
1000
0100
0010
0001
,
0010
0000
0000
0100
0000
0000
0010
0000
0100
0000
0000
0000
0001
0000
1000
0000
,
0000
0000
1000
0000
0000
0000
1000
0000
0001
0000
0000
0100
0000
0000
0010
0000
,
1000
0000
0000
0100
0000
0000
0010
0000
0001
0000
0000
0000
0100
0000
0010
0000
,
0000
0010
0000
0010
0100
0001
1000
0000
,
0002
0100
0000
0103
,
2000
0100
0000
3100
,
0020
0000
0000
0000
0100
0000
0000
0000
0000
0000
0000
0030
0100
0000
0000
0000
,
0002
0010
0000
0013
,
0100
0000
1000
0010
0100
0000
0001
0100
,
0010
0000
1000
0000
1001
0000
0001
1000
,
0010
0000
0100
0010
0001
0000
1000
0010
,
0100
0001
0100
1000
,
0002
0100
0020
0033
,
2000
0010
0200
3300
,
1000
0100
0010
0000
0001
0010
0100
0000
,
1000
0010
0100
0000
0001
0100
0010
0000
,
2000
0100
0002
3003
,
0002
0010
2000
3003
,
0001
0000
0100
1000
0010
0000
0100
0001
,
2000
0001
0002
3003
,
0001
0000
0100
1000
0010
0000
0100
0001
,
0010
0000
0100
0000
1001
0000
1000
0010
,
0100
0000
0001
0100
0010
0000
1000
0010
,
0100
0000
0001
0100
0010
0000
1000
0100
,
0010
0000
0001
0010
0100
0000
1000
0000
,
0001
1000
0100
0000
0010
0000
0001
0100
,
1000
0000
1000
0100
0001
0000
0001
0010
,
1000
0000
0100
0000
1001
0000
0010
1000
,
0001
0000
0001
1000
0010
0000
1000
0001
,
0100
0010
1000
0001
,
1001
0000
0000
0100
0000
0000
0000
0000
1001
0000
0000
0010
0000
0000
0000
0000
,
0001
0000
0000
0100
0000
0000
0010
0000
1000
0000
0000
0000
1001
0000
0000
0000
,
0100
0000
1000
0000
0010
0010
0010
0001
,
0100
0010
1000
1001
,
0010
0000
0001
0000
0100
0100
0100
0010
,
1000
0000
0100
0000
0001
1000
0001
1000
,
0020
0100
0031
0100
,
0010
1000
0010
0000
0100
0001
0100
0000
,
0020
0000
1000
0000
0031
0000
0001
0100
,
0010
1000
0100
0000
1000
0010
0100
0000
,
0002
0000
1000
0000
0100
0000
0013
0001
,
0100
1000
0010
0000
1000
0010
0100
0001
,
0020
0000
0000
0000
0130
0000
1000
0010
,
0100
0000
0000
0001
0000
0000
0010
0000
0100
0000
0000
1000
0000
0000
0010
0000
,
2002
0000
0000
0000
,
3003
0000
0000
0000
;

//---------------dance-single - ----------------
#NOTES:
     dance-single:
     :
     Easy:
     5:
     0.229299,0.263336,0.100319,0.284236,0.000000,192.000000,180.000000,12.000000,34.000000,0.000000,0.000000,0.229299,0.263336,0.100319,0.284236,0.000000,192.000000,180.000000,12.000000,34.000000,0.000000,0.000000:
0000
0000
0000
0000
,
0000
0000
0000
0000
,
0000
0000
0000
0000
,
0000
0000
0000
0000
,
0000
0000
0000
0000
,
0000
0000
0000
0000
,
0001
0000
1000
0000
,
1000
0000
0001
0000
,
0100
0000
0100
0000
,
0010
0000
0010
0000
,
1000
1000
1000
0100
,
0001
0001
0001
0100
,
1000
1000
1000
0010
,
0001
0001
2002
3003
,
0200
0000
1300
0020
,
0000
0100
0200
0330
,
0000
0000
0011
0200
,
0000
0010
0020
0330
,
0001
0010
0100
2200
,
0000
0000
3300
0000
,
1000
0100
0010
0022
,
0000
0000
0033
0001
,
1001
0100
1000
0010
,
0001
0100
0010
1000
,
0100
1000
0010
1000
,
0100
0010
0001
0010
,
0100
0010
0001
0100
,
0001
0010
1001
0100
,
0001
0010
0100
1000
,
0020
0100
0200
0330
,
2000
0000
0100
0000
,
0010
0000
0001
0000
,
3002
0000
0010
0000
,
0100
0000
1000
0000
,
1003
0100
1000
0000
,
0001
0100
0001
0000
,
1000
0010
1000
0001
,
0010
0001
2002
3003
,
0100
1000
0010
0100
,
0001
0002
1000
1003
,
0100
1000
0010
0001
,
1000
2000
0001
3001
,
0010
0100
1000
0010
,
0100
0200
0010
0310
,
0001
0100
0010
1000
,
0002
1003
2000
3001
,
0100
1000
0010
0001
,
0020
0100
0001
0130
,
1000
1000
0001
0001
,
0100
0010
0220
0330
,
1000
0100
0010
0001
,
0010
0010
0100
0100
,
0001
0010
0100
1000
,
0100
0100
0220
0330
,
1000
0000
0100
0020
,
0000
0100
0130
0000
,
0001
0010
0100
2000
,
0000
0001
0002
3003
,
0100
1000
0010
0001
,
0200
0010
0020
0330
,
0001
0000
1001
1000
,
1000
0000
1001
0001
,
2002
0000
0000
0000
,
3003
0000
0000
0000
;

//---------------dance-single - ----------------
#NOTES:
     dance-single:
     :
     Beginner:
     1:
     0.083599,0.155494,0.058519,0.066879,0.000000,70.000000,63.000000,7.000000,8.000000,0.000000,0.000000,0.083599,0.155494,0.058519,0.066879,0.000000,70.000000,63.000000,7.000000,8.000000,0.000000,0.000000:
// measure 0
0000
0000
0000
0000
,  // measure 1
0000
0000
0000
0000
,  // measure 2
0000
0000
0000
0000
,  // measure 3
0000
0000
0000
0000
,  // measure 4
0000
0000
0000
0000
,  // measure 5
0000
0000
0000
0000
,  // measure 6
0100
0000
0000
0000
,  // measure 7
0100
0000
0000
0000
,  // measure 8
0010
0000
0000
0000
,  // measure 9
0010
0000
0000
0000
,  // measure 10
2002
0000
0000
0000
,  // measure 11
0000
0000
0000
0000
,  // measure 12
3003
0000
0000
0000
,  // measure 13
0000
0000
0000
0000
,  // measure 14
1000
0000
1000
0000
,  // measure 15
0100
0000
0000
0000
,  // measure 16
0001
0000
0001
0000
,  // measure 17
0100
0000
0000
0000
,  // measure 18
1000
0000
1000
0000
,  // measure 19
0010
0000
0000
0000
,  // measure 20
0001
0000
0001
0000
,  // measure 21
0010
0000
0000
0000
,  // measure 22
1000
0000
0000
0000
,  // measure 23
0100
0000
0000
0000
,  // measure 24
0010
0000
0000
0000
,  // measure 25
0001
0000
0000
0000
,  // measure 26
1000
0000
0000
0000
,  // measure 27
0010
0000
0000
0000
,  // measure 28
0100
0000
0000
0000
,  // measure 29
0001
0000
0000
0000
,  // measure 30
1002
0000
0000
0000
,  // measure 31
0003
0000
0000
0000
,  // measure 32
2001
0000
0000
0000
,  // measure 33
3000
0000
0000
0000
,  // measure 34
0120
0000
0000
0000
,  // measure 35
0030
0000
0000
0000
,  // measure 36
0210
0000
0000
0000
,  // measure 37
0300
0000
0000
0000
,  // measure 38
1000
0000
0000
0000
,  // measure 39
0100
0000
0000
0000
,  // measure 40
1000
0000
0000
0000
,  // measure 41
0010
0000
0000
0000
,  // measure 42
0001
0000
0000
0000
,  // measure 43
0010
0000
0000
0000
,  // measure 44
0001
0000
0000
0000
,  // measure 45
0100
0000
0000
0000
,  // measure 46
0010
0000
0010
0000
,  // measure 47
0100
0000
0100
0000
,  // measure 48
2002
0000
0000
0000
,  // measure 49
3003
0000
0000
0000
,  // measure 50
1000
0000
1000
0000
,  // measure 51
0001
0000
0001
0000
,  // measure 52
1000
0000
1000
0000
,  // measure 53
0001
0000
0001
0000
,  // measure 54
1000
0000
1000
0000
,  // measure 55
0010
0000
0000
0000
,  // measure 56
0001
0000
0001
0000
,  // measure 57
0010
0000
0000
0000
,  // measure 58
1000
0000
1000
0000
,  // measure 59
0100
0000
0000
0000
,  // measure 60
0001
0000
0001
0000
,  // measure 61
0100
0000
0000
0000
,  // measure 62
0110
0000
0000
0000
;
