#TITLE:glacia;
#SUBTITLE:;
#ARTIST:DJ TOTTO;
#TITLETRANSLIT:;
#SUBTITLETRANSLIT:;
#ARTISTTRANSLIT:;
#GENRE:jubeat;
#CREDIT:;
#BANNER:;
#BACKGROUND:;
#LYRICSPATH:;
#CDTITLE:;
#MUSIC:glacia.ogg;
#OFFSET:-0.680000;
#SAMPLESTART:25.172001;
#SAMPLELENGTH:15.000000;
#SELECTABLE:YES;
#BPMS:0.000000=186.000000
;
#STOPS:
;
#BGCHANGES:;
#KEYSOUNDS:;
#ATTACKS:;

//---------------dance-single - ----------------
#NOTES:
     dance-single:
     :
     Beginner:
     5:
     0.188363,0.255362,0.033593,0.041992,0.000000,148.000000,4.000000,5.000000,0.000000,0.000000,0.000000,0.188363,0.255362,0.033593,0.041992,0.000000,148.000000,4.000000,5.000000,0.000000,0.000000,0.000000:
0000
0000
0000
0000
,
0000
0000
0000
0000
,
0000
0000
0000
0000
,
0000
0000
0000
0000
,
0000
0000
0000
0000
,
1000
0000
0100
0000
,
0010
0000
0001
0000
,
1000
0000
0010
0000
,
0200
0000
0000
0300
,
0001
0000
0010
0000
,
0100
0000
1000
0000
,
0001
0000
0100
0000
,
0020
0000
0000
0030
,
1000
0000
0100
0000
,
0010
0000
0001
0000
,
1000
0000
0001
0000
,
0010
0000
0100
0000
,
1000
0000
0000
0000
,
0000
0000
0000
0000
,
1001
0000
1000
0000
,
0010
0000
0001
0000
,
0100
0000
0010
0000
,
1000
0000
0001
0000
,
1000
1000
1000
1000
,
1000
0000
0100
0000
,
0010
0000
1000
0000
,
0010
0001
0010
0000
,
0010
0000
1000
0000
,
0001
0000
0100
0000
,
0010
0000
1000
0000
,
0100
0000
0010
0000
,
0001
0001
0001
0001
,
0001
0000
0100
0000
,
0010
0000
1000
0000
,
0100
1000
0100
0000
,
1001
0000
0000
0000
,
1000
0000
0000
0000
,
0100
0000
0000
0000
,
0010
0000
0000
0000
,
0001
0000
0000
0000
,
0010
0000
0000
0000
,
0100
0000
0000
0000
,
1000
0000
0000
0000
,
1000
0000
0010
0000
,
0100
0000
0001
0000
,
0010
0000
0000
0000
,
1000
0000
0000
0000
,
0001
0000
0100
0000
,
0010
0000
1000
0000
,
0200
0000
0000
0000
,
0300
0000
0000
0000
,
0001
0000
1000
0000
,
0100
0000
0000
0000
,
1000
0000
0001
0000
,
0100
0000
0000
0000
,
0001
0000
1000
0000
,
0010
0000
0000
0000
,
1000
0000
0001
0000
,
0010
0000
0000
0000
,
1000
0000
0100
0000
,
0010
0000
0001
0000
,
0100
0000
0010
0000
,
1000
0000
0000
0000
,
0001
0000
0100
0000
,
0010
0000
1000
0000
,
0010
0000
0100
0000
,
0001
0000
0000
0000
,
1000
0000
0100
0000
,
1000
0000
0000
0000
,
0001
0000
0100
0000
,
0010
0000
1000
0100
,
0000
0001
0000
0000
,
0010
0000
1000
0000
,
0001
0010
0100
1000
,
0001
0000
0100
0000
,
1000
0000
0010
0000
,
1000
0100
0001
0000
,
1001
0000
0010
0000
,
1000
0000
0001
0000
,
0100
0000
0010
0000
,
1000
0000
0001
0000
,
1000
0100
0010
0001
,
1000
0000
0010
0000
,
0100
0000
0001
0000
,
1000
0001
0100
0000
,
0220
0000
0000
0000
,
0000
0000
0000
0000
0000
0000
0000
0330
;

//---------------dance-single - ----------------
#NOTES:
     dance-single:
     :
     Easy:
     7:
     0.373127,0.364803,0.159569,0.092382,0.000000,281.000000,19.000000,11.000000,0.000000,0.000000,0.000000,0.373127,0.364803,0.159569,0.092382,0.000000,281.000000,19.000000,11.000000,0.000000,0.000000,0.000000:
0000
0000
0000
0000
,
0000
0000
0000
0000
,
0000
0000
0000
0000
,
0000
0000
0000
0000
,
0000
0000
0000
0000
,
1000
0000
0010
0000
0100
0000
0001
0010
,
0000
0100
0000
1000
0000
0000
0000
0000
,
0001
0000
0100
0000
0010
0000
1000
0100
,
0000
0010
0000
0001
0000
0000
0000
0000
,
1000
0100
1000
0100
,
0001
0100
0001
0100
,
1000
0010
1000
0010
,
0001
0010
0001
0010
,
1000
0010
0100
0001
,
0010
0100
1000
0001
,
0010
1000
0100
0010
,
0001
0010
1000
0000
0010
1000
0001
0000
,
0200
0000
0000
0000
,
0310
0000
1001
0000
,
0001
0000
0100
0000
0010
0000
1000
0100
,
0000
0001
0000
0100
0000
0010
0000
0000
,
1000
0000
0100
0000
0001
0000
0010
0001
,
0000
0100
0000
0010
0000
1000
0000
0000
,
0100
0000
0000
0001
0000
0000
1000
0000
,
0000
0010
0000
0000
0100
0000
0001
0000
,
1000
0000
0001
0000
0010
0000
0001
0100
,
0000
1000
0000
0010
0000
0000
0000
0000
,
1000
0001
0100
0001
,
1000
0000
0100
0000
0001
1000
0100
0000
,
0001
0010
1000
0100
,
0001
0000
1000
0000
1000
0001
0010
0000
,
0100
0001
0010
0100
,
1000
0000
0001
0000
0100
0001
0100
0000
,
1000
0001
0100
0010
,
1000
0010
1000
0000
0100
0000
0001
0000
,
0102
0000
0000
0000
,
0103
0000
2000
0000
,
3020
0000
0000
0000
,
0130
0000
0001
0000
,
2000
0000
0000
0000
,
3010
0000
0100
0000
,
0002
0000
0000
0000
,
0103
0010
1000
0100
,
1100
0000
0101
0000
,
0011
0000
1010
0000
,
1002
0000
0000
0000
,
0103
0000
0010
1000
,
2100
0000
0100
0000
,
3100
0010
0100
0001
,
0012
0000
0000
0000
,
0013
0000
1000
0000
,
1001
0001
1000
0000
,
1001
1000
0001
0000
,
0110
0010
0100
0000
,
0110
0100
0010
0000
,
1000
0100
0010
0001
,
1000
0010
0100
0001
,
0100
0000
0001
0000
0010
0000
0000
1100
,
0000
0110
0000
0011
0000
1001
0000
0000
,
1000
0010
0100
0001
,
0010
1000
0100
0010
,
0001
0100
0010
1000
,
0100
0000
1000
0000
0001
0010
1000
0000
,
1001
0010
1000
0100
,
0010
0100
0001
0010
,
1000
0000
0100
0000
0010
1000
0001
0000
,
0010
0000
0100
0000
0001
1000
0010
0000
,
0200
0000
0000
0000
,
0310
0001
0010
0000
,
1000
0000
0010
0000
0100
0000
0001
0010
,
0000
1000
0000
0010
0000
0100
0000
0000
,
0001
0000
0010
0000
1000
0000
0100
1000
,
0000
0010
0000
0100
0000
0001
0000
0000
,
0010
0000
0000
1000
0000
0000
0001
0000
,
0000
0100
0000
0000
0010
0000
1000
0000
,
0001
0000
1000
0000
0100
0000
1000
0010
,
0000
0001
0000
0100
0000
0000
0000
0000
,
0001
1000
0010
1000
,
0001
0000
0010
0000
1000
0001
0010
0000
,
1000
0100
0001
0010
,
1000
0000
0001
0000
0001
1000
0100
0000
,
0010
1000
0100
0010
,
0001
0000
1000
0000
0010
1000
0010
0000
,
0001
1000
0010
0100
,
0001
0100
0001
0000
0010
0000
1000
0000
,
0002
0000
0000
0000
,
0103
0000
0000
0000
0000
0000
0000
1100
;

//---------------dance-single - ----------------
#NOTES:
     dance-single:
     :
     Medium:
     11:
     0.505101,0.474244,0.167967,0.184764,0.000000,379.000000,20.000000,22.000000,0.000000,0.000000,0.000000,0.505101,0.474244,0.167967,0.184764,0.000000,379.000000,20.000000,22.000000,0.000000,0.000000,0.000000:
0000
0000
0000
0000
,
0000
0000
0000
0000
,
0000
0000
0000
0000
,
0000
0000
0000
0000
,
0000
0000
0000
0000
,
0001
1000
0010
0100
0000
0001
0000
0100
,
0000
0010
0000
1000
0100
0000
0010
0000
,
1000
0001
0010
1000
0000
0100
0000
0010
,
0000
1000
0000
0001
0010
0000
1000
0000
,
1001
0000
1000
0010
0000
0100
0000
0001
,
0000
0010
0000
1000
0001
0010
1000
0000
,
0010
0000
1000
0001
0000
0010
0000
0100
,
0000
1000
0000
0001
1000
0100
0010
0000
,
0001
0100
1000
0010
0000
1000
0000
0100
,
0000
0010
0000
0001
1000
0010
0100
0000
,
0001
0010
0100
1000
0000
1000
0000
0100
,
0000
0010
0000
0100
0001
0010
1000
0000
,
0200
0000
0000
0000
,
0310
0000
0001
1000
0000
1000
0010
0000
,
1000
0001
0100
0001
0000
0010
0000
0011
,
0000
0010
0000
1010
0000
1000
0100
0001
,
0000
1000
0100
0001
0000
0100
0000
1100
,
0000
1000
0000
1001
0000
0100
0001
0010
,
0000
1000
0100
0000
0100
0010
0000
0010
,
0001
0000
0001
0010
0000
0100
0010
1000
,
0100
0000
1001
0000
0100
0001
0010
0100
,
0000
1000
0000
1010
0000
0000
0000
0000
,
1000
0100
0001
0010
0000
0100
0000
0001
,
0000
1000
0000
1000
0100
0001
0010
0000
,
0100
0010
1000
0100
0000
0001
0000
0100
,
0000
0001
0000
1000
0001
0100
0010
0000
,
1000
0100
0000
0100
0010
0000
0010
0001
,
0000
0001
0010
0100
0010
1000
0100
0000
,
1000
1010
0010
0011
,
1000
0100
0010
0001
0100
0010
1000
0100
,
0020
0000
0230
0000
,
0320
0000
2030
0000
,
3002
0000
0000
0000
,
0103
0010
1000
0001
,
0200
0000
0320
0000
,
0032
0000
2003
0000
,
3002
0000
0000
0000
0000
0000
0000
0203
,
0000
0310
1000
0002
0000
0000
0003
0000
,
0010
1000
0100
0001
0000
0001
0100
1000
,
0020
0000
0000
0000
0230
0000
0000
0301
,
0010
0100
1000
0000
1000
0100
0010
0002
,
0000
0000
0023
0000
,
1030
0100
0010
0001
0000
0001
0010
0100
,
2000
0000
0000
0000
3200
0000
0000
0310
,
0001
0010
0100
0000
0100
1000
0100
0020
,
0000
0000
0000
0130
,
0001
0010
1000
0010
0000
0001
0000
0010
,
0000
1000
0000
0010
0000
0100
0000
0000
,
0001
1000
0100
0010
0000
0001
0000
1000
,
0000
0010
0000
1000
0000
0100
0000
0000
,
0010
1000
0001
0010
0000
0100
0000
1000
,
0000
0010
0000
0100
0000
0001
0000
0000
,
0001
0010
1000
0100
0000
0010
0000
1000
,
0000
1100
0000
0100
0000
0101
0000
0000
,
0001
0010
1000
0010
0000
1000
0000
0100
,
0000
0010
0000
1000
0000
0001
0000
0000
,
0001
0100
0010
1000
0000
0100
0000
0001
,
0000
0010
0000
1000
0000
0010
0000
0000
,
0001
0010
1000
0100
0000
0010
0100
0001
,
0000
0010
0000
1000
0000
0010
0000
0000
,
0001
0010
1000
0000
0010
1000
0100
0000
,
0010
0100
0001
0010
0100
0000
1100
0000
,
0200
0000
0000
0000
,
0300
0000
0000
0000
,
0001
1000
0010
1000
0000
0100
0000
1100
,
0000
0100
0000
0101
0000
0001
0010
1000
,
0000
0001
0010
1000
0000
0010
0000
0011
,
0000
0001
0000
1001
0000
0010
1000
0100
,
0000
0001
0010
0000
0010
0100
0000
0100
,
1000
0000
1000
0100
0000
0010
0100
0001
,
0010
0000
1001
0000
0010
1000
0100
0010
,
0000
0001
0000
0101
0000
0000
0000
0000
,
0001
0010
1000
0100
0000
0010
0000
1000
,
0000
0001
0000
0001
0010
1000
0100
0000
,
0010
0100
0001
0010
0000
1000
0000
0010
,
0000
1000
0000
0001
1000
0010
0100
0000
,
0001
0010
0000
0010
0100
0000
0100
1000
,
0000
1000
0100
0010
0100
0001
0010
0000
,
0001
0101
0100
1100
,
0001
0010
0100
1000
0010
0100
0001
0010
,
0200
0000
0000
0000
0000
0000
0000
0300
,
0010
1000
0001
0010
0000
0010
0100
0001
;

//---------------dance-single - ----------------
#NOTES:
     dance-single:
     :
     Hard:
     15:
     0.766649,0.776008,0.335934,0.184764,0.230955,577.000000,40.000000,22.000000,0.000000,0.000000,0.000000,0.766649,0.776008,0.335934,0.184764,0.230955,577.000000,40.000000,22.000000,0.000000,0.000000,0.000000:
// measure 0
0000
0000
0000
0000
,  // measure 1
0000
0000
0000
0000
,  // measure 2
0000
0000
0000
0000
,  // measure 3
0000
0000
0000
0000
,  // measure 4
0000
0000
0000
0000
,  // measure 5
1000
0010
0100
0001
0010
0100
1000
0010
,  // measure 6
0000
1100
0000
0101
0001
0010
0100
1000
,  // measure 7
0001
0100
0010
1000
0100
0010
0001
0100
,  // measure 8
0000
0011
0000
1010
1000
0100
0010
0001
,  // measure 9
0100
1000
0010
0100
0001
0010
0100
1000
,  // measure 10
0000
0000
1100
0000
0000
0000
1000
0010
1000
0000
0100
0000
0001
0000
0010
0000
,  // measure 11
0100
1000
0010
0100
0001
0010
1000
0010
,  // measure 12
0000
0000
0011
0000
0000
0000
0001
0010
0001
0000
0010
0000
0100
0000
0010
0000
,  // measure 13
1000
0010
0100
0001
0010
0100
1000
0010
,  // measure 14
0000
0000
1001
0000
0000
0000
0010
0001
1000
0000
0010
0000
1000
0000
0001
0000
,  // measure 15
0010
1000
0100
0010
0100
0001
1000
0100
,  // measure 16
0000
0000
1001
0000
0000
0000
0010
1000
0001
0000
0010
0000
0100
0000
1000
0000
,  // measure 17
0200
0000
0010
0000
0010
0000
0010
0310
,  // measure 18
0001
0010
0100
1000
0010
1000
1100
0000
,  // measure 19
0001
0010
0100
0010
0000
1001
0000
0110
,  // measure 20
0000
0000
1001
0000
0000
0000
0100
0010
0100
0000
0001
0000
0010
0000
1000
0000
,  // measure 21
0100
0010
1000
0001
0000
0101
0000
1001
,  // measure 22
0000
0000
1100
0000
0000
0000
0001
1000
0001
0000
0100
0000
0001
0000
0010
0000
,  // measure 23
0100
0000
1000
0100
1000
0000
0100
0000
0001
0100
0001
0000
0100
0000
1000
0100
,  // measure 24
1000
0100
0010
0100
0001
0010
0100
1000
,  // measure 25
0010
0000
1000
0010
0100
0001
0010
0000
1000
0000
0001
0000
0000
0000
0100
0000
,  // measure 26
0000
0010
1000
0010
0100
0001
0010
1000
,  // measure 27
0001
0100
0010
1000
0000
1100
0000
0101
,  // measure 28
0000
0000
0010
0000
0000
0000
0010
1000
0100
0000
0001
0000
0010
0000
0100
0000
,  // measure 29
1000
0010
0100
0001
0000
1100
0000
0101
,  // measure 30
0000
0000
0010
0000
0000
0000
0001
0100
0010
0000
0100
0000
0001
0000
0010
0000
,  // measure 31
0100
0000
1000
0010
1000
0010
1000
0000
0001
0010
0001
0010
0001
0000
1000
0001
,  // measure 32
1000
0001
1000
0000
0010
0000
0100
0000
1000
0000
0010
0000
0100
0000
0001
0000
,  // measure 33
0010
0000
1000
0100
0010
0001
1000
0000
0001
0010
0100
1000
0001
0000
0010
0000
,  // measure 34
0100
0010
1000
0001
0100
0010
1000
0000
,  // measure 35
0200
0000
2300
0000
,  // measure 36
3020
0000
2030
0000
,  // measure 37
3002
0000
0100
0000
,  // measure 38
0203
0000
0000
0000
0320
0000
1030
0001
,  // measure 39
0020
0000
0230
0000
,  // measure 40
2300
0000
3020
0000
,  // measure 41
0032
0000
0000
0000
0103
0000
0000
1001
,  // measure 42
0000
0001
0010
0100
1000
0010
0100
0010
,  // measure 43
0001
0010
1000
0100
0000
0010
1000
0001
,  // measure 44
0201
0000
0000
0000
0320
0000
0000
1030
,  // measure 45
0100
0001
0010
0000
1000
0010
0100
0012
,  // measure 46
0000
0000
0203
0000
,  // measure 47
0310
0100
0001
1000
0000
1000
0010
0100
,  // measure 48
1002
0000
0000
0000
0203
0000
0000
1300
,  // measure 49
0010
0100
0001
0000
0100
0010
0100
1002
,  // measure 50
0000
0000
0000
0103
,  // measure 51
0010
1000
0010
0100
0001
0010
0100
1000
,  // measure 52
0000
0010
1000
0010
0100
0001
0010
0100
,  // measure 53
1000
0010
0100
0001
1000
0010
0100
0001
,  // measure 54
0000
0001
0010
0100
1000
0010
1000
0100
,  // measure 55
0010
0001
0010
0100
0010
1000
0001
0010
,  // measure 56
0000
0010
1000
0001
0010
0100
0001
0010
,  // measure 57
0100
1000
0010
1000
0001
0010
1000
0001
,  // measure 58
0000
0000
1001
0000
0000
0000
0110
0000
1000
0000
0001
0100
0010
0000
0100
0000
,  // measure 59
1000
0000
0010
1000
0001
0010
0100
0000
1000
0000
0001
0000
0010
0000
0100
0000
,  // measure 60
1000
0010
1000
0100
0010
0001
0010
0100
,  // measure 61
1000
0000
0010
1000
0010
0100
0001
0000
0010
0000
0100
0000
1000
0000
0010
0000
,  // measure 62
0100
0001
0010
0100
0010
1000
0001
0000
,  // measure 63
0001
0000
0100
0010
0100
1000
0001
0000
0010
0000
1000
0000
0001
0000
0010
0000
,  // measure 64
1000
0100
0010
0100
0001
0010
1000
0100
,  // measure 65
0010
0000
1000
0100
0010
0001
0010
0000
0100
0000
0010
0000
1000
0000
0001
0000
,  // measure 66
0010
1000
0010
0100
0001
0010
0100
1000
,  // measure 67
0100
0010
0100
0010
0000
1100
0000
0101
,  // measure 68
0000
0000
0010
0000
0010
0000
0100
0000
0000
0000
0001
1000
0001
0000
0100
0000
,  // measure 69
1000
0100
0010
0100
0000
1001
0000
0110
,  // measure 70
0000
0000
1001
0000
0000
0000
0010
0100
0010
0000
1000
0000
0100
0000
0001
0000
,  // measure 71
0010
0100
0001
1000
0000
1010
0000
1001
,  // measure 72
0000
0000
0011
0000
0000
0000
1000
0001
1000
0000
0010
0000
1000
0000
0100
0000
,  // measure 73
0010
0000
0001
0010
0001
0000
0010
0000
1000
0010
1000
0000
0010
0000
0001
0010
,  // measure 74
0001
0010
0100
0010
1000
0100
0010
0001
,  // measure 75
0100
0000
0001
0100
0010
1000
0100
0000
0001
0000
1000
0000
0000
0000
0010
0000
,  // measure 76
0000
0100
0001
0100
0010
1000
0100
0001
,  // measure 77
1000
0010
0100
0001
0000
0011
0000
1010
,  // measure 78
0000
0000
0100
0000
0000
0000
0100
0001
0010
0000
1000
0000
0100
0000
0010
0000
,  // measure 79
0001
0100
0010
1000
0000
0011
0000
1010
,  // measure 80
0000
0000
0100
0000
0000
0000
1000
0010
0100
0000
0010
0000
1000
0000
0100
0000
,  // measure 81
0010
0000
0001
0100
0001
0100
0001
0000
1000
0100
1000
0100
1000
0000
0001
1000
,  // measure 82
0001
1000
0001
0000
0100
0000
0010
0000
0001
0000
0100
0000
0010
0000
1000
0000
,  // measure 83
0100
0000
0001
0010
0100
1000
0001
0000
1000
0100
0010
0001
1000
0000
0100
0000
,  // measure 84
0010
0100
0001
1000
0010
0100
0001
1000
,  // measure 85
0010
0000
0100
0000
0010
0000
1000
0000
0000
0000
0010
1000
0001
1000
0010
0000
,  // measure 86
0000
0000
1001
0000
0000
0000
0100
0010
1000
0000
0001
0000
1000
0000
0220
0000
,  // measure 87
0000
0000
0000
0000
,  // measure 88
0330
0000
0000
0000
;
