#TITLE:ƒƒƒƒƒ;
#SUBTITLE:;
#ARTIST:Five Hammer;
#TITLETRANSLIT:fffff;
#SUBTITLETRANSLIT:;
#ARTISTTRANSLIT:;
#GENRE:pop'n music;
#CREDIT:;
#BANNER:;
#BACKGROUND:;
#LYRICSPATH:;
#CDTITLE:;
#MUSIC:fffff.ogg;
#OFFSET:1.415000;
#SAMPLESTART:34.196011;
#SAMPLELENGTH:15.000000;
#LASTBEATHINT:0.834217;
#SELECTABLE:YES;
#BPMS:0.000000=138.399994
,20.000000=138.000000
;
#STOPS:
;
#BGCHANGES:;
#KEYSOUNDS:;
#ATTACKS:;

//---------------dance-single - ----------------
#NOTES:
     dance-single:
     :
     Hard:
     15:
     0.836956,0.869022,0.511632,0.150480,0.591888,518.000000,51.000000,15.000000,0.000000,0.000000,0.000000,0.836956,0.869022,0.511632,0.150480,0.591888,518.000000,51.000000,15.000000,0.000000,0.000000,0.000000:
// measure 0
0000
0000
0000
0000
,  // measure 1
0000
0000
0000
0000
,  // measure 2
0000
0000
0000
0000
,  // measure 3
1000
0100
1000
0000
0001
0000
1000
0000
0001
0100
0001
0000
0100
0000
0010
0000
,  // measure 4
1000
0010
1000
0000
0001
0000
1000
0000
0001
0010
0001
0000
0100
0000
0010
0000
,  // measure 5
1000
0000
0010
0000
0100
0000
0001
0000
1000
0000
0010
0000
0100
0001
1000
0001
,  // measure 6
1000
0000
0010
0000
0100
0000
0001
0000
0010
0000
1000
0000
0010
0100
0010
0100
,  // measure 7
0001
0000
0010
0000
1000
0000
0100
0000
0010
0000
0001
0000
0010
0100
0010
0100
,  // measure 8
1000
0010
0100
0001
0010
0100
1000
0010
,  // measure 9
1000
0001
1000
0000
0010
0000
0100
0000
0001
1000
0001
0000
0010
0000
1000
0000
,  // measure 10
0100
0010
0100
0000
0001
0000
0010
0000
1000
0010
0100
0000
0001
0000
0010
0000
,  // measure 11
0100
0001
0010
0000
1000
0000
0001
0000
1000
0001
0010
0000
0100
0000
0010
0000
,  // measure 12
1000
0001
0100
0000
0010
0000
1000
0000
0001
0100
1000
0000
0010
0000
0100
0000
,  // measure 13
1000
0100
1100
0001
0100
0001
0101
0010
,  // measure 14
1000
0001
1001
0010
1000
0001
0011
0001
,  // measure 15
0100
1000
1100
1000
0010
0001
1001
0001
,  // measure 16
0100
0000
0010
0000
0100
0010
0100
0000
1000
0000
0001
0000
1000
0001
1000
0000
,  // measure 17
0001
0010
0011
1000
0010
1000
1010
0100
,  // measure 18
0001
1000
1001
0100
0001
1000
1100
1000
,  // measure 19
0010
0001
0011
0001
0100
1000
1001
1000
,  // measure 20
0010
0000
0100
0000
0010
0100
0010
0000
0101
0000
0000
1100
0000
0000
0110
0000
,  // measure 21
1001
0000
1000
0000
0010
0000
1000
0000
0001
1000
0001
2000
0000
0000
3010
0000
,  // measure 22
1000
0000
0100
0000
0001
0000
0010
0000
0100
0010
0100
0020
0000
0000
0031
0000
,  // measure 23
0010
0000
1000
0000
0100
0000
0010
0000
0101
0000
0000
0101
0000
0000
1100
0000
,  // measure 24
0001
1000
0001
1000
0001
1000
0001
1000
0001
0000
0010
0000
1000
0000
0100
0000
,  // measure 25
1001
0000
0001
0000
0100
0000
0001
0000
1000
0001
1000
0002
0000
0000
0103
0000
,  // measure 26
0001
0000
0010
0000
1000
0000
0100
0000
0010
0100
0010
0200
0000
0000
1300
0000
,  // measure 27
0100
0000
0001
0000
0010
0000
0100
0000
1010
0000
0000
1010
0000
0000
0011
0000
,  // measure 28
1000
0001
1000
0001
1000
0001
1000
0001
1000
0000
0100
0000
0001
0000
0010
0000
,  // measure 29
1000
0000
0100
0000
1000
0000
0100
0000
0010
0100
0010
0200
0000
0000
0301
0000
,  // measure 30
1000
1001
0001
1001
1000
1001
0001
1001
,  // measure 31
0001
0000
0010
0000
0001
0000
0010
0000
0100
0010
0100
0020
0000
0000
1030
0000
,  // measure 32
0001
1001
1000
1001
0001
1001
1000
1001
,  // measure 33
1000
0000
0001
0000
1000
0000
0001
0000
0010
0001
0010
0002
0000
0000
0103
0000
,  // measure 34
1000
1100
0100
1100
1000
1100
0100
1100
,  // measure 35
0001
0000
1000
0000
0001
0000
1000
0000
0100
1000
0100
2000
0000
0000
3010
0000
,  // measure 36
0001
0011
0010
0011
0001
0011
0010
0011
,  // measure 37
1000
0000
0100
0000
0010
0000
1000
0000
0001
1000
0010
0100
0000
0001
1000
0000
,  // measure 38
0010
0000
0100
0000
0001
0000
1000
0000
0010
1000
0001
0100
0000
0010
1000
0000
,  // measure 39
0001
0000
0100
0000
0010
0000
1000
0000
0001
0100
0010
1000
0000
1000
0010
0000
,  // measure 40
0100
0001
0010
0000
0100
0000
1000
0000
0010
0100
0001
0010
0100
1000
0100
0000
,  // measure 41
1000
0010
0100
0010
1000
0010
0100
0010
1000
0000
1001
0000
2002
0000
3003
0000
,  // measure 42
0100
1000
0001
1000
0100
1000
0001
1000
0100
0000
0110
0000
0220
0000
0330
0000
,  // measure 43
0001
0100
0010
0100
0001
0100
0010
0100
0001
0000
1001
0000
1001
0000
1010
0000
,  // measure 44
0021
0000
1000
0000
0001
0030
1001
0000
,  // measure 45
0010
1000
0000
1000
0010
0000
0010
0001
0000
0001
0010
0000
1000
0000
0010
0000
,  // measure 46
1000
0100
0000
0100
1000
0000
1000
0010
0000
0010
1000
0000
0100
0000
1000
0000
,  // measure 47
0001
0010
0000
0010
0001
0000
0001
0100
0000
0100
0001
0000
0010
0000
0001
0000
,  // measure 48
0100
0001
0000
0001
0100
0000
0100
1000
0000
1000
0100
0000
0001
0000
0100
0000
,  // measure 49
1000
0100
0010
0001
0100
0010
0100
1000
,  // measure 50
0100
0010
0100
0001
0010
0100
1100
0000
,  // measure 51
1000
0010
0100
0001
0010
1000
0100
0010
,  // measure 52
1000
0100
0010
0100
0001
0010
0011
0000
,  // measure 53
1000
0100
0010
0100
1000
0100
0010
0100
1000
0100
0010
0100
1000
0100
0010
0000
,  // measure 54
0001
0010
0100
0010
0001
0010
0100
0010
0001
0010
0100
0010
0001
0010
0100
0000
,  // measure 55
1000
0100
0001
0100
1000
0100
0001
0100
1000
0100
0001
0100
1000
0100
0001
0000
,  // measure 56
0001
0010
1000
0010
0001
0010
1000
0010
0001
0010
1000
0010
0001
0010
1000
0010
,  // measure 57
0000
0000
0000
2002
0000
0000
3003
0000
;

//---------------dance-single - ----------------
#NOTES:
     dance-single:
     :
     Medium:
     13:
     0.607653,0.550381,0.321024,0.020064,0.160512,390.000000,32.000000,2.000000,0.000000,0.000000,0.000000,0.607653,0.550381,0.321024,0.020064,0.160512,390.000000,32.000000,2.000000,0.000000,0.000000,0.000000:
0000
0000
0000
0000
,
0000
0000
0000
0000
,
0000
0000
0000
0000
,
1000
0100
1000
0000
0010
0000
0100
0000
0001
0100
0001
0000
0100
0000
0010
0000
,
1000
0001
0100
0010
1000
0001
1001
0000
,
1000
0100
0010
0100
0001
0010
0100
0010
,
1000
0100
0001
0100
0010
1000
0010
0100
,
0001
1000
0010
1000
0010
0100
0001
0010
,
0100
1000
0010
0100
0001
1000
1001
0000
,
0010
1000
0100
0010
0100
0001
0010
0100
,
0010
1000
0100
0010
0001
0100
0010
1000
,
0010
1000
0100
0001
0010
0100
1000
0010
,
0100
0001
0010
1000
0010
0100
1001
0000
,
0010
1000
1100
0000
1000
0010
0110
0000
,
0001
0010
0011
0000
1000
0001
1001
0000
,
0010
1000
1100
0000
1000
0010
0011
0000
,
0001
0100
0010
1000
0001
0100
1001
0000
,
1000
0010
1010
0000
0001
0100
0101
0000
,
0001
1000
1001
0000
0010
0100
0110
0000
,
1000
0100
0010
0001
0010
1000
0010
0100
,
0010
0000
0001
0000
0100
0000
0100
0000
0100
0000
0000
1000
0000
0000
1000
0000
,
0010
0000
0010
0000
0010
0000
1000
0000
0001
0000
0000
0010
0000
0000
1000
0000
,
0001
0000
0001
0000
0001
0000
1000
0000
0010
0000
0000
0100
0000
0000
0001
0000
,
1000
0000
0010
0000
1000
0000
0100
0000
0001
0000
0000
1100
0000
0000
0101
0000
,
0001
0000
1000
0000
0010
0000
1000
0000
0001
1000
0001
1000
0001
0000
0000
0000
,
0010
0000
1000
0000
0100
0000
0001
0000
0100
0000
0000
1100
0000
0000
1000
0000
,
0010
0000
1000
0000
0001
0000
0100
0000
0010
0000
0000
0011
0000
0000
0000
0000
,
0001
0000
0100
0000
0010
0000
1000
0000
0001
0000
0000
1001
0000
0000
0010
0000
,
0100
0010
0100
0010
0100
0000
0001
0000
0010
0000
1000
0000
0100
0000
0000
0000
,
1000
0000
1000
0000
0100
0000
0100
0000
0010
0000
0000
0010
0000
0000
0010
0000
,
0001
0000
0000
0001
0000
0000
0001
0000
0100
0000
0000
0100
0000
0000
0100
0000
,
0001
0000
0001
0000
0010
0000
0010
0000
1000
0000
0000
1000
0000
0000
1000
0000
,
0100
0000
0000
0100
0000
0000
0100
0000
0010
0000
0000
0010
0000
0000
0010
0000
,
0100
0000
0100
0000
0001
0000
0001
0000
1000
0000
0000
1000
0000
0000
1000
0000
,
0010
0000
0000
0010
0000
0000
0010
0000
0100
0000
0000
0100
0000
0000
0100
0000
,
0001
0000
0001
0000
0010
0000
0010
0000
1000
0000
0000
1000
0000
0000
1000
0000
,
0001
0000
0000
0001
0000
0000
0001
0000
0100
0000
0000
0010
0000
0000
0110
0000
,
0001
1000
0010
0100
0001
1000
0010
0000
,
0010
1000
0001
0100
0010
1000
0001
0000
,
0001
0010
0100
1000
0001
0010
0100
0000
,
1000
0100
0010
0001
1000
0010
0100
0000
,
0001
0100
1000
0100
0001
0100
1000
0100
,
0001
0010
0000
0000
1000
0000
0010
0000
0001
0000
0010
0000
1000
0000
0010
0000
,
0001
1000
0100
0001
0100
1000
0010
0100
,
0001
1100
0101
1001
,
0010
1000
0010
0100
0001
0110
0100
0000
,
0001
0100
0010
1000
0001
1001
0010
0000
,
1000
0010
0100
0001
0010
1100
1000
0000
,
0010
1000
0100
0010
0001
0011
0001
0000
,
0001
0100
0010
1000
0100
0010
0100
0000
,
0001
0100
0010
1000
0100
0010
0001
0000
,
1000
0010
0100
0001
0010
0100
1000
0000
,
1100
0101
1001
0110
,
1000
0100
1000
0000
0010
0000
1000
0000
0001
0000
0100
0000
0010
0000
0100
0000
,
0001
0010
0001
0000
0010
0000
0100
0000
1000
0000
0010
0000
0100
0000
0001
0000
,
1000
0001
1000
0000
0010
0000
0100
0000
0001
1000
0001
0000
0010
0000
0100
0000
,
1000
0100
1000
0000
0001
0000
0100
0000
0001
0010
0001
0000
1000
0000
0010
0000
,
0000
0000
0000
0220
0000
0000
0330
0000
;

//---------------dance-single - ----------------
#NOTES:
     dance-single:
     :
     Easy:
     9:
     0.448574,0.405544,0.080256,0.080256,0.055176,297.000000,8.000000,8.000000,0.000000,0.000000,0.000000,0.448574,0.405544,0.080256,0.080256,0.055176,297.000000,8.000000,8.000000,0.000000,0.000000,0.000000:
0000
0000
0000
0000
,
0000
0000
0000
0000
,
0000
0000
0000
0000
,
1000
0100
1000
0000
0001
0000
1000
0000
,
0001
0100
0001
0000
1000
0000
0001
0000
,
1000
0000
0010
0000
0100
0001
0010
1000
,
0100
0000
1000
0000
0010
1000
0001
0100
,
0010
0000
1000
0000
1000
0100
0010
0001
,
1000
0000
0010
0000
0100
0001
0010
1000
,
0100
0000
1000
0000
0010
1000
0001
0100
,
1000
0000
0010
0000
1000
0010
0100
0001
,
0010
0000
0100
0000
0001
0100
0010
1000
,
0100
1100
0101
1001
,
0010
1000
0010
0000
0010
0100
0010
0000
,
0010
0001
0010
0000
0010
0100
0010
0000
,
0100
1000
0100
0000
0100
0010
0100
0000
,
0100
0001
0100
0000
0100
0010
0100
0000
,
1000
0100
0010
0000
0100
0010
0001
0000
,
0001
0010
0100
0000
0010
0100
1000
0000
,
0010
0100
1000
0000
0100
0001
0010
0000
,
0010
0000
1000
0000
0100
0000
0001
0000
0010
0000
0000
0010
0000
0000
0010
0000
,
0001
0000
1000
0000
0001
0000
0100
0000
0010
0000
0000
0001
0000
0000
0000
0000
,
0010
0000
1000
0000
0100
0000
0001
0000
0010
0000
0000
1000
0000
0000
0000
0000
,
0010
0000
1000
0000
0001
0000
0100
0000
0010
0000
0000
0010
0000
0000
0100
0000
,
2000
0000
0001
3001
,
0010
0000
1000
0000
0010
0000
0100
0000
0001
0000
0000
0001
0000
0000
0010
0000
,
1000
0000
0001
0000
0100
0000
0010
0000
1000
0000
0000
1000
0000
0000
0100
0000
,
0010
0000
1000
0000
0001
0000
0100
0000
0010
0000
0000
0010
0000
0000
0100
0000
,
0002
0000
1000
1003
,
0010
0000
1000
0000
0001
0000
0100
0000
0100
0000
0000
0010
0000
0000
0001
0000
,
0000
0010
0000
0100
0000
1000
0000
0010
,
1000
0000
0100
0000
0001
0000
0010
0000
1000
0000
0000
0100
0000
0000
0100
0000
,
0000
0010
0000
1000
0000
0001
0000
0100
,
0010
0000
1000
0000
0001
0000
0100
0000
0010
0000
0000
1000
0000
0000
0001
0000
,
0000
0100
0000
0010
0000
1000
0000
0001
,
0100
0000
0010
0000
1000
0000
0100
0000
0001
0000
0000
0010
0000
0000
0100
0000
,
0000
1000
0000
0100
0000
0010
0000
0001
,
1000
0100
0010
0000
0100
0000
1001
0000
,
0100
0010
0001
0000
0010
0000
0011
0000
,
1000
0010
0100
0000
0001
0000
0101
0000
,
0010
1000
0100
0000
0001
0000
1100
0000
,
0020
1000
0100
0001
,
0230
0001
0010
1000
,
0302
1000
0100
0010
,
2003
0001
0010
0100
,
3010
0000
0100
0000
0001
1000
0010
0000
,
0001
0000
1000
0000
0010
0100
0001
0000
,
1000
0000
0100
0000
0010
0001
0010
0000
,
0100
0000
0001
0000
1000
0010
1000
0000
,
0100
0000
0001
0000
1000
0010
0100
0000
,
0001
0000
1000
0000
0010
0100
0001
0000
,
0010
0000
1000
0000
0100
0001
0010
0000
,
1000
0100
0010
0000
0100
0010
0001
0000
,
0001
0010
0100
0010
0001
0000
0001
0000
,
1000
0100
0010
0100
1000
0000
1000
0000
,
0010
0100
0001
0100
0010
0000
0010
0000
,
1000
0010
0100
0010
1000
0000
1000
0000
,
0000
0000
0000
2002
0000
0000
3003
0000
;

//---------------dance-single - ----------------
#NOTES:
     dance-single:
     :
     Beginner:
     5:
     0.225003,0.230234,0.010032,0.090288,0.000000,147.000000,1.000000,9.000000,0.000000,0.000000,0.000000,0.225003,0.230234,0.010032,0.090288,0.000000,147.000000,1.000000,9.000000,0.000000,0.000000,0.000000:
0000
0000
0000
0000
,
0000
0000
0000
0000
,
0000
0000
0000
0000
,
1000
0000
0100
0000
,
1000
0100
0001
0000
,
0001
0000
0100
0000
,
0001
0100
1000
0000
,
1000
0000
0100
0000
,
1000
0100
0001
0000
,
0001
0000
0010
0000
,
0001
0010
1000
0000
,
1000
0000
0010
0000
,
1000
0010
0001
0000
,
1000
0100
0000
0100
,
0000
0100
0000
0001
,
0000
0100
0000
0100
,
0000
0100
0000
1000
,
0000
0010
0000
0010
,
0000
0010
0000
0001
,
0000
0010
0000
0010
,
0000
0010
0200
0000
,
1300
0000
0100
0000
,
1000
0100
0010
0000
,
0001
0000
0010
0000
,
0001
0010
0100
0000
,
1000
0000
0001
0000
,
0100
0010
1000
0000
,
0001
0000
0100
0000
,
0010
0100
0001
0000
,
1000
0100
0020
0000
,
0100
0000
0130
0000
,
0001
0010
0200
0000
,
0010
0000
0010
0300
,
0001
1000
0020
0000
,
0100
0000
0100
0030
,
1000
0001
0200
0000
,
0010
0000
0010
0300
,
0001
0100
0010
0000
,
1000
0010
0100
0000
,
0001
0010
0100
0000
,
1000
0100
0010
0000
,
0002
0000
0100
0100
,
2003
0000
0100
0100
,
3002
0000
0010
0010
,
2003
0000
0010
0010
,
3001
0010
1000
0000
,
1000
0100
0001
0000
,
0001
0010
1000
0000
,
1000
0100
0001
0000
,
0010
0100
1000
0000
,
0100
0010
0001
0000
,
1000
0100
0010
0000
,
0001
0010
0100
0000
,
1000
0100
0001
0100
,
1000
0100
0001
0100
,
1000
0100
0001
0100
,
1000
0100
0001
0100
,
0000
0000
0000
1001
0000
0000
0000
0000
;
