#TITLE:erase or zero;
#SUBTITLE:;
#ARTIST:HzEdge(クリスタルP);
#TITLETRANSLIT:;
#SUBTITLETRANSLIT:;
#ARTISTTRANSLIT:HzEdge(Crystal-P);
#GENRE:Pop;
#CREDIT:;
#BANNER:;
#BACKGROUND:;
#LYRICSPATH:;
#CDTITLE:;
#MUSIC:erase or zero.ogg;
#OFFSET:-0.743000;
#SAMPLESTART:83.445038;
#SAMPLELENGTH:15.000000;
#SELECTABLE:YES;
#DISPLAYBPM:136.000000;
#BPMS:0.000000=136.000000
;
#STOPS:
;
#BGCHANGES:;
#KEYSOUNDS:;
#ATTACKS:;

//---------------dance-single - ----------------
#NOTES:
     dance-single:
     :
     Easy:
     5:
     0.234077,0.274708,0.155312,0.481467,0.000000,211.000000,191.000000,20.000000,62.000000,0.000000,0.000000,0.234077,0.274708,0.155312,0.481467,0.000000,211.000000,191.000000,20.000000,62.000000,0.000000,0.000000:
0000
0000
0000
0000
,
0000
0000
0000
0000
,
0000
0000
0000
0000
,
2002
0000
0000
3003
,
0220
0000
0000
0330
,
2200
3300
0202
0303
,
0001
1000
2002
3003
,
0020
0000
0000
0000
,
0200
0000
0000
0030
,
2000
0000
0300
0000
,
0002
0000
0000
3003
,
0001
0100
0010
1000
,
0100
0100
0010
0010
,
1000
0010
0100
0001
,
1000
1000
0001
0001
,
0100
1000
0010
1000
,
2002
3003
0100
0010
,
1000
1000
0001
0001
,
0220
0330
0001
0100
,
1000
0100
0001
0010
,
1000
0010
0100
0001
,
0200
0000
0320
0000
,
2030
0000
3002
0000
,
1003
0010
0100
0001
,
2002
3003
0001
0100
,
0010
1000
0100
0010
,
2002
3003
0010
1000
,
0200
0000
0310
1000
,
0002
0000
0103
0010
,
1000
0010
0100
0001
,
0220
0000
0330
0000
,
1000
0100
0010
0001
,
2002
3003
0100
0100
,
0001
0010
0100
1000
,
2002
3003
0010
0010
,
1000
0100
0020
0000
,
0130
0010
0002
0000
,
1003
0010
0100
0001
,
2002
0000
3003
0100
,
0020
0000
0000
0000
,
2030
0000
0000
0000
,
3002
0000
0203
0000
,
0320
0000
2030
0000
,
3200
0300
0010
0010
,
0002
0003
1000
1000
,
0100
1000
0010
0001
,
0100
0010
0220
0330
,
0001
1000
0010
0010
,
1000
0001
0100
0100
,
1000
0100
0010
0001
,
1000
0001
2002
3003
,
0001
0100
0020
0000
,
1030
0100
0020
0000
,
0130
0001
1000
0010
,
0220
0000
0330
0000
,
1000
0100
0010
0000
,
0001
0010
0100
0000
,
1000
0100
0001
1000
,
0100
0010
0220
0330
,
0001
0100
0010
0000
,
1000
0010
0100
0000
,
0001
0100
0010
1000
,
0010
0100
0010
0100
,
2002
0000
0000
3003
,
0100
0010
0100
0010
,
0100
1000
0010
0100
,
0010
0001
0100
0010
,
0220
0000
0000
0000
,
0000
0000
0000
0330
,
2002
0000
0000
0000
,
0000
0000
0000
3003
;

//---------------dance-single - ----------------
#NOTES:
     dance-single:
     :
     Beginner:
     2:
     0.108718,0.160748,0.054359,0.000000,0.000000,98.000000,91.000000,7.000000,0.000000,0.000000,0.000000,0.108718,0.160748,0.054359,0.000000,0.000000,98.000000,91.000000,7.000000,0.000000,0.000000,0.000000:
0000
0000
0000
0000
,
0000
0000
0000
0000
,
0000
0000
0000
0000
,
0110
0000
0000
0000
,
0100
0000
0000
0000
,
1000
0000
0100
0000
,
0010
0000
0001
0000
,
1001
0000
0000
0000
,
0100
0000
0000
0000
,
0001
0000
0010
0000
,
0100
0000
1000
0000
,
1001
0000
0100
0000
,
1000
0000
0100
0000
,
0010
0000
0010
0000
,
0100
0000
0100
0000
,
1001
0000
0000
0000
,
0100
0000
0000
0000
,
0010
0000
0000
0000
,
1000
0000
0000
0000
,
0001
0000
0000
0000
,
0100
0000
0000
0000
,
1000
0000
0000
0000
,
0010
0000
0000
0000
,
1001
0000
0000
0000
,
0100
0000
0000
0000
,
0001
0000
0000
0000
,
0010
0000
0000
0000
,
1000
0000
0000
0000
,
0001
0000
0000
0000
,
0100
0000
0000
0000
,
0010
0000
0000
0000
,
1000
0000
1000
0000
,
0100
0000
0000
0000
,
0001
0000
0001
0000
,
0100
0000
0000
0000
,
1000
0000
1000
0000
,
0010
0000
0000
0000
,
0001
0000
0001
0000
,
0010
0000
0000
0000
,
1001
0000
0000
0000
,
0000
0000
0000
0000
,
0100
0000
0000
0000
,
0010
0000
0000
0000
,
0100
0000
1000
0000
,
0100
0000
0000
0000
,
0010
0000
0001
0000
,
0010
0000
0000
0000
,
0100
0000
1000
0000
,
0010
0000
0000
0000
,
0010
0000
0001
0000
,
0100
0000
0000
0000
,
1000
0000
0100
0000
,
0001
0000
0000
0000
,
0001
0000
0010
0000
,
1000
0000
0000
0000
,
0100
0000
1000
0000
,
0100
0000
0000
0000
,
0100
0000
0001
0000
,
0100
0000
0000
0000
,
0010
0000
1000
0000
,
0010
0000
0000
0000
,
0010
0000
0001
0000
,
0010
0000
0000
0000
,
0100
0000
1000
0000
,
0100
0000
1000
0000
,
0010
0000
0001
0000
,
0010
0000
0001
0000
,
1001
0000
0000
0000
,
0000
0000
0000
0000
,
0100
0000
0000
0000
;

//---------------dance-single - ----------------
#NOTES:
     dance-single:
     :
     Medium:
     8:
     0.357218,0.412062,0.310624,0.419343,0.000000,322.000000,282.000000,40.000000,54.000000,0.000000,0.000000,0.357218,0.412062,0.310624,0.419343,0.000000,322.000000,282.000000,40.000000,54.000000,0.000000,0.000000:
// measure 0
0000
0000
0000
0000
,  // measure 1
0000
0000
0000
0000
,  // measure 2
0000
0000
0000
0000
,  // measure 3
1100
0100
0010
0000
0001
0000
0000
0000
,  // measure 4
0011
0010
0100
0000
1000
0000
0000
0000
,  // measure 5
0100
0010
1000
0000
0010
0000
0110
0000
,  // measure 6
0100
0010
0001
0000
1000
0000
1001
0000
,  // measure 7
0100
0010
1000
0000
2002
0000
3003
0000
,  // measure 8
0010
1000
0001
0000
0220
0000
0330
0000
,  // measure 9
1000
0100
0010
0001
,  // measure 10
2002
0000
0000
3003
,  // measure 11
0100
0010
1000
0000
0010
0000
0110
0000
,  // measure 12
1000
0000
0001
0000
0100
0010
0001
0000
,  // measure 13
1000
0001
0100
0000
0010
0000
0110
0000
,  // measure 14
0001
0000
0100
0000
0010
0100
1000
0000
,  // measure 15
0010
0100
1000
0000
0010
0000
1010
0000
,  // measure 16
1000
0010
0100
0001
,  // measure 17
0100
0010
0001
0000
0010
0000
0011
0000
,  // measure 18
0100
0001
1000
1001
,  // measure 19
0010
0100
1000
0000
0010
0000
1000
0000
,  // measure 20
0010
0100
0001
0000
0100
0000
0010
0000
,  // measure 21
0100
1000
0100
0001
,  // measure 22
0010
1000
0010
0001
,  // measure 23
0100
0010
1000
0000
0001
0000
1001
0000
,  // measure 24
0100
0001
0010
0000
1000
0000
1001
0000
,  // measure 25
0100
1000
0010
0000
0100
0000
1001
0000
,  // measure 26
0010
0100
0001
0000
0010
0000
1001
0000
,  // measure 27
0010
1000
0100
0000
1000
0000
0010
0000
,  // measure 28
0100
0010
0001
0000
0100
0000
0110
0000
,  // measure 29
2000
0001
0001
3001
,  // measure 30
0002
1000
1000
1003
,  // measure 31
0200
2300
3020
0032
,  // measure 32
2000
3003
1001
1001
,  // measure 33
0002
0203
0320
2030
,  // measure 34
0002
3003
1001
1001
,  // measure 35
2000
0100
0100
0010
,  // measure 36
3020
0001
0001
0100
,  // measure 37
0230
0301
0002
0013
,  // measure 38
2000
3020
0230
0302
,  // measure 39
2003
0000
3010
0100
,  // measure 40
0002
0000
0103
0010
,  // measure 41
1000
0010
0100
0000
0001
0000
1001
0000
,  // measure 42
0001
0100
0010
0000
1000
0000
1001
0000
,  // measure 43
0100
0010
1000
0000
0010
0000
0110
0000
,  // measure 44
0001
0100
0010
0000
1000
0000
1001
0000
,  // measure 45
1000
0100
0010
0000
0100
0010
0001
0000
,  // measure 46
2002
0000
0000
3003
,  // measure 47
0001
0100
0010
0000
0202
0000
0303
0000
,  // measure 48
0001
1000
0010
0000
2200
0000
3300
0000
,  // measure 49
0010
1000
0001
0000
0100
0010
1000
0000
,  // measure 50
0001
0100
0220
0330
,  // measure 51
0001
1000
0010
0000
0022
0000
0033
0000
,  // measure 52
0001
0100
0010
0000
2020
0000
3030
0000
,  // measure 53
1000
0010
0100
0000
0010
0100
0001
0000
,  // measure 54
0100
1000
0010
1001
,  // measure 55
0100
0010
1000
0000
2002
0000
3003
0000
,  // measure 56
0001
1000
0010
0000
0220
0000
0330
0000
,  // measure 57
0001
0100
1000
0000
1000
0010
0001
0000
,  // measure 58
1000
0010
0100
0001
1000
0000
1001
0000
,  // measure 59
0001
0100
0010
0000
0220
0000
0330
0000
,  // measure 60
1000
0010
0100
0000
0220
0000
0330
0000
,  // measure 61
0001
0100
1000
0000
1000
0010
0001
0000
,  // measure 62
1000
0010
0100
0001
1000
0000
0110
0000
,  // measure 63
2002
0000
0000
3003
,  // measure 64
0001
0100
0010
0000
1000
0000
1000
0000
,  // measure 65
0010
1000
0001
0000
0100
0000
0100
0000
,  // measure 66
0010
1000
0100
0000
1000
0000
1000
0002
,  // measure 67
2000
0000
0000
0000
,  // measure 68
0000
0000
0000
3003
,  // measure 69
2200
0000
0000
0000
,  // measure 70
0000
0000
0000
3300
;

//---------------dance-single - ----------------
#NOTES:
     dance-single:
     :
     Hard:
     10:
     0.453733,0.521946,0.357218,0.186374,0.128132,409.000000,363.000000,46.000000,24.000000,0.000000,0.000000,0.453733,0.521946,0.357218,0.186374,0.128132,409.000000,363.000000,46.000000,24.000000,0.000000,0.000000:
// measure 0
0000
0000
0000
0000
,  // measure 1
0000
0000
0000
0000
,  // measure 2
0000
0000
0000
0000
,  // measure 3
0110
0000
1000
0000
0010
0000
0000
0200
0000
0000
0000
0000
0310
0000
0000
0000
,  // measure 4
1000
0000
0010
0000
0100
0000
0000
0002
0000
0000
0000
0000
0103
0000
0000
0000
,  // measure 5
0010
1000
0001
0000
0100
0010
1000
0000
,  // measure 6
0010
0100
0001
1000
0110
0000
1001
0000
,  // measure 7
1000
0000
0100
0000
0010
0000
0000
0100
0000
0000
0010
0000
0100
0000
0000
0000
,  // measure 8
0001
0000
0010
0000
0100
0000
0000
0010
0000
0000
0100
0000
0010
0000
0000
0000
,  // measure 9
1000
0100
0001
0000
0100
0001
1000
0000
,  // measure 10
0010
0100
0001
1000
0010
0000
0110
0000
,  // measure 11
1100
0000
0100
0001
0010
0000
0100
0000
,  // measure 12
0101
0000
0100
0010
1000
0000
0100
0000
,  // measure 13
0010
1000
0100
0000
0010
0100
0001
0000
,  // measure 14
0100
0010
1000
0001
0100
0000
0101
0000
,  // measure 15
0100
1000
0100
0000
0001
0000
1001
0000
,  // measure 16
0001
0010
0001
0000
0100
0000
0110
0000
,  // measure 17
1000
0010
0001
0000
0100
0000
0110
0000
,  // measure 18
0001
1000
0010
0000
0100
0000
0110
0000
,  // measure 19
1000
0100
0001
0100
1000
0000
1001
0000
,  // measure 20
1000
0001
0010
0001
1000
0000
1001
0000
,  // measure 21
1000
0010
0001
0010
1000
0000
1001
0000
,  // measure 22
1000
0010
1000
0001
1000
0000
0110
0000
,  // measure 23
0100
1000
0100
0000
0010
0000
0110
0000
,  // measure 24
0001
0010
0001
0000
0100
0000
0110
0000
,  // measure 25
1000
0100
0001
0000
1000
0010
0001
0000
,  // measure 26
1000
0010
0100
1001
,  // measure 27
0001
0100
1000
0100
0001
0000
1001
0000
,  // measure 28
0001
1000
0001
0100
0001
0000
1001
0000
,  // measure 29
0001
0010
1000
0010
0001
0000
1001
0000
,  // measure 30
0001
1000
0010
1000
0001
0000
1001
0000
,  // measure 31
0001
0000
0000
0010
0000
0000
0100
0000
1000
0000
0000
0000
1001
0000
0000
0000
,  // measure 32
1000
0000
0010
0100
0001
0000
0101
0000
,  // measure 33
1000
0000
0000
0010
0000
0000
0100
0000
0001
0000
0000
0000
1001
0000
0000
0000
,  // measure 34
1000
0000
0010
0100
0001
0000
0101
0000
,  // measure 35
0100
1000
0010
0000
1000
0000
1001
0000
,  // measure 36
0001
1000
0010
0000
0001
0000
0011
0000
,  // measure 37
0100
0001
1000
0000
0010
1000
0001
0000
,  // measure 38
0220
0000
0330
0000
0001
0100
2000
0000
,  // measure 39
3020
0000
0000
0000
0130
0000
0000
2000
0000
0000
0000
0000
0000
0000
0000
0000
,  // measure 40
3020
0000
0000
0000
0130
0000
0000
0002
0000
0000
0000
0000
0000
0000
0000
0000
,  // measure 41
1003
0000
0000
0200
0000
0000
0000
0000
0301
0000
0000
0100
0000
0000
1000
0000
,  // measure 42
0010
0000
0000
0000
1001
0000
0000
0000
0110
0000
0000
0000
0000
0000
1000
0001
,  // measure 43
1000
0000
0000
0000
0010
0000
0000
0200
0000
0000
0000
0000
0300
0000
0000
0000
,  // measure 44
0010
0000
0000
0000
1000
0000
0000
0002
0000
0000
0000
0000
0003
0000
0000
0000
,  // measure 45
1000
0100
0001
0000
1000
0010
0001
0000
,  // measure 46
0100
0010
1000
0001
0100
0010
0110
0000
,  // measure 47
0100
0000
0001
0000
1000
0000
0010
0100
0000
0000
0000
0000
1001
0000
0000
0000
,  // measure 48
0100
0000
0010
0000
1000
0000
0001
0100
0000
0000
0000
0000
0101
0000
0000
0000
,  // measure 49
0100
0000
1000
0100
0000
0000
1000
0000
0100
0000
0001
0100
0000
0000
0001
0000
,  // measure 50
0100
1000
0010
0100
1001
0000
0110
0000
,  // measure 51
1000
0000
0010
0000
0100
0000
0001
1000
0000
0000
0001
0000
1000
0000
0000
0000
,  // measure 52
0010
0000
1000
0000
0100
0000
0001
0010
0000
0000
0100
0000
0010
0000
0000
0000
,  // measure 53
0100
0000
0010
1000
0000
0000
0010
0000
0100
0000
0010
0001
0000
0000
0010
0000
,  // measure 54
0100
1000
0010
0100
0001
0000
1001
0000
,  // measure 55
0100
0000
0010
0000
1000
0000
0001
0100
0000
0000
0000
0000
0010
0000
1000
0001
,  // measure 56
1000
0000
0010
0000
0100
0000
1000
0100
0000
0000
0000
0000
0010
0000
1000
0000
,  // measure 57
0100
0000
0000
1100
0000
0000
0001
0000
0100
0000
0001
0100
0000
0001
0000
0000
,  // measure 58
1000
0000
1001
0000
0110
0000
0001
1000
,  // measure 59
0010
0000
0100
0000
0001
0000
0010
1000
0000
0000
0000
0000
0010
0000
1000
0000
,  // measure 60
0001
0000
0100
0000
0010
0000
0001
0010
0000
0000
0000
0000
0010
0000
0100
0000
,  // measure 61
1000
0000
0000
0010
0000
0000
0110
0000
0001
0000
0000
1000
0000
0000
1100
0000
,  // measure 62
0001
0000
0000
1000
0000
0000
0011
0000
0101
0000
0000
1001
0000
0000
1010
0000
,  // measure 63
2000
0000
3020
0000
0031
0100
0010
1000
,  // measure 64
0002
0000
0023
0000
1030
0010
0100
0001
,  // measure 65
0200
0320
2030
3002
,  // measure 66
0103
0010
1000
0100
0010
0200
0320
0000
,  // measure 67
0032
0000
0000
0000
,  // measure 68
0000
0000
0000
0000
,  // measure 69
2000
0000
0000
0000
,  // measure 70
0000
0000
0000
3003
;
