#TITLE:black bullet;
#SUBTITLE:;
#ARTIST:fripSide;
#TITLETRANSLIT:;
#SUBTITLETRANSLIT:;
#ARTISTTRANSLIT:;
#GENRE:Anime/Game;
#CREDIT:;
#BANNER:;
#BACKGROUND:;
#LYRICSPATH:;
#CDTITLE:;
#MUSIC:Black bullet.ogg;
#OFFSET:0.835000;
#SAMPLESTART:62.266068;
#SAMPLELENGTH:15.000000;
#SELECTABLE:YES;
#BPMS:0.000000=155.000000
;
#STOPS:
;
#BGCHANGES:;
#KEYSOUNDS:;
#ATTACKS:;

//---------------dance-single - ----------------
#NOTES:
     dance-single:
     :
     Easy:
     3:
     0.203287,0.249963,0.009362,0.337028,0.000000,152.000000,151.000000,1.000000,36.000000,0.000000,0.000000,0.203287,0.249963,0.009362,0.337028,0.000000,152.000000,151.000000,1.000000,36.000000,0.000000,0.000000:
// measure 0
0000
0000
0000
0000
,  // measure 1
0000
0000
0000
0000
,  // measure 2
0000
0000
0000
0000
,  // measure 3
0000
0000
0000
0000
,  // measure 4
0000
0000
0000
0000
,  // measure 5
0200
0000
1300
0000
,  // measure 6
0200
0000
0301
0000
,  // measure 7
0020
0000
1030
0000
,  // measure 8
0020
0000
0031
0000
,  // measure 9
1000
0000
0100
0000
,  // measure 10
0010
0010
0010
0000
,  // measure 11
0001
0000
0010
0000
,  // measure 12
0100
0100
0100
0000
,  // measure 13
1000
0000
0010
0000
,  // measure 14
0100
0100
0100
0000
,  // measure 15
0001
0000
0100
0000
,  // measure 16
0010
0010
0010
0000
,  // measure 17
1000
0100
0010
0000
,  // measure 18
0001
0010
0100
0000
,  // measure 19
1000
0000
0001
0000
,  // measure 20
1000
0000
0001
0000
,  // measure 21
0001
0100
0010
0000
,  // measure 22
1000
0010
0100
0000
,  // measure 23
0001
0000
1000
0000
,  // measure 24
0001
0000
1000
0000
,  // measure 25
0100
0100
1000
0000
,  // measure 26
0100
0100
0001
0000
,  // measure 27
0010
0000
0100
0000
,  // measure 28
0010
0000
0100
0000
,  // measure 29
0010
0010
0001
0000
,  // measure 30
0100
0100
1000
0000
,  // measure 31
0010
0000
0100
0000
,  // measure 32
0010
0000
0100
0000
,  // measure 33
1000
0000
0100
0000
,  // measure 34
0001
0001
0001
0000
,  // measure 35
0001
0000
0010
0000
,  // measure 36
1000
1000
1000
0000
,  // measure 37
0100
0000
0010
0000
,  // measure 38
1000
0000
0001
0000
,  // measure 39
0200
0000
0320
0000
,  // measure 40
2030
0000
3002
0000
,  // measure 41
1003
0100
0010
0000
,  // measure 42
0001
0010
0100
0000
,  // measure 43
1000
0000
0001
0000
,  // measure 44
0100
0000
0010
0000
,  // measure 45
0001
0010
0100
0000
,  // measure 46
1000
0100
0010
0000
,  // measure 47
0002
0003
0200
0300
,  // measure 48
0020
0030
2000
3000
,  // measure 49
0001
0100
1000
0000
,  // measure 50
1000
0010
0001
0000
,  // measure 51
0100
0010
1000
0000
,  // measure 52
0001
0100
0010
0000
,  // measure 53
1000
0100
0010
0000
,  // measure 54
0001
0010
0100
0000
,  // measure 55
0002
0000
0203
0000
,  // measure 56
0320
0000
2030
0000
,  // measure 57
3010
0010
0100
0100
,  // measure 58
2002
0000
0000
3003
,  // measure 59
0020
0030
0200
0300
,  // measure 60
0020
0030
0200
0300
,  // measure 61
2000
3000
0002
0003
,  // measure 62
2000
3000
0002
0003
,  // measure 63
2000
3200
0320
0030
,  // measure 64
0002
0023
0230
0300
,  // measure 65
0002
0003
0200
0300
,  // measure 66
0020
0030
2000
3000
;

//---------------dance-single - ----------------
#NOTES:
     dance-single:
     :
     Beginner:
     1:
     0.084257,0.123577,0.000000,0.000000,0.000000,63.000000,63.000000,0.000000,0.000000,0.000000,0.000000,0.084257,0.123577,0.000000,0.000000,0.000000,63.000000,63.000000,0.000000,0.000000,0.000000,0.000000:
0000
0000
0000
0000
,
0000
0000
0000
0000
,
0000
0000
0000
0000
,
0000
0000
0000
0000
,
0000
0000
0000
0000
,
1000
0000
0000
0000
,
0010
0000
0000
0000
,
0100
0000
0000
0000
,
0001
0000
0000
0000
,
0100
0000
0000
0000
,
0010
0000
0000
0000
,
0100
0000
0000
0000
,
0010
0000
0000
0000
,
1000
0000
0000
0000
,
0001
0000
0000
0000
,
1000
0000
0000
0000
,
0001
0000
0000
0000
,
1000
0000
0000
0000
,
0010
0000
0000
0000
,
0100
0000
0000
0000
,
0001
0000
0000
0000
,
0001
0000
0000
0000
,
0100
0000
0000
0000
,
0010
0000
0000
0000
,
1000
0000
0000
0000
,
1000
0000
0000
0000
,
0100
0000
0000
0000
,
0010
0000
0000
0000
,
0001
0000
0000
0000
,
0001
0000
0000
0000
,
0010
0000
0000
0000
,
0100
0000
0000
0000
,
1000
0000
0000
0000
,
0100
0000
0000
0000
,
0010
0000
0000
0000
,
0100
0000
0000
0000
,
0010
0000
0000
0000
,
1000
0000
0000
0000
,
0001
0000
0000
0000
,
1000
0000
0000
0000
,
0001
0000
0000
0000
,
1000
0000
0000
0000
,
0100
0000
0000
0000
,
0010
0000
0000
0000
,
0001
0000
0000
0000
,
1000
0000
0000
0000
,
0100
0000
0000
0000
,
0010
0000
0000
0000
,
0100
0000
0000
0000
,
0001
0000
0000
0000
,
0010
0000
0000
0000
,
0100
0000
0000
0000
,
1000
0000
0000
0000
,
0001
0000
0000
0000
,
0010
0000
0000
0000
,
0100
0000
0000
0000
,
0010
0000
0000
0000
,
0001
0000
0001
0000
,
0001
0000
0000
0000
,
1000
0000
0000
0000
,
0010
0000
0000
0000
,
0100
0000
0000
0000
,
0001
0000
0000
0000
,
0001
0000
0000
0000
,
0100
0000
0000
0000
,
0010
0000
0000
0000
,
1000
0000
0000
0000
;

//---------------dance-single - ----------------
#NOTES:
     dance-single:
     :
     Medium:
     8:
     0.370463,0.437434,0.224685,0.346390,0.009362,277.000000,253.000000,24.000000,37.000000,0.000000,0.000000,0.370463,0.437434,0.224685,0.346390,0.009362,277.000000,253.000000,24.000000,37.000000,0.000000,0.000000:
// measure 0
0000
0000
0000
0000
,  // measure 1
0000
0000
0000
0000
,  // measure 2
0000
0000
0000
0000
,  // measure 3
0000
0000
0000
0000
,  // measure 4
0000
0000
0000
0000
,  // measure 5
2000
3200
0320
0032
,  // measure 6
0013
0100
0010
0100
,  // measure 7
0002
0023
0230
2300
,  // measure 8
3100
0010
0100
0010
,  // measure 9
0001
0100
0010
1010
,  // measure 10
1000
0010
0100
0101
,  // measure 11
0001
0100
1000
1100
,  // measure 12
1000
0010
0001
0011
,  // measure 13
0001
0100
0010
1100
,  // measure 14
1000
0010
0100
0011
,  // measure 15
0001
0100
1000
0110
,  // measure 16
1000
0010
0001
0110
,  // measure 17
2000
0010
3010
0000
,  // measure 18
0002
0100
0103
0000
,  // measure 19
2000
0100
3100
0000
,  // measure 20
0002
0010
0013
0000
,  // measure 21
2000
0100
3010
0100
,  // measure 22
0002
0010
0103
0010
,  // measure 23
2000
0100
3001
0100
,  // measure 24
0002
0100
1003
0100
,  // measure 25
1000
0010
0001
1100
,  // measure 26
0001
0100
1000
0011
,  // measure 27
2000
0010
3100
1010
,  // measure 28
0002
0100
0013
0101
,  // measure 29
0100
0010
1000
1100
,  // measure 30
1000
0010
0100
0011
,  // measure 31
0001
0100
0010
1000
,  // measure 32
0002
1000
2000
3003
,  // measure 33
0001
0100
1000
0020
,  // measure 34
0100
0100
0200
0330
,  // measure 35
1000
0010
0100
0002
,  // measure 36
1000
1000
2000
3003
,  // measure 37
0001
0000
0100
0000
0010
0100
2000
0000
,  // measure 38
0010
0100
0020
3030
,  // measure 39
0001
0000
1000
0000
0100
0010
0002
0000
,  // measure 40
0100
0010
0200
0303
,  // measure 41
0001
0100
0010
0110
,  // measure 42
1000
0010
1000
0000
0001
0010
0001
0000
,  // measure 43
0100
0010
1000
1001
,  // measure 44
1000
0100
1000
0000
0001
0100
0001
0000
,  // measure 45
0010
0100
0001
1001
,  // measure 46
0010
0100
0010
0000
1000
0001
1000
0000
,  // measure 47
0001
0100
0010
0000
1000
0000
1001
0000
,  // measure 48
1000
0000
0000
0010
0000
0000
0100
0000
2002
0000
0000
0000
3003
0000
0000
0000
,  // measure 49
0001
0100
1000
0000
0001
0100
1000
0000
,  // measure 50
0001
0010
1000
0000
1001
0000
0000
0000
,  // measure 51
1000
0010
0001
0000
1000
0010
0001
0000
,  // measure 52
1000
0100
0001
0000
2002
0000
3003
0000
,  // measure 53
0001
0100
1000
0000
0001
0100
1000
0000
,  // measure 54
0001
0010
1000
0100
0020
0000
0000
0000
,  // measure 55
0130
1000
0100
0000
0001
0000
1000
0000
,  // measure 56
0010
0000
0000
0100
0000
0000
0001
0000
2002
0000
0000
0000
3003
0000
0000
0000
,  // measure 57
0001
0010
0100
1000
,  // measure 58
2002
0000
0000
3003
,  // measure 59
0001
0000
0000
0100
0000
0010
0000
1000
,  // measure 60
0000
0001
0000
0100
0000
0010
0100
0000
,  // measure 61
0001
0000
0000
1000
0000
0100
0000
0010
,  // measure 62
0000
0001
0000
0100
0000
0010
1000
0000
,  // measure 63
0010
0000
0000
1000
0000
0001
0000
0100
,  // measure 64
0000
0010
0000
1000
0000
0001
0010
0000
,  // measure 65
1000
0000
0000
0010
0000
1000
0000
0001
,  // measure 66
0000
0100
0000
0010
0000
1000
1001
0000
;

//---------------dance-single - ----------------
#NOTES:
     dance-single:
     :
     Hard:
     11:
     0.544327,0.593661,0.440009,0.449371,0.060852,407.000000,360.000000,47.000000,48.000000,0.000000,0.000000,0.544327,0.593661,0.440009,0.449371,0.060852,407.000000,360.000000,47.000000,48.000000,0.000000,0.000000:
// measure 0
0000
0000
0000
0000
,  // measure 1
0000
0000
0000
0000
,  // measure 2
0000
0000
0000
0000
,  // measure 3
0000
0000
0000
0000
,  // measure 4
0000
0000
0000
0000
,  // measure 5
1000
0010
0100
0001
0000
0001
0100
1000
,  // measure 6
0000
1000
0010
0001
0000
0001
0100
0010
,  // measure 7
1000
0100
0010
0001
0100
0010
1000
1100
,  // measure 8
0000
0101
0000
1001
0000
0010
0210
0000
,  // measure 9
0302
0000
0000
0103
0000
0010
0000
1000
,  // measure 10
0000
0010
0000
0100
0000
0001
0010
0100
,  // measure 11
2000
0000
0000
3010
0000
0100
0000
0001
,  // measure 12
0000
1000
0000
0010
0000
0010
1000
0001
,  // measure 13
0200
0000
0000
0320
0000
2030
0000
3020
,  // measure 14
0000
0032
0000
0203
0000
0310
1000
0001
,  // measure 15
0200
0000
0000
0320
0000
2030
0000
3002
,  // measure 16
0000
0203
0000
0320
0000
1030
0001
0100
,  // measure 17
0010
1000
0100
0001
0201
0000
0301
0000
,  // measure 18
0001
0100
0010
1000
1200
0000
1300
0000
,  // measure 19
0010
1000
0001
0100
0210
0000
0301
0000
,  // measure 20
0010
0100
0001
1000
0120
0000
1030
0000
,  // measure 21
1000
0100
0010
0001
0021
0000
0031
0000
,  // measure 22
0001
0010
0100
1000
1200
0000
1300
0000
,  // measure 23
0010
1000
0100
0010
0100
0001
0010
0100
,  // measure 24
2000
0001
0100
3010
,  // measure 25
0001
0100
1000
0010
1010
0000
1000
0000
,  // measure 26
0010
1000
0001
0100
0011
0000
0001
0000
,  // measure 27
0100
0001
0010
0100
1100
0000
1000
0000
,  // measure 28
0010
1000
0001
0100
0110
0000
0001
0000
,  // measure 29
0100
1000
0010
0100
0001
0100
0010
0000
,  // measure 30
0001
0100
0010
1000
0100
0010
0100
0000
,  // measure 31
0001
0100
1000
0000
1000
0010
0001
0000
,  // measure 32
1000
0010
0100
0001
1000
0000
1001
0000
,  // measure 33
2000
3020
0230
0302
,  // measure 34
0103
0001
1000
0010
0100
0000
0110
0000
,  // measure 35
0002
0203
0320
2030
,  // measure 36
3001
0100
0010
1000
0001
0000
1001
0000
,  // measure 37
0200
0320
2030
3002
,  // measure 38
0103
0010
1000
0100
0001
0010
0100
0000
,  // measure 39
0001
0100
1000
0000
1000
0010
0001
0000
,  // measure 40
1100
0000
0000
0110
0000
0000
0011
0000
0000
0000
0000
0000
1000
0000
0100
0000
,  // measure 41
0001
0000
0001
0100
1000
0000
1000
0100
,  // measure 42
0010
1000
0001
0010
0110
0000
0001
0010
,  // measure 43
0100
0000
1000
0100
0010
0000
0001
0100
,  // measure 44
0010
1000
0001
0100
0110
0000
0001
0100
,  // measure 45
1200
0000
1300
0100
0201
0000
0301
0010
,  // measure 46
1000
0000
0010
0000
0100
0000
0001
0000
0110
0000
0000
0000
0001
0000
0100
0010
,  // measure 47
0100
0000
0000
0001
0000
0000
1000
0000
0010
0000
0000
0000
1001
0000
0000
0000
,  // measure 48
1100
0000
0000
0101
0000
0000
1001
0000
1010
0000
0000
0000
0001
0000
1000
0001
,  // measure 49
1000
0000
0010
1000
0001
0000
0001
1000
,  // measure 50
0010
0000
0100
0000
0001
0000
0010
0000
0100
0000
0000
0000
0001
0000
0010
0100
,  // measure 51
0010
0000
0001
1000
0010
0000
0010
1000
,  // measure 52
0001
0000
0100
0000
0010
0000
1000
0000
0001
0000
0000
0000
0100
0000
0001
1000
,  // measure 53
0001
0000
0000
0000
1000
0000
0010
0100
0010
0000
0000
0000
0001
0000
1000
0010
,  // measure 54
1000
0001
0100
0010
1000
0001
1001
0000
,  // measure 55
0001
0000
0000
0100
0000
0000
0010
0000
1000
0000
0000
0000
0110
0000
0000
0000
,  // measure 56
1010
0000
0000
0011
0000
0000
0101
0000
2002
0000
0000
0000
3003
0000
0002
0000
,  // measure 57
0203
0000
0000
2300
0000
0000
3020
0000
0230
0000
0000
0302
0000
0000
0023
0000
,  // measure 58
0230
0010
0010
0310
,  // measure 59
0001
0100
0010
2000
0000
3010
0000
1001
,  // measure 60
0000
0110
0000
0001
0100
0010
1000
0000
,  // measure 61
1000
0010
0100
0002
0000
0103
0000
0110
,  // measure 62
0000
1001
0000
0001
0100
1000
0010
0000
,  // measure 63
1000
0010
0100
0001
0000
0110
0000
1100
,  // measure 64
0000
0101
0000
0001
0100
0010
1000
0000
,  // measure 65
0001
0010
1000
0010
0000
0110
0000
1001
,  // measure 66
0000
1100
0000
0001
0100
0010
1010
0000
;

//---------------dance-single - ----------------
#NOTES:
     dance-single:
     :
     Challenge:
     9:
     0.410586,0.437434,0.243409,0.159152,0.037448,307.000000,281.000000,26.000000,17.000000,104.000000,0.000000,0.410586,0.437434,0.243409,0.159152,0.037448,307.000000,281.000000,26.000000,17.000000,104.000000,0.000000:
// measure 0
0000
0000
0000
0000
,  // measure 1
0000
0000
0000
0000
,  // measure 2
0000
0000
0000
0000
,  // measure 3
0000
0000
0000
0000
,  // measure 4
0000
0000
0000
0000
,  // measure 5
1000
0010
0100
0000
0001
0000
1001
0000
,  // measure 6
0001
0100
0010
0000
1000
0000
1001
0000
,  // measure 7
1000
0100
0001
0000
0001
0010
1000
0000
,  // measure 8
0020
0230
0302
2003
,  // measure 9
3001
1000
0010
0000
1000
0000
1001
0000
,  // measure 10
0001
0100
0010
1000
0001
0000
MMMM
0000
,  // measure 11
0001
1000
0010
0000
0100
0000
0110
0000
,  // measure 12
1000
0010
0100
0001
1000
0000
MMMM
0000
,  // measure 13
1000
0010
0100
0000
0001
0000
0101
0000
,  // measure 14
0001
0100
0010
1000
0001
0000
MMMM
0000
,  // measure 15
0001
0100
0010
0000
1000
0000
1100
0000
,  // measure 16
1000
0010
0100
0001
1000
0000
MMMM
0000
,  // measure 17
0010
1000
1010
0011
,  // measure 18
0010
0100
0101
MMMM
,  // measure 19
0001
0100
0101
1100
,  // measure 20
0010
0100
0101
MMMM
,  // measure 21
0001
1000
0100
0101
,  // measure 22
0001
0100
0010
MMMM
,  // measure 23
1000
0001
0100
0010
,  // measure 24
1000
0000
0000
0001
0000
0000
0100
0000
0020
0000
0000
0000
0130
0000
0000
0000
,  // measure 25
0001
0100
0010
1000
0010
0000
0110
0000
,  // measure 26
0010
1000
0001
0100
0010
0000
MMMM
0000
,  // measure 27
0001
0100
0010
1000
0001
0000
1001
0000
,  // measure 28
1000
0010
0100
0001
1000
0000
MMMM
0000
,  // measure 29
0010
1000
0100
0001
0010
0000
0110
0000
,  // measure 30
0001
0100
0010
1000
0001
0000
MMMM
0000
,  // measure 31
0001
0100
1000
0000
1000
0010
0001
0000
,  // measure 32
0010
0100
0001
1000
0010
0000
0110
0000
,  // measure 33
0002
0103
2000
3100
,  // measure 34
0002
0100
0103
MMMM
,  // measure 35
2000
3010
0002
0013
,  // measure 36
2000
0010
3010
MMMM
,  // measure 37
0010
1000
0010
MMMM
,  // measure 38
0001
0100
0010
MMMM
,  // measure 39
2000
3020
0230
0302
,  // measure 40
1000
0000
0000
1000
0000
0000
2000
0000
3003
0000
0000
0000
MMMM
0000
0000
0000
,  // measure 41
0001
0100
0010
0000
1000
0000
1001
0000
,  // measure 42
1000
0010
0100
0000
0001
0000
1001
0000
,  // measure 43
0001
0100
1000
0000
0010
0000
1001
0000
,  // measure 44
1000
0010
0001
0000
0100
0000
1001
0000
,  // measure 45
1000
0010
0100
0001
1000
0000
MMMM
0000
,  // measure 46
0001
0100
0010
1000
0001
0000
MMMM
0000
,  // measure 47
0001
0000
0000
0100
0000
0000
0010
0000
1000
0000
0000
0000
MMMM
0000
0000
0000
,  // measure 48
0010
0000
0000
1000
0000
0000
0001
0000
0100
0000
0000
0000
MMMM
0000
0000
0000
,  // measure 49
0001
0100
0010
0000
1000
0010
0100
0000
,  // measure 50
0001
0100
0010
1000
0001
0000
MMMM
0000
,  // measure 51
0001
0100
1000
0000
1000
0010
0001
0000
,  // measure 52
0001
1000
0010
0100
0001
0000
MMMM
0000
,  // measure 53
0001
0100
1000
0000
1000
0010
0001
0000
,  // measure 54
1000
0010
0001
0100
1000
0000
MMMM
0000
,  // measure 55
0001
0000
0000
1000
0000
0000
0010
0000
0100
0000
0000
0000
MMMM
0000
0000
0000
,  // measure 56
0001
0000
0000
0100
0000
0000
0010
0000
1000
0000
0000
0000
MMMM
0000
0000
0000
,  // measure 57
1000
0000
0000
0010
0000
0000
0100
0000
0001
0000
0000
0010
0000
0000
0100
0000
,  // measure 58
0020
0100
0100
0130
,  // measure 59
0001
0000
0000
0100
0000
0010
0000
1000
,  // measure 60
0000
0001
0000
0100
0000
0010
0110
0000
,  // measure 61
1001
0000
0000
0010
0000
1000
0000
0010
,  // measure 62
0000
0100
0000
0001
0000
1000
1001
0000
,  // measure 63
MMMM
0000
0000
0010
0000
1000
0000
0010
,  // measure 64
0000
0100
0000
0001
0000
0100
0110
0000
,  // measure 65
MMMM
0000
0000
0100
0000
0001
0000
0100
,  // measure 66
0000
0010
0000
1000
0000
0001
1001
0000
;
