#TITLE:bass 2 bass (dj MAX STEROID Remix);
#SUBTITLE:;
#ARTIST:Ryu☆;
#TITLETRANSLIT:;
#SUBTITLETRANSLIT:;
#ARTISTTRANSLIT:;
#GENRE:DDR;
#CREDIT:;
#BANNER:;
#BACKGROUND:;
#LYRICSPATH:;
#CDTITLE:;
#MUSIC:bass 2 bass (dj MAX STEROID Remix).ogg;
#OFFSET:1.300000;
#SAMPLESTART:22.037121;
#SAMPLELENGTH:15.000000;
#LASTBEATHINT:0.817504;
#SELECTABLE:YES;
#BPMS:0.000000=185.000000
,312.000000=92.500000
,334.000000=185.000000
;
#STOPS:
;
#BGCHANGES:;
#KEYSOUNDS:;
#ATTACKS:;

//---------------dance-single - ----------------
#NOTES:
     dance-single:
     :
     Easy:
     7:
     0.363103,0.580552,0.180520,0.216624,0.000000,352.000000,327.000000,25.000000,30.000000,0.000000,0.000000,0.363103,0.580552,0.180520,0.216624,0.000000,352.000000,327.000000,25.000000,30.000000,0.000000,0.000000:
0000
0000
0000
0000
,
0000
0000
0000
0000
,
0000
0000
0000
0000
,
0000
0000
0000
0000
,
0000
0000
0000
0000
,
2000
3000
0200
0300
,
0020
0030
0002
0003
,
0002
0003
0020
0030
,
0200
0300
2000
3000
,
0002
0000
0000
0000
,
2003
0000
0000
0000
,
3020
0000
0000
0000
,
0230
0000
0000
0000
,
0301
0000
0001
0100
,
1000
0000
1000
0100
,
0001
0000
0001
0010
,
1000
0000
1000
0010
,
0002
0000
2000
3003
,
0001
1100
0100
1000
,
0010
0100
0001
1000
,
0010
0011
0001
0100
,
0010
1000
0001
1000
,
0010
0110
1000
0010
,
0001
0100
0010
1000
,
0001
1001
1000
0010
,
0100
0001
1000
0010
,
0100
0100
0010
0010
,
1000
0001
0100
0010
,
0001
0001
1000
1000
,
0010
1000
0001
0100
,
0010
0010
0100
0100
,
0001
1000
0010
0100
,
0001
0001
1000
1000
,
0010
1000
0010
0100
,
0001
1000
0100
1000
,
0001
0010
1000
0010
,
1000
0001
0010
0001
,
0100
0010
1000
1001
,
0001
0100
0010
1000
,
0010
1000
0001
0100
,
0010
1000
0001
0100
,
0010
0010
0100
0100
,
0220
0000
0000
0000
,
0000
0000
0000
0330
,
0001
0100
1000
0110
,
1000
0010
0001
1001
,
0100
1000
0010
0001
,
0100
0100
0010
0010
,
0001
0100
0010
1010
,
1000
0010
0100
0101
,
0001
0100
0010
1000
,
0001
0001
1000
1000
,
0010
1000
0001
0100
,
0010
1000
0001
1001
,
0001
0100
0010
1000
,
0010
0100
0001
1000
,
0010
0100
0010
1000
,
0001
0100
0010
0110
,
1000
0001
0100
0010
,
1000
1000
0001
0001
,
1000
0100
0000
0100
,
0001
0100
0000
0100
,
1000
0010
0000
0010
,
0001
0010
0000
0010
,
1000
0100
0000
0100
,
0001
0100
0000
0100
,
1000
0010
0000
0010
,
0001
0010
0100
1000
,
2002
0000
0000
0000
,
0000
0000
0000
3003
,
0001
0100
1000
0000
,
1000
0010
0001
0000
,
1000
0010
0100
0000
,
0001
0100
0010
0000
,
1000
0010
0100
0001
,
0001
0100
0010
1000
,
0001
0001
1000
1000
,
0010
0100
0010
0100
,
0220
0000
0000
0330
0002
0000
0103
0000
,
2000
3100
0002
0013
,
2000
3010
1001
0110
,
0001
0100
1000
0000
1001
0000
0110
0000
,
1000
0010
0001
0000
0220
0000
0000
0330
,
2002
0000
0000
3003
0001
0000
0100
0000
,
1000
1010
1000
0010
,
0001
0101
0001
1000
,
0010
0100
0001
0001
,
1000
1000
0001
0010
,
1000
1010
1000
0001
,
0100
0101
0001
0100
,
0010
1000
0001
0001
,
1000
1000
0001
0100
,
0010
1000
1000
0010
,
0100
0001
1000
0010
,
0100
0001
0001
0100
,
0010
1000
0001
1000
,
0010
0100
0001
1000
,
0001
1000
0010
0100
,
0001
1000
0010
0010
,
0100
0100
0220
0000
,
0000
0000
0330
0000
;

//---------------dance-single - ----------------
#NOTES:
     dance-single:
     :
     Beginner:
     4:
     0.143384,0.215541,0.036104,0.000000,0.000000,139.000000,134.000000,5.000000,0.000000,0.000000,0.000000,0.143384,0.215541,0.036104,0.000000,0.000000,139.000000,134.000000,5.000000,0.000000,0.000000,0.000000:
0000
0000
0000
0000
,
0000
0000
0000
0000
,
0000
0000
0000
0000
,
0000
0000
0000
0000
,
0000
0000
0000
0000
,
0000
0000
0000
0000
,
0000
0000
0000
0000
,
0000
0000
0000
0000
,
0000
0000
0000
0000
,
1000
0000
0000
0000
,
0010
0000
0000
0000
,
0100
0000
0000
0000
,
0001
0000
0000
0000
,
0001
0000
0000
0000
,
0100
0000
0000
0000
,
0010
0000
0000
0000
,
1000
0000
0000
0000
,
0010
0000
0000
0000
,
1000
0000
1000
0000
,
0100
0000
0100
0000
,
1000
0000
1000
0000
,
0100
0000
0100
0000
,
0001
0000
0001
0000
,
0010
0000
0010
0000
,
0001
0000
0001
0000
,
0010
0000
0010
0000
,
1000
0000
0000
0000
,
0100
0000
0100
0000
,
0010
0000
0000
0000
,
0001
0000
0001
0000
,
1000
0000
0000
0000
,
0100
0000
0100
0000
,
0010
0000
0000
0000
,
0010
0000
0010
0000
,
0001
0000
1000
0000
,
0001
0000
0000
0000
,
1000
0000
0001
0000
,
1000
0000
0000
0000
,
0010
0000
0100
0000
,
0010
0000
0000
0000
,
0100
0000
0010
0000
,
0100
0000
0000
0000
,
1001
0000
0000
0000
,
0000
0000
0000
0000
,
1000
0000
0100
0000
,
1000
0000
0100
0000
,
1000
0000
0010
0000
,
1000
0000
0010
0000
,
0001
0000
0100
0000
,
0001
0000
0100
0000
,
0001
0000
0010
0000
,
0001
0000
0010
0000
,
0100
0000
0100
0000
,
0010
0000
0000
0000
,
1000
0000
1000
0000
,
0001
0000
0000
0000
,
0010
0000
0010
0000
,
0100
0000
0000
0000
,
0001
0000
0001
0000
,
1000
0000
0000
0000
,
1000
0000
0000
0000
,
0100
0000
0000
0000
,
0010
0000
0000
0000
,
0001
0000
0000
0000
,
1000
0000
0000
0000
,
0010
0000
0000
0000
,
0100
0000
0000
0000
,
0001
0000
0000
0000
,
1001
0000
0000
0000
,
0000
0000
0000
0000
,
0100
0000
0000
0000
,
0010
0000
0000
0000
,
0100
0000
0000
0000
,
0010
0000
0000
0000
,
1000
0000
0000
0000
,
0001
0000
0000
0000
,
1000
0000
0000
0000
,
0001
0000
0000
0000
,
1001
0000
0100
0000
,
0100
0000
0010
0000
,
0010
0000
1000
0000
,
1000
0000
0001
0000
,
0001
0000
1001
0000
,
0000
0000
1000
0000
,
1000
0000
0010
0000
,
0010
0000
0100
0000
,
0100
0000
0001
0000
,
0001
0000
0001
0000
,
0100
0000
0010
0000
,
1000
0000
0001
0000
,
0010
0000
0100
0000
,
1000
0000
0001
0000
,
0001
0000
0100
0000
,
0000
0000
1000
0000
,
1000
0000
0010
0000
,
0000
0000
0100
0000
,
0100
0000
0001
0000
,
0000
0000
0010
0000
,
0010
0000
1000
0000
,
0000
0000
1001
0000
;

//---------------dance-single - ----------------
#NOTES:
     dance-single:
     :
     Medium:
     10:
     0.538465,0.653120,0.454910,0.216624,0.028883,522.000000,459.000000,63.000000,30.000000,0.000000,0.000000,0.538465,0.653120,0.454910,0.216624,0.028883,522.000000,459.000000,63.000000,30.000000,0.000000,0.000000:
0000
0000
0000
0000
,
0000
0000
0000
0000
,
0000
0000
0000
0000
,
0000
0000
0000
0000
,
0000
0000
0000
0000
,
2000
3100
0100
0010
,
0020
0031
0002
1003
,
0002
0203
0320
1030
,
0001
0000
0100
0000
0010
1000
0001
0000
,
0200
0000
0310
1000
,
0002
0000
1003
0100
,
0020
0000
0130
0001
,
2000
0000
3010
0100
,
0001
1000
0010
0100
,
0001
1000
1000
0010
,
0100
1000
0001
0010
,
1000
0010
0100
0100
,
0002
0000
1003
1000
,
0110
0000
0001
0000
1000
0010
0100
0000
,
0001
1000
1001
0010
,
0100
0000
0001
0000
0010
0100
0001
0000
,
1000
0010
1000
1001
,
0110
0000
1000
0000
0100
0010
0100
0000
,
0001
1000
0010
1001
,
0100
0000
1000
0000
0010
0100
0001
0000
,
1000
0010
0100
1100
,
1000
0010
0100
0000
0001
0000
1001
0000
,
0001
0100
0010
0000
1000
0000
1001
0000
,
1000
0100
0001
0000
1000
0000
1010
0000
,
1000
0001
0010
0000
0001
0000
0011
0000
,
0001
0100
1000
0000
0101
0000
1000
0000
,
1000
0100
0001
0000
1000
0000
0100
0000
,
0001
1000
0010
0000
1100
0000
0001
0000
,
0100
0010
1000
0000
0001
0000
0100
0000
,
0020
0000
0100
0000
0001
0030
0100
0000
,
0001
1000
0010
0000
1000
0001
0100
0000
,
2000
0100
0010
3001
,
0100
0010
1000
0000
0001
0100
0010
0000
,
0200
0010
1000
0310
,
0001
1000
0010
0000
0010
0100
0001
0000
,
0020
0001
0100
1030
,
0001
0100
0010
0000
1000
0001
0100
0000
,
2000
0000
3002
0000
,
0203
0000
0000
0000
0320
0000
0000
0030
,
1000
0001
0100
0000
0010
0000
1001
0000
,
0100
0010
1000
0001
0100
0000
1001
0000
,
0001
0100
0010
0000
1000
0000
1010
0000
,
1000
0010
0100
0001
1000
0000
1001
0000
,
0001
0100
0010
0000
1000
0000
1001
0000
,
0001
0100
1000
0100
0001
0000
1001
0000
,
0010
0100
0001
0000
1000
0000
1010
0000
,
1000
0010
0001
0010
1000
0000
1001
0000
,
1000
0100
0010
0000
0001
0000
1001
0000
,
0001
0100
0010
1000
0001
0000
1001
0000
,
1000
0010
0100
0000
0001
0000
0011
0000
,
0001
0100
0010
1000
0100
0000
1100
0000
,
0001
0100
0010
0000
1000
0000
1100
0000
,
1000
0010
0100
0001
1000
0000
1001
0000
,
0001
0100
0010
1000
0001
0000
1001
0000
,
1000
0010
0100
0001
1000
0000
1001
0000
,
0200
0010
1000
0310
,
0001
1000
0010
0000
0010
1000
0001
0000
,
0020
0100
0001
1030
,
0001
1000
0010
0000
0010
1000
0001
0000
,
0200
0001
1000
0310
,
1000
0001
0100
0000
0100
0001
1000
0000
,
0020
1000
0001
0130
,
0001
0100
1000
0000
1000
0100
0001
0000
,
0020
0000
0000
0000
,
0100
0100
0100
0130
,
0001
0000
0000
0100
0000
0000
1000
0000
0000
0000
0000
0000
1001
0000
0000
0000
,
1000
0000
0000
0010
0000
0000
0001
0000
0000
0000
0000
0000
1001
0000
0000
0000
,
0110
0000
0000
1000
0000
0000
0001
0000
0000
0000
0000
0000
1100
0000
0000
0000
,
0110
0000
0000
0001
0000
0000
1000
0000
0000
0000
0000
0000
0011
0000
0000
0000
,
1000
0000
0000
0100
0000
0000
0001
0000
0000
0000
0000
0000
1100
0000
0000
0000
,
0001
0000
0000
0100
0000
0000
1000
0000
0000
0000
0000
0000
0011
0000
0000
0000
,
0001
0000
0000
1000
0000
0000
0010
0000
0000
0000
0000
0000
0110
0000
0000
0000
,
1000
0000
0000
0001
0000
0000
0100
0000
0000
0000
0000
0000
1001
0000
0000
0000
,
0120
0000
0130
1001
,
0100
1000
1001
0000
0100
0000
1001
0000
,
0010
0001
1001
0000
0110
0000
1001
0000
,
0010
0100
0011
0000
0110
0000
1001
0000
,
0100
0010
1100
0000
0022
0000
0000
0033
,
2200
0000
0000
3300
0001
0100
1000
0000
,
0100
0000
1001
0000
1000
0010
0100
0001
,
1000
0000
1001
0000
0001
0100
0010
0000
,
1000
0000
1010
0000
0001
1000
0001
0100
,
0010
0000
0110
0000
0001
0100
1000
0000
,
0001
0000
1001
0000
1000
0010
0100
0001
,
1000
0000
1001
0000
0001
0100
1000
0000
,
0010
0000
0110
0000
0001
0100
0010
1000
,
0001
1000
0000
1001
0001
0010
0100
1000
,
0010
0000
0101
0000
1000
0010
0100
0001
,
1000
0000
1001
0000
0001
0100
1000
0100
,
0001
0100
1000
0100
0001
0010
1000
0010
,
0001
0010
1000
0010
0001
0100
0010
1000
,
0001
0000
1001
0000
1000
0010
0100
0001
,
1000
0000
1001
0000
1000
0100
0001
0100
,
1000
0100
0001
0100
1000
0010
0001
0010
,
1000
0010
0001
0010
0200
0000
0000
0000
,
0000
0000
0300
0000
;

//---------------dance-single - ----------------
#NOTES:
     dance-single:
     :
     Hard:
     14:
     0.687007,1.015965,0.368260,0.079429,0.119143,666.000000,615.000000,51.000000,11.000000,0.000000,0.000000,0.687007,1.015965,0.368260,0.079429,0.119143,666.000000,615.000000,51.000000,11.000000,0.000000,0.000000:
// measure 0
0000
0000
0000
0000
,  // measure 1
0000
0000
0000
0000
,  // measure 2
0000
0000
0000
0000
,  // measure 3
0000
0000
0000
0000
,  // measure 4
0000
0000
0000
0000
,  // measure 5
1100
0100
0110
0010
,  // measure 6
0011
0001
1001
0001
,  // measure 7
1100
0101
1100
0101
,  // measure 8
0001
1000
0010
0000
0010
1000
0001
0000
,  // measure 9
0200
0010
1000
0310
,  // measure 10
0001
1000
0010
0000
0010
1000
0001
0100
,  // measure 11
0020
0100
0001
0130
,  // measure 12
0001
1000
0010
0000
1000
0001
0100
0010
,  // measure 13
2000
0000
0100
3001
,  // measure 14
0010
0100
0001
0000
0001
1000
0010
0100
,  // measure 15
0002
0000
0100
1003
,  // measure 16
0001
0100
0010
0000
1000
0010
0100
0001
,  // measure 17
2000
0001
0001
3001
,  // measure 18
0001
0100
1000
0100
0000
0001
1000
0010
,  // measure 19
0100
0001
1000
0010
0100
0010
0100
0001
,  // measure 20
1000
0010
1000
0100
0000
0001
0100
0010
,  // measure 21
1000
0100
0010
0001
0000
0011
0000
0110
,  // measure 22
0010
1000
0001
0100
0000
0010
1000
0001
,  // measure 23
0010
1000
0100
0010
0001
0010
0100
1000
,  // measure 24
0001
0100
0010
1000
0000
0010
1000
0001
,  // measure 25
0000
0001
1000
0100
0010
0010
0000
0110
,  // measure 26
0001
1000
0010
1000
0100
0010
0100
0001
,  // measure 27
0010
0100
1000
0100
0001
0000
1100
0000
,  // measure 28
0001
0100
0010
1000
0000
0010
1000
0010
,  // measure 29
0100
0001
0010
1100
0000
0101
0000
1001
,  // measure 30
0010
0100
0010
1000
0000
0010
1000
0001
,  // measure 31
0010
0100
1000
0010
0100
0001
0001
1000
,  // measure 32
0010
0100
0001
0010
0000
0100
0010
1000
,  // measure 33
0000
0001
1000
0010
0100
0001
0000
0101
,  // measure 34
0001
0100
1000
0000
1100
0000
0100
0000
,  // measure 35
0001
1000
0010
0000
0011
0000
1010
0000
,  // measure 36
0001
1000
0010
0100
0001
1000
1001
0000
,  // measure 37
0001
0100
1000
0100
0001
0100
0110
0000
,  // measure 38
0001
0010
0100
0000
1010
0000
1001
0000
,  // measure 39
0010
1000
0100
0000
1001
0000
0101
0000
,  // measure 40
0001
0100
0010
0000
1000
0010
0100
0000
,  // measure 41
0001
0100
0010
1000
0100
0010
0001
0010
,  // measure 42
0200
0010
1000
0010
,  // measure 43
0001
0010
1000
0310
,  // measure 44
1000
0010
0001
0010
0000
1000
0001
0100
,  // measure 45
0010
1000
0001
0100
0010
0100
0010
1000
,  // measure 46
0001
0100
0001
0010
0000
1000
0010
0100
,  // measure 47
0001
0010
0100
1000
0000
1100
0000
0110
,  // measure 48
0100
0001
1000
0010
0000
0100
0001
1000
,  // measure 49
0100
0001
0010
0100
1000
0100
0010
0001
,  // measure 50
1000
0010
0100
0001
0000
0100
0001
1000
,  // measure 51
0000
1000
0001
0010
0100
0100
0000
0110
,  // measure 52
1000
0001
0100
0001
0010
0100
0010
1000
,  // measure 53
0100
0010
0001
0010
1000
0000
0011
0000
,  // measure 54
1000
0010
0100
0001
0000
0100
0001
0100
,  // measure 55
0010
1000
0100
0011
0000
1010
0000
1001
,  // measure 56
0100
0010
0100
0001
0000
0100
0001
1000
,  // measure 57
0100
0010
0001
0100
0010
1000
1000
0001
,  // measure 58
0100
0010
1000
0100
0000
0010
0100
0001
,  // measure 59
0000
1000
0001
0100
0010
1000
0000
1010
,  // measure 60
1000
1100
0100
0110
,  // measure 61
0001
0100
0010
0000
1000
0010
0100
0000
,  // measure 62
0011
0001
1001
1100
,  // measure 63
0100
0010
1000
0000
0001
0100
0010
0000
,  // measure 64
1000
0001
0100
0001
0100
1000
0010
0000
,  // measure 65
1000
0010
0001
0010
0001
1000
0010
0000
,  // measure 66
0001
1000
0100
0001
0100
1000
0000
0000
,  // measure 67
1001
1000
0010
0100
0001
0010
0011
0000
,  // measure 68
0210
0000
0000
0000
,  // measure 69
0010
1000
0010
1300
,  // measure 70
0010
0000
0000
1000
0000
0000
0001
0000
0000
0000
0100
0000
0010
0000
1000
0000
,  // measure 71
0001
0000
0000
0100
0000
0000
0010
0000
0000
0000
0001
0000
0010
0000
1000
0000
,  // measure 72
0100
0000
0000
0001
0000
0000
1000
0000
0000
0000
0010
0000
1000
0000
0100
0000
,  // measure 73
0001
0000
0000
1000
0000
0000
0010
0000
0000
0000
0001
0000
0100
0000
0010
0000
,  // measure 74
1000
0000
0000
1000
0000
0000
0010
0000
0000
0000
0100
0010
0100
0000
0010
0100
,  // measure 75
0001
0000
0000
1000
0000
0000
0010
0000
0000
0000
1000
0001
1000
0000
0001
0100
,  // measure 76
0010
0000
0000
1000
0000
0000
0001
0000
0000
0000
1000
0010
0100
0000
0001
0100
,  // measure 77
0010
0000
0000
1000
0000
0000
0001
0000
0000
0000
0100
0010
1000
0000
0001
0100
,  // measure 78
0020
0000
0000
0000
0000
0000
0000
0000
0130
0000
0001
1000
0010
0000
1000
0000
,  // measure 79
0001
0000
0000
0100
0000
0000
0010
0000
0110
0000
0000
0000
0001
0000
0000
0000
1000
0000
0010
0000
0100
0000
0001
0000
0010
0000
0000
0000
1000
0000
0000
0000
,  // measure 80
0001
0000
0000
1000
0000
0000
0001
0000
1001
0000
0000
0000
0010
0000
0000
0000
1000
0000
0010
0000
0100
0000
0001
0000
0010
0000
0100
0000
1000
0000
0000
0000
,  // measure 81
0010
0000
0000
0100
0000
0000
0001
0000
1001
0000
0000
0000
0100
0000
0000
0000
0010
0000
1000
0000
0010
0000
0100
0000
0001
0000
0010
0000
0100
0000
0000
0000
,  // measure 82
1000
0000
0000
0100
0000
0000
0010
0000
0101
0000
0000
0000
1000
0000
0000
0000
2100
0000
0000
0000
0000
0000
0000
0000
0000
0000
0000
0000
0000
0000
0000
0000
,  // measure 83
0100
0000
3010
0000
0001
0100
1000
0010
,  // measure 84
0000
1000
0010
0100
0001
0001
0100
0100
,  // measure 85
0010
1000
0001
0100
0010
1000
0100
0001
,  // measure 86
0000
0010
1000
0100
1000
1000
0010
0010
,  // measure 87
0100
0001
0010
1000
0001
0100
0010
1000
,  // measure 88
0000
0001
0010
0100
1000
0001
0001
1000
,  // measure 89
0010
0100
0001
0010
1000
0100
0010
0001
,  // measure 90
0000
0010
0100
0001
1000
0010
0010
0100
,  // measure 91
1000
1100
0000
0011
0001
1000
0010
1000
,  // measure 92
0100
0010
0100
0001
0010
0100
1000
0010
,  // measure 93
1000
0100
0010
0001
0010
0000
0011
0000
,  // measure 94
0100
0000
1100
0000
1000
0001
0100
0000
,  // measure 95
0010
1000
0001
0000
1000
0010
0100
0001
,  // measure 96
0010
0100
1000
0010
1000
0100
0001
0010
,  // measure 97
0100
1000
0010
0100
0001
1000
0010
0000
,  // measure 98
0010
1000
0001
0000
1000
0010
0100
0001
,  // measure 99
0010
0100
1000
0010
0220
0000
0000
0000
,  // measure 100
0000
0000
0330
0000
;
