#TITLE:airflow;
#SUBTITLE:;
#ARTIST:Mr.T;
#TITLETRANSLIT:;
#SUBTITLETRANSLIT:;
#ARTISTTRANSLIT:;
#GENRE:beatmania IIDX;
#CREDIT:;
#BANNER:;
#BACKGROUND:;
#LYRICSPATH:;
#CDTITLE:;
#MUSIC:airflow.ogg;
#OFFSET:0.565000;
#SAMPLESTART:69.180374;
#SAMPLELENGTH:15.000000;
#SELECTABLE:YES;
#BPMS:0.000000=148.000000
,248.000000=142.000000
,252.000000=137.000000
,256.000000=131.000000
,258.000000=118.000000
,259.000000=105.000000
,260.000000=124.000000
,261.000000=109.000000
,262.000000=95.000000
,263.000000=75.000000
,265.500000=40.000000
;
#STOPS:
;
#BGCHANGES:1.000=airflow.avi=1.000=0=0=0=StretchNoLoop====,
99999=-nosongbg-=1.000=0=0=0 // don't automatically add -songbackground-
;
#KEYSOUNDS:;
#ATTACKS:;

//---------------dance-single - ----------------
#NOTES:
     dance-single:
     :
     Hard:
     9:
     0.404723,0.522345,0.236088,0.087440,0.039348,324.000000,297.000000,27.000000,10.000000,0.000000,0.000000,0.404723,0.522345,0.236088,0.087440,0.039348,324.000000,297.000000,27.000000,10.000000,0.000000,0.000000:
0000
0000
0000
0000
,
0000
0000
0000
0000
,
0000
0000
0000
0000
,
0000
0000
0000
0000
,
0000
0000
0000
0000
0000
0000
0000
0001
,
2002
0000
0000
0000
,
3003
0000
0000
0000
0000
0000
0000
0100
,
0220
0000
0000
0000
,
0330
0000
0010
0010
,
0001
0000
0010
0000
0100
1000
0100
0000
,
1000
0010
0100
0101
,
0001
0000
0010
0000
1000
0100
1000
0000
,
0010
0100
0001
1001
,
0100
0000
1000
0000
0010
0001
0010
0000
,
0100
0010
1000
1100
,
1000
0000
0010
0000
0001
1000
0001
0000
,
0010
0000
1000
0000
0100
0010
0100
0010
,
0001
0000
0010
0000
0100
0001
0010
0000
,
1000
0000
0010
0000
0100
0010
1000
0000
,
0100
0000
1000
0000
0100
0001
1000
0000
,
0010
0000
1000
0000
0100
0001
0010
0000
,
1000
0000
0001
0000
0100
0010
1000
0000
,
0100
0000
1000
0000
0001
0010
1000
0000
,
1000
0100
0010
0000
0001
0010
0100
0000
,
2002
0000
0000
0000
3000
0000
1003
1000
,
0100
0000
1100
0000
0010
0100
0010
0000
,
0001
0000
0001
0000
0010
0000
0100
0010
,
0001
0000
0011
0000
0100
0010
0100
0000
,
1000
0000
1000
0000
0100
0000
0010
0100
,
1000
0100
0010
0000
0001
0010
0100
0000
,
1000
0001
0100
0110
,
0001
0000
1000
0010
0100
0000
0001
0100
,
0010
0000
0000
0000
1000
0000
0000
0000
0100
0000
0000
0000
0001
0000
0010
0001
,
0010
0010
0100
1000
,
0001
0000
0000
0000
0100
0000
0000
0000
0010
0000
0000
0000
1000
0000
0100
1000
,
0100
1000
0010
0100
,
1001
0000
0000
0000
1100
0000
0000
0000
0101
0000
0000
0000
0010
0000
0001
0010
,
0001
0010
1000
0100
,
0011
0000
0000
0000
0100
0000
0000
0000
0110
0000
0000
0000
1000
0000
0100
1000
,
0100
1000
0100
0010
,
0002
0000
0000
0000
0100
0000
0000
0000
0013
0000
0000
0000
0100
0000
1000
0100
,
2000
0000
0000
0000
0010
0000
0000
0000
3100
0000
0000
0000
0100
0000
0010
0200
,
0020
0000
0000
0330
,
0001
0000
0100
0000
1000
0100
1000
0100
,
0010
0001
0100
0010
,
1000
0000
0010
0000
0001
0010
0001
0010
,
0100
1000
0100
0010
,
0001
0000
0010
0000
1000
0100
0010
0001
,
0010
0100
0001
0010
,
1000
0000
0100
0000
0001
0010
0100
1000
,
0100
0000
0010
0000
1000
0001
1000
0001
,
0110
0000
0100
0000
1000
0100
0010
0001
,
0011
0000
0001
0000
0100
0010
1000
0001
,
0110
0000
0100
0000
0001
0010
0100
1000
,
1100
0000
1000
0000
0100
1000
0001
0010
,
1001
0010
0110
0100
,
1100
0000
1000
0000
1001
0000
0001
1000
,
1010
0000
1000
0010
0100
0001
0010
0001
,
0011
0000
0001
0100
0010
1000
0100
1000
,
1100
0000
1000
0010
0100
0001
0010
0001
,
0011
0000
0000
0000
0000
0000
0001
0010
,
0100
0000
0000
0000
1000
0000
0000
0000
0100
0000
0000
0000
0010
0000
0100
0010
,
0100
0000
0000
0000
0001
0000
0000
0000
1000
0000
0000
0000
0000
0000
0001
0010
,
0100
0000
0000
0000
0000
0000
0000
0000
1000
0000
0000
0000
0001
0000
0100
0010
,
0100
0000
0000
0000
0001
0000
0000
0010
,
0100
0000
1000
0000
0100
0000
0010
0100
,
1001
0000
0000
0100
0000
0000
0000
0000
;

//---------------dance-single - ----------------
#NOTES:
     dance-single:
     :
     Medium:
     7:
     0.303542,0.348230,0.166136,0.306040,0.000000,243.000000,224.000000,19.000000,35.000000,0.000000,0.000000,0.303542,0.348230,0.166136,0.306040,0.000000,243.000000,224.000000,19.000000,35.000000,0.000000,0.000000:
0000
0000
0000
0000
,
0000
0000
0000
0000
,
0000
0000
0000
0000
,
0000
0000
0000
0000
,
0000
0000
0000
0000
,
2002
0000
0000
0000
,
3003
0000
0000
0000
,
0020
0000
0000
0000
,
0030
0000
0100
0100
,
1000
0000
0100
0000
0010
0001
0010
0000
,
0100
1000
1001
0000
,
0001
0000
0010
0000
1000
0100
1000
0000
,
0010
0100
2002
3003
,
1000
0000
0100
0000
0010
0001
0010
0000
,
0100
0000
0010
0000
1000
0100
1000
0000
,
0010
1000
0001
0100
,
2200
3300
0022
0033
,
0001
0000
0100
0000
1000
0100
1000
0000
,
0010
0100
0220
0330
,
1000
0000
0100
0000
0001
0010
0001
0000
,
0100
0010
2002
3003
,
1000
0100
0220
0330
,
0001
0010
0220
0330
,
1000
0100
0010
0001
,
2002
0000
0003
3000
,
0100
0000
1000
0000
0010
0010
0010
0000
,
1000
0100
0001
0010
,
0100
0000
0001
0000
1000
1000
1000
0000
,
0100
1000
0010
0001
,
1000
0000
0100
0000
0001
0001
0001
0000
,
0100
0010
1000
0001
,
0010
0000
1000
0000
0100
0100
0100
0000
,
0020
0000
0000
0030
,
0100
1000
0010
0001
,
0100
0100
0220
0330
,
0001
0100
0010
1000
,
0001
0000
0001
0000
2002
0000
3003
0100
,
1000
0100
1000
0010
,
0001
0100
0010
1000
,
0100
0000
0000
0001
0010
0000
0100
0000
,
1000
0000
0000
0100
1000
0000
0100
0000
,
0010
0000
0000
1000
0001
0000
0100
0000
,
0220
0000
0000
0330
,
0001
0000
0100
0000
1000
0100
1000
0000
,
0010
0000
0100
0000
0001
0010
0001
0000
,
0100
1000
0010
0001
,
2001
0001
0200
3300
,
1000
0000
0010
0000
0001
0010
0001
0000
,
0100
0000
0010
0000
1000
0100
1000
0000
,
0010
1000
0001
0100
,
0120
1000
2000
3030
,
1000
0000
0100
0000
0010
0001
0010
0000
,
0100
0001
0010
0100
,
0001
0000
0010
0000
1000
0100
1000
0000
,
1000
0100
0010
0100
,
1000
0010
0100
0001
,
0001
0100
0010
1000
,
1002
0100
0010
0013
,
2001
0010
0100
3100
,
1000
0000
0100
0000
0010
0010
0010
0000
,
0220
0000
0330
0000
,
0001
0100
1000
0000
,
1000
0100
0001
0000
,
0010
1000
0100
0010
,
0001
0000
0100
0000
1000
0000
0010
0010
,
0020
0000
0000
0000
,
0130
0000
0000
1001
0000
0000
0000
0000
;

//---------------dance-single - ----------------
#NOTES:
     dance-single:
     :
     Easy:
     4:
     0.197365,0.290192,0.148648,0.209856,0.000000,158.000000,141.000000,17.000000,24.000000,0.000000,0.000000,0.197365,0.290192,0.148648,0.209856,0.000000,158.000000,141.000000,17.000000,24.000000,0.000000,0.000000:
0000
0000
0000
0000
,
0000
0000
0000
0000
,
0000
0000
0000
0000
,
0000
0000
0000
0000
,
0000
0000
0000
0000
,
2002
0000
0000
0000
,
3003
0000
0000
0000
,
0220
0000
0000
0000
,
0330
0000
0000
0000
,
1000
0000
0100
0010
,
0001
0000
0100
0000
,
0001
0000
0010
0100
,
1000
0000
0010
0000
,
0100
0000
1000
0100
,
0001
0000
0010
0000
,
0001
0000
0001
0010
,
1000
0100
0100
0010
,
2002
3003
0000
0100
,
0010
0000
0100
0001
,
2002
3003
0000
0010
,
0100
0000
0100
1000
,
2002
3003
2200
3300
,
0022
0033
0220
0330
,
1000
0100
0010
0001
,
2002
0000
0000
3003
,
0100
0000
0100
0000
,
1000
0000
1000
0000
,
0010
0010
0001
0001
,
0010
0000
0100
0000
,
0010
0000
0010
0000
,
0001
0000
0001
0000
,
1000
1000
0100
0100
,
1000
0000
0100
0000
,
0010
0010
0010
0000
,
1000
0001
1000
0000
,
0100
0100
0100
0000
,
0001
1000
0001
0000
,
0100
1000
0100
0000
,
0010
0001
0010
0000
,
0100
0000
1000
0000
,
0010
0000
0001
0000
,
0100
0000
0010
0000
,
0220
0000
0000
0330
,
1000
0000
0100
0010
,
0001
0000
0100
0000
,
0010
0000
0010
0100
,
1000
0000
0100
0000
,
0010
0000
1000
0001
,
0100
0000
0010
0000
,
0001
0000
0001
1000
,
0100
0000
0010
0000
,
0100
0000
1000
0100
,
0010
0000
0001
0000
,
0100
0000
0001
0010
,
0100
0000
1000
0001
,
1001
0000
0100
0010
,
0110
0000
1000
0100
,
1100
0000
0010
0000
,
0011
0000
0100
0000
,
1100
0000
0010
0000
,
0022
0000
0033
0000
,
0100
0000
0100
0000
,
0010
0000
0010
0000
,
1000
0000
1000
0000
,
0001
0000
0001
0000
,
2002
0000
0000
0000
,
0003
0000
0000
3000
0000
0000
0000
0000
;

//---------------dance-single - ----------------
#NOTES:
     dance-single:
     :
     Beginner:
     2:
     0.108676,0.173131,0.017488,0.034976,0.000000,87.000000,85.000000,2.000000,4.000000,0.000000,0.000000,0.108676,0.173131,0.017488,0.034976,0.000000,87.000000,85.000000,2.000000,4.000000,0.000000,0.000000:
// measure 0
0000
0000
0000
0000
,  // measure 1
0000
0000
0000
0000
,  // measure 2
0000
0000
0000
0000
,  // measure 3
0000
0000
0000
0000
,  // measure 4
0000
0000
0000
0000
,  // measure 5
0000
0000
0000
0000
,  // measure 6
0000
0000
0000
0000
,  // measure 7
0000
0000
0000
0000
,  // measure 8
0000
0000
0000
0000
,  // measure 9
1000
0000
0000
0000
,  // measure 10
1000
0000
0100
0000
,  // measure 11
0001
0000
0000
0000
,  // measure 12
0001
0000
0010
0000
,  // measure 13
1000
0000
0000
0000
,  // measure 14
1000
0000
0100
0000
,  // measure 15
0001
0000
0000
0000
,  // measure 16
0001
0000
0010
0000
,  // measure 17
0100
0000
0000
0000
,  // measure 18
0100
0000
1000
0000
,  // measure 19
0010
0000
0000
0000
,  // measure 20
0010
0000
0001
0000
,  // measure 21
0100
0000
0000
0000
,  // measure 22
0100
0000
1000
0000
,  // measure 23
0010
0000
0000
0000
,  // measure 24
0010
0000
0001
0000
,  // measure 25
0100
0000
0100
0000
,  // measure 26
1000
0000
0000
0000
,  // measure 27
0100
0000
0100
0000
,  // measure 28
0001
0000
0000
0000
,  // measure 29
0010
0000
0010
0000
,  // measure 30
1000
0000
0000
0000
,  // measure 31
0010
0000
0010
0000
,  // measure 32
0001
0000
0000
0000
,  // measure 33
0100
0000
1000
0000
,  // measure 34
0100
0000
0100
0000
,  // measure 35
0100
0000
0001
0000
,  // measure 36
0100
0000
0100
0000
,  // measure 37
0010
0000
1000
0000
,  // measure 38
0010
0000
0010
0000
,  // measure 39
0010
0000
0001
0000
,  // measure 40
0010
0000
0010
0000
,  // measure 41
0100
0000
0010
0000
,  // measure 42
0220
0000
0000
0330
,  // measure 43
1000
0000
0000
0000
,  // measure 44
0100
0000
0010
0000
,  // measure 45
0001
0000
0000
0000
,  // measure 46
0010
0000
0100
0000
,  // measure 47
1000
0000
0000
0000
,  // measure 48
0100
0000
0010
0000
,  // measure 49
0001
0000
0000
0000
,  // measure 50
0010
0000
0100
0000
,  // measure 51
0010
0000
0000
0000
,  // measure 52
0001
0000
1000
0000
,  // measure 53
0100
0000
0000
0000
,  // measure 54
1000
0000
0001
0000
,  // measure 55
0010
0000
0000
0000
,  // measure 56
0001
0000
1000
0000
,  // measure 57
0100
0000
0000
0000
,  // measure 58
1000
0000
0001
0000
,  // measure 59
0010
0000
0000
0000
,  // measure 60
0110
0000
0000
0000
,  // measure 61
0000
0000
0000
0000
,  // measure 62
1000
0000
0000
0000
,  // measure 63
0001
0000
0000
0000
,  // measure 64
2000
0000
0000
0000
,  // measure 65
0002
0000
0000
0000
,  // measure 66
3003
0000
0000
0000
;
