#TITLE:残酷な天使のテーゼ;
#SUBTITLE:;
#ARTIST:♪♪♪♪♪;
#TITLETRANSLIT:Zankoku na tenshi no these;
#SUBTITLETRANSLIT:;
#ARTISTTRANSLIT:;
#GENRE:Anime/Game;
#CREDIT:;
#BANNER:;
#BACKGROUND:;
#LYRICSPATH:;
#CDTITLE:;
#MUSIC:Zankoku na tenshi no these.ogg;
#OFFSET:1.649999;
#SAMPLESTART:67.000710;
#SAMPLELENGTH:15.000000;
#LASTBEATHINT:0.719780;
#SELECTABLE:YES;
#BPMS:0.000000=79.000000
,20.000000=128.000000
;
#STOPS:
;
#BGCHANGES:;
#KEYSOUNDS:;
#ATTACKS:;

//---------------dance-single - ----------------
#NOTES:
     dance-single:
     :
     Beginner:
     1:
     0.079615,0.119611,0.000000,0.000000,0.000000,53.000000,53.000000,0.000000,0.000000,0.000000,0.000000,0.079615,0.119611,0.000000,0.000000,0.000000,53.000000,53.000000,0.000000,0.000000,0.000000,0.000000:
// measure 0
0000
0000
0000
0000
,  // measure 1
0000
0000
0000
0000
,  // measure 2
0000
0000
0000
0000
,  // measure 3
1000
0000
0000
0000
,  // measure 4
0001
0000
0000
0000
,  // measure 5
0000
0000
0000
0000
,  // measure 6
1000
0000
0000
0000
,  // measure 7
0100
0000
0010
0000
,  // measure 8
0100
0000
0000
0000
,  // measure 9
0001
0000
1000
0000
,  // measure 10
0001
0000
0000
0000
,  // measure 11
0100
0000
0000
0000
,  // measure 12
1000
0000
0010
0000
,  // measure 13
0001
0000
0000
0000
,  // measure 14
1000
0000
0000
0000
,  // measure 15
0010
0000
0000
0000
,  // measure 16
0100
0000
0000
0000
,  // measure 17
0001
0000
0100
0000
,  // measure 18
1000
0000
0000
0000
,  // measure 19
0010
0000
0000
0000
,  // measure 20
1000
0000
0001
0000
,  // measure 21
0010
0000
0000
0000
,  // measure 22
0001
0000
0000
0000
,  // measure 23
0100
0000
0000
0000
,  // measure 24
1000
0000
0000
0000
,  // measure 25
0010
0000
0000
0000
,  // measure 26
1000
0000
0000
0000
,  // measure 27
0100
0000
0000
0000
,  // measure 28
0010
0000
0000
0000
,  // measure 29
0001
0000
1000
0000
,  // measure 30
0001
0000
0000
0000
,  // measure 31
0010
0000
0000
0000
,  // measure 32
0100
0000
0000
0000
,  // measure 33
1000
0000
0001
0000
,  // measure 34
1000
0000
0000
0000
,  // measure 35
0100
0000
0000
0000
,  // measure 36
1000
0000
0000
0000
,  // measure 37
0010
0000
0000
0000
,  // measure 38
0001
0000
0000
0000
,  // measure 39
0100
0000
0000
0000
,  // measure 40
1000
0000
0000
0000
,  // measure 41
0010
0000
0000
0000
,  // measure 42
1000
0000
0100
0000
,  // measure 43
1000
0000
0100
0000
,  // measure 44
0001
0000
0100
0000
,  // measure 45
0001
0000
0100
0000
;

//---------------dance-single - ----------------
#NOTES:
     dance-single:
     :
     Easy:
     5:
     0.214811,0.264228,0.063091,0.042061,0.005258,143.000000,137.000000,6.000000,4.000000,0.000000,0.000000,0.214811,0.264228,0.063091,0.042061,0.005258,143.000000,137.000000,6.000000,4.000000,0.000000,0.000000:
0000
0000
0000
0000
,
0000
0000
0000
0000
,
0000
0000
0000
0000
,
1000
0100
1000
0100
,
0001
0100
0002
0000
,
0000
0000
0000
0003
,
1000
0100
1000
0000
,
0001
0100
0001
0000
,
1000
0010
1000
0000
,
0001
0010
0001
0000
,
1010
0000
0000
0000
,
1000
0000
0100
0000
,
0010
0000
0001
0000
,
0100
0000
0010
0000
,
1000
0000
0100
0000
,
0010
0000
0001
0000
,
1000
0000
0010
0000
,
0100
0000
0001
0000
,
0100
0000
0000
0000
,
0010
1000
0010
0001
,
0100
0000
1000
0000
,
0010
0000
0100
0000
,
0001
0100
0001
0000
,
1000
0100
1000
0000
,
0010
0100
0010
0100
,
0002
1000
1000
1003
,
0010
1000
0100
0010
,
0100
0010
0001
0010
,
0100
0010
0100
1000
,
0100
1000
0010
0100
,
0001
0010
0100
0010
,
0001
0010
0100
0100
,
1000
0100
0010
0100
,
2000
0000
0100
3100
,
0001
0101
1000
0100
,
0001
0100
0010
0010
,
1000
1100
0010
0100
,
0001
0010
1000
0100
,
0001
1001
1000
0010
,
1000
0010
0100
0001
,
1000
1001
0001
0010
,
1000
0100
1000
0000
0020
0000
0000
0000
,
0130
0001
1000
0010
,
1000
0000
0100
0000
0001
0010
0001
0000
,
0010
1000
0010
0100
,
0001
0000
0000
0000
1000
0000
0000
0000
0010
0000
0000
0110
0000
0000
0000
0000
;

//---------------dance-single - ----------------
#NOTES:
     dance-single:
     :
     Medium:
     7:
     0.261379,0.288249,0.052576,0.210305,0.057834,174.000000,169.000000,5.000000,20.000000,0.000000,0.000000,0.261379,0.288249,0.052576,0.210305,0.057834,174.000000,169.000000,5.000000,20.000000,0.000000,0.000000:
0000
0000
0000
0000
,
0000
0000
0000
0000
,
0000
0000
0000
0000
,
1000
0000
0000
0000
0100
0000
0000
0000
1000
0000
0000
0010
0000
0000
0100
0000
,
0001
0000
0000
0000
0010
0000
0000
0000
0100
0000
0000
0020
0000
0000
0000
0000
,
0000
0000
0030
0000
,
1000
0000
0000
0000
0010
0000
0000
0000
1000
0000
0000
0001
0000
0000
1000
0000
,
0001
0010
0110
0000
,
1000
0000
0000
0000
0010
0000
0000
0000
1000
0000
0000
0001
0000
0000
1000
0000
,
0001
0100
0110
0000
,
2000
0100
3100
0010
,
0002
0100
0103
0010
,
2000
0000
3200
0000
,
0320
1000
1030
0001
,
0200
0010
0310
0000
,
0002
1000
1003
0000
,
1000
0100
0010
0001
,
2000
0010
3010
0001
,
0200
0010
0310
0000
,
0002
1000
1003
0100
,
2000
3010
0002
0103
,
2000
0100
3100
0000
,
0010
0000
0100
0001
0100
0000
0000
0000
,
0010
0000
0100
1000
0100
0000
0000
0000
,
1000
0100
0001
0010
,
2000
0001
0001
3001
,
1001
0000
0010
0000
1000
0010
0100
0000
,
0001
1000
0010
0100
,
1001
0000
0001
0000
0100
0001
0010
0000
,
2000
3200
0320
0032
,
0013
0000
0100
0000
0010
1000
0001
0000
,
0100
0000
0010
0000
1000
0001
0100
0000
,
1000
0010
0100
0001
,
2000
0000
0000
0000
0001
0000
0000
0000
3001
0000
0000
0010
0000
0000
0100
0000
,
0010
0001
1000
0100
,
0010
0000
0000
0000
1000
0000
0000
0000
0100
0000
0000
1000
0000
0000
0000
0000
,
0010
1000
0010
0100
,
0001
0000
0000
0000
0010
0000
0000
0000
0001
0000
0000
0010
0000
0000
0000
0000
,
0001
0010
1000
0100
,
0001
0000
0000
0000
0010
0000
0000
0000
1000
0000
0000
0001
0000
0000
0000
0000
,
0010
1000
0001
0100
,
1000
0000
0000
0000
0010
0000
0000
0000
0100
0000
0000
0001
0000
0000
0000
0000
,
0010
1000
0001
0010
,
0100
0000
0000
0000
0001
0000
0000
0000
1000
0000
0000
0001
0000
0000
0000
0000
,
0010
1000
0100
0001
,
1000
0000
0001
0000
1000
0000
0000
0000
0001
0000
0000
1001
0000
0000
0000
0000
;

//---------------dance-single - ----------------
#NOTES:
     dance-single:
     :
     Hard:
     10:
     0.386060,0.456395,0.220820,0.168244,0.141956,257.000000,236.000000,21.000000,16.000000,0.000000,0.000000,0.386060,0.456395,0.220820,0.168244,0.141956,257.000000,236.000000,21.000000,16.000000,0.000000,0.000000:
0000
0000
0000
0000
,
0000
0000
0000
0000
,
0000
0000
0000
0000
,
0101
0000
0000
0000
1100
0000
0000
0000
1001
0000
0000
0010
0000
0000
0100
0000
,
1000
0000
0000
0000
1000
0000
0100
0000
0001
0000
0000
0020
0000
0000
0000
0000
,
0000
0000
0000
0030
,
0001
0000
0000
0000
1000
0000
0000
0000
0100
0000
0000
1000
0000
0000
0010
0000
,
0100
0000
0001
0000
0010
0000
0100
0000
1000
0100
0000
1000
0000
0000
0000
0000
,
0010
0000
0000
0000
1000
0000
0000
0000
0001
0000
0000
0100
0000
0000
0010
0000
,
1000
0000
0100
0000
0010
0000
0001
0000
0010
0001
0000
0010
0000
0000
0000
0000
,
0200
0000
0010
0000
0310
0000
0001
1000
,
0020
0000
0100
0000
0130
0000
1000
0001
,
0200
0301
2000
3100
,
0010
0000
1000
0001
0200
0000
0010
0000
,
0310
0001
0010
0100
1000
0000
0000
0000
,
1000
0100
0010
0001
0010
0000
1000
0000
,
0002
0000
1000
0000
1003
0000
0010
1000
,
0200
0010
0310
1001
,
0010
1000
0001
0000
0200
0000
0310
0000
,
0001
1000
0010
0000
0200
0000
0310
0000
,
0001
0100
0010
0000
0010
0100
1000
0000
,
1000
0010
0100
0000
0100
0010
0001
0000
,
0200
0001
0301
0010
,
0020
1000
1030
0100
,
0100
1000
0010
0000
0100
0000
0001
0100
,
0020
0000
0000
0000
0100
0000
0000
0000
0100
0030
0000
0000
1001
0000
0000
0000
,
0010
1000
0100
0010
0100
0001
0010
0000
,
0001
0100
0010
0100
1000
0100
0001
0000
,
0001
0100
1000
0000
1000
0100
0001
0000
,
2000
3010
0002
0103
,
0010
1000
0100
0001
0010
0100
1000
0000
,
0010
0100
0001
0010
1000
0100
0010
0000
,
0001
0100
0010
0000
1000
0010
0100
0000
,
0002
0000
0000
0000
1000
0000
0000
0000
1003
0000
0000
0010
0000
0000
0100
0000
,
0001
0000
0000
0000
1100
0000
0000
0000
1001
0000
0000
0010
0000
0000
0100
0000
,
0001
0000
0010
0000
0100
0000
1000
0000
0010
1000
0000
0010
0000
0000
0000
0000
,
0001
0000
0000
0000
1001
0000
0000
0000
1000
0000
0000
0010
0000
0000
0100
0000
,
0001
0000
0010
0000
1000
0000
0100
0000
0001
0010
0000
0001
0000
0000
0010
0000
,
1000
0000
0000
0000
1100
0000
0000
0000
1001
0000
0000
0010
0000
0000
0100
0000
,
0001
0000
0010
0000
1000
0000
0100
0000
1000
0010
0000
0100
0000
0000
0000
0000
,
0001
0000
0000
0000
1001
0000
0000
0000
0010
0000
0000
1100
0000
0000
1000
0000
,
0001
0000
0100
0000
0010
0000
1000
0000
0001
0100
0000
0010
0000
0000
0010
1000
,
0001
0000
0000
0000
0010
0000
0000
0000
1010
0000
0000
1001
0000
0000
0010
0000
,
0100
0000
0001
0000
0010
0000
0100
0000
1000
0001
0000
0010
0000
0000
0000
0000
,
0011
0000
0000
0000
1001
0000
0000
0000
1100
0000
0000
1001
0000
0000
0101
0000
,
0010
0000
0100
0000
1000
0000
0010
0000
1100
0000
0000
0101
0000
0000
0000
0000
;
