#TITLE:ZENDEGI DANCE;
#SUBTITLE:;
#ARTIST:ARM x BEMANI Sound Team "U1 overground";
#TITLETRANSLIT:;
#SUBTITLETRANSLIT:;
#ARTISTTRANSLIT:;
#GENRE:beatmania IIDX;
#CREDIT:Nanolite;
#BANNER:;
#BACKGROUND:;
#LYRICSPATH:;
#CDTITLE:;
#MUSIC:ZENDEGI DANCE.ogg;
#OFFSET:0.650000;
#SAMPLESTART:44.343243;
#SAMPLELENGTH:15.000000;
#SELECTABLE:YES;
#DISPLAYBPM:160.000000;
#BPMS:0.000000=160.000000
;
#STOPS:
;
#BGCHANGES:1.000=ZENDEGI DANCE.avi=1.000=0=0=0=StretchNoLoop====,
99999=-nosongbg-=1.000=0=0=0 // don't automatically add -songbackground-
;
#KEYSOUNDS:;
#ATTACKS:;

//---------------dance-single - ----------------
#NOTES:
     dance-single:
     :
     Beginner:
     4:
     0.159198,0.323664,0.122911,0.172075,0.000000,136.000000,121.000000,15.000000,21.000000,0.000000,0.000000,0.159198,0.323664,0.122911,0.172075,0.000000,136.000000,121.000000,15.000000,21.000000,0.000000,0.000000:
0000
0000
0000
0000
,
0000
0000
0000
0000
,
0000
0000
0000
0000
,
0000
0000
0000
0000
,
0000
0000
0000
0000
,
0000
0000
0000
0000
,
0010
0000
0010
0000
,
0100
0000
0100
0000
,
0010
0000
0010
0000
,
0100
0000
0100
0000
,
2002
0000
0000
0000
,
0000
0000
0000
0000
,
3003
0000
0000
0000
,
0000
0000
0000
0000
,
0110
0000
0100
0000
,
0100
0000
0100
0000
,
1000
0000
0001
0000
,
1000
0000
0001
0000
,
0110
0000
0010
0000
,
0010
0000
0010
0000
,
0001
0000
1000
0000
,
0001
0000
1000
0000
,
0100
0000
0100
0000
,
0100
0000
0100
0000
,
0100
0000
0100
0000
,
0100
0000
0100
0000
,
0100
0100
0100
0100
,
0200
0000
0000
0000
,
0300
0000
0000
0000
,
0000
0000
0000
0000
,
0001
0000
0001
0000
,
0010
0000
0100
0000
,
1000
0000
1000
0000
,
0100
0000
0010
0000
,
0001
0000
0001
0000
,
0100
0000
0010
0000
,
1000
0000
1000
0000
,
0010
0000
0100
0000
,
0010
0000
0010
0000
,
0001
0000
1000
0000
,
0100
0000
0100
0000
,
0001
0000
1000
0000
,
0100
0000
0100
0000
,
1000
0000
0001
0000
,
0010
0000
0010
0000
,
1000
0000
0001
0000
,
2002
0000
0000
0000
,
3003
0000
0000
0000
,
0220
0000
0000
0000
,
0330
0000
0000
0000
,
1000
0000
1000
0000
,
0100
0000
0100
0000
,
0010
0000
0010
0000
,
0001
0000
0001
0000
,
2002
0000
0000
0000
,
3003
0000
0000
0000
,
2002
0000
0000
0000
,
3003
0000
0000
0000
,
0220
0000
0000
0000
,
0330
0000
0000
0000
,
0100
0000
0100
0000
,
0010
0000
0010
0000
,
0100
0000
0100
0000
,
0010
0000
0010
0000
,
1000
0000
1000
0000
,
0001
0000
0001
0000
,
1000
0000
0001
0000
,
2000
0000
0002
3003
,
0100
0000
0100
0000
,
0010
0010
0010
0000
,
0100
0000
0100
0000
,
0010
0010
0010
0000
,
0001
0000
0001
0000
,
1000
1000
1000
0000
,
2002
0000
3003
0000
,
2002
0000
3003
0000
,
1001
0000
1001
0000
,
0110
0000
0110
0000
,
2002
0000
0000
0000
,
3003
0000
0000
0000
;

//---------------dance-single - ----------------
#NOTES:
     dance-single:
     :
     Easy:
     7:
     0.331273,0.522779,0.376926,0.221239,0.000000,283.000000,237.000000,46.000000,27.000000,0.000000,0.000000,0.331273,0.522779,0.376926,0.221239,0.000000,283.000000,237.000000,46.000000,27.000000,0.000000,0.000000:
0000
0000
0000
0000
,
0000
0000
0000
0000
,
0000
0000
0000
0000
,
0000
0000
0000
0000
,
0000
0000
0000
0000
,
0000
0000
0000
0000
,
0001
0001
0100
0010
,
1000
1000
0010
0100
,
0001
0001
0100
0010
,
1000
1000
0010
0100
,
2002
0000
0000
0000
,
3003
0000
0010
0000
,
0220
0000
0000
0000
,
0330
0100
0100
0100
,
1000
0100
1000
0100
,
0001
0100
0001
0100
,
1000
0100
1000
0100
,
0001
0100
0001
0100
,
1000
0010
1000
0010
,
0001
0010
0001
0010
,
1000
0010
1000
0010
,
0001
0010
0001
0010
,
0100
0100
0100
0110
,
0100
0100
0100
0110
,
0100
0100
0100
0110
,
0100
0100
0100
0110
,
0100
0100
0100
0100
,
0100
0100
0100
0100
0200
0000
0000
0000
,
0300
0000
0000
0000
,
0011
1010
0011
1010
,
1001
1001
0100
0010
,
1000
0100
0001
0010
,
0001
0001
1000
1000
,
0010
0100
0010
0110
,
1001
0100
1000
0010
,
0001
0001
1000
1000
,
0010
0100
0010
0100
,
0001
0100
1000
1001
,
0110
0110
0010
0100
,
0001
0010
0100
1000
,
0010
0010
0100
0100
,
1000
0100
0010
1001
,
0110
0001
0100
0010
,
1000
0100
0010
0010
,
0001
0010
0100
0100
,
2002
0000
3003
0000
,
0200
0000
1000
0000
,
0001
0000
1000
0000
,
0320
0000
0001
0000
,
1000
0000
0001
0030
,
0010
0100
1000
0100
,
0010
0100
1000
0100
,
0010
0001
0010
0100
,
0010
0001
0010
0100
,
0220
0000
0000
0000
,
0330
0000
0000
0000
0001
0001
0001
0000
,
2002
0000
0000
0000
,
3003
0000
0000
0000
0100
0100
0100
0000
,
0220
0000
0000
0000
0000
0000
0000
0330
,
0000
0000
0000
0000
0100
0100
0100
0000
,
1001
0000
1001
0000
,
0100
0000
0100
0000
,
1001
0000
1001
0000
,
0010
0000
0010
0000
,
1001
0000
1001
0000
,
0100
0000
0100
0000
,
0220
0000
0000
0000
,
0330
0000
0000
1001
,
1100
0000
0100
0000
0100
0100
0100
0000
,
0010
0001
0010
0100
,
0011
0000
0010
0000
0010
0010
0010
0000
,
0001
0100
1000
1001
,
0110
0100
1000
0100
,
0010
0010
0010
0000
0100
0100
0100
0000
,
2002
0000
3003
0000
0001
1000
1001
0000
,
0220
0000
0330
0000
0100
0010
0110
0000
,
1100
1100
0101
0101
,
0022
0033
2020
3030
,
2002
0000
0000
0000
,
0000
0000
0000
3003
;

//---------------dance-single - ----------------
#NOTES:
     dance-single:
     :
     Medium:
     11:
     0.454184,0.522779,0.467060,0.245821,0.000000,388.000000,331.000000,57.000000,30.000000,0.000000,0.000000,0.454184,0.522779,0.467060,0.245821,0.000000,388.000000,331.000000,57.000000,30.000000,0.000000,0.000000:
0000
0000
0000
0000
,
0000
0000
0000
0000
,
0000
0000
0000
0000
,
0000
0000
0000
0000
,
0000
0000
0000
0000
,
0000
0000
0000
0000
,
0001
0000
0010
0000
0100
0000
1000
0100
,
1000
0100
0010
0110
,
0001
0000
0010
0000
0100
0000
1000
0100
,
1000
0010
0110
0001
,
0100
0000
1000
0000
0001
1000
0001
0000
,
0100
0010
0100
0000
0001
1000
0001
0000
,
2002
0000
0000
3003
,
1001
0110
1100
0011
,
0001
0000
0100
0000
1000
0010
1000
0000
,
0001
0010
0001
0000
0100
0000
0110
0000
,
0001
0100
0001
0000
1000
0100
1000
0000
,
0001
1000
0001
0000
0110
0000
0110
0000
,
0011
0000
0010
0000
0100
1000
0100
0000
,
0010
0001
0010
0000
0100
0010
0100
0000
,
2100
3000
0012
0003
,
1000
0100
0010
0001
1000
0000
1001
0000
,
0001
0010
0100
0000
1000
0000
1100
0000
,
0001
0010
0100
0000
1000
0000
1100
0000
,
0001
0010
0100
0000
1000
0000
1100
0000
,
0001
0010
0100
0000
1000
0000
1100
0000
,
0001
0010
0100
0000
0001
0010
0100
0000
,
0001
0010
0100
0000
0001
0010
0100
2000
,
0000
0000
0000
3000
,
0011
0101
1100
1010
,
0110
0000
1100
0000
0100
0010
0001
0000
,
0010
0100
1000
0000
0001
0000
0110
0000
,
1000
0000
0100
0010
0001
0000
0010
0100
,
0001
0000
0010
0100
1000
0000
0010
1000
,
0100
0000
1010
0000
0001
0010
0100
0000
,
1000
0100
0010
0000
0001
0000
1001
0000
,
0001
0000
0010
0000
0100
0010
0100
0000
,
1000
0100
0010
0001
1000
0000
1001
0000
,
0110
0000
0011
0000
0010
0100
1000
0000
,
0100
0010
0001
0000
1000
0000
0110
0000
,
0001
0000
0010
0100
1000
0000
0100
0010
,
1000
0000
0100
0010
0001
0000
0100
0001
,
0010
0000
0101
0000
1000
0100
0010
0000
,
0001
0010
0100
0000
1000
0000
1001
0000
,
1000
0000
0100
0000
0010
0100
0010
0000
,
0001
0010
0100
1000
0001
0000
1001
0000
,
0200
0000
0000
2300
0000
0000
3020
0000
,
0000
0032
0000
0000
0103
0000
0100
0000
,
2000
0000
0000
3002
0000
0000
0023
0000
,
0000
0230
0000
0000
0310
0000
0010
0000
,
1001
0000
0100
0000
1000
0000
0010
0100
,
0010
0000
0001
0000
0010
0000
0100
0001
,
0100
0000
1000
0000
0010
0000
0001
1000
,
0001
0000
0100
0000
0010
0000
1000
0100
,
2000
0000
0010
0000
,
0100
0000
0000
0000
0010
0000
3010
0100
,
0002
0000
0100
0000
,
0010
0000
0000
0000
0100
0000
0103
1000
,
0020
0000
0100
0001
,
0100
0001
0100
0130
,
0210
0010
0001
0301
,
1002
1000
0100
0103
,
1100
0100
0101
0001
,
0011
1010
0011
1010
,
0201
0001
1000
1300
,
1020
1000
0001
0031
,
0001
1000
0010
0000
0010
1000
0001
0000
,
0220
0000
0000
0330
,
0001
0000
0001
0000
0100
0010
0100
0000
,
1000
0100
0010
0001
1000
0000
1001
0000
,
0001
0100
0010
0000
1000
0010
0100
0000
,
0001
0100
1000
0010
0001
0000
1001
0000
,
1000
0100
1000
0000
0001
0010
0001
0000
,
0100
0010
0100
0010
0001
1000
0001
1000
,
0202
0303
0100
0100
,
2200
3300
0100
0100
,
0011
0110
1100
1001
,
0210
1300
0120
0031
,
2200
0000
0000
0000
,
0000
0000
0000
3300
;

//---------------dance-single - ----------------
#NOTES:
     dance-single:
     :
     Hard:
     15:
     0.666058,0.914864,0.262209,0.098328,0.323664,569.000000,537.000000,32.000000,12.000000,0.000000,0.000000,0.666058,0.914864,0.262209,0.098328,0.323664,569.000000,537.000000,32.000000,12.000000,0.000000,0.000000:
// measure 0
0000
0000
0000
0000
,  // measure 1
0000
0000
0000
0000
,  // measure 2
0000
0000
0000
0000
,  // measure 3
0000
0000
0000
0000
,  // measure 4
0000
0000
0000
0000
,  // measure 5
0000
0000
0000
0000
,  // measure 6
1000
0000
0000
0100
0000
0000
0010
0000
0001
0000
0000
0000
0011
0000
0000
0000
,  // measure 7
0001
0000
0100
0000
0010
0000
1000
0000
0100
0000
0010
0000
0100
0010
0100
0010
,  // measure 8
1000
0000
0000
0100
0000
0000
0010
0000
0001
0000
0000
0000
0011
0000
0000
0000
,  // measure 9
0001
0000
0100
0000
0010
0000
1000
0000
0100
0000
0010
0000
0100
0010
0100
0010
,  // measure 10
1000
0000
0000
0010
0000
0000
0001
0000
0100
0000
0000
0000
0001
0000
0000
0000
,  // measure 11
1000
0100
0010
0001
0100
0010
1000
0002
,  // measure 12
0000
1000
1000
1003
,  // measure 13
0100
0010
0100
0010
0100
0000
1001
0000
,  // measure 14
1100
0000
1100
0000
0010
0100
0010
0000
,  // measure 15
0001
0000
0010
0000
0001
0000
0100
0001
0000
0000
0001
0000
0100
0000
0000
0000
,  // measure 16
0010
0100
0010
0000
1000
0001
1000
0000
,  // measure 17
0100
1000
0010
0100
0001
0000
1001
0000
,  // measure 18
0001
0000
0100
0000
1000
0100
1000
0000
,  // measure 19
0010
0000
0000
0100
0010
0000
0100
0000
0001
0000
1000
0000
0010
0000
0000
0000
,  // measure 20
0001
0000
0000
0010
0100
1000
0001
0000
,  // measure 21
1000
0100
0010
0001
1000
0000
1001
0000
,  // measure 22
0001
0100
0010
1000
0100
0010
0010
0000
,  // measure 23
0001
0100
0010
1000
0100
0010
0010
0000
,  // measure 24
0001
0100
0010
1000
0100
0010
0010
0000
,  // measure 25
0001
0100
0010
1000
0100
0010
0010
0000
,  // measure 26
0001
0100
0010
1000
0001
0100
0010
1000
,  // measure 27
0001
0100
0010
1000
0001
0100
0010
1000
0001
0100
0010
1000
0001
0100
0010
1000
,  // measure 28
0000
0001
0010
0100
1000
0000
1001
0000
,  // measure 29
0110
0000
1001
0000
0110
0000
0001
0010
,  // measure 30
0100
0000
1100
0000
1000
0100
0010
0000
,  // measure 31
0001
0000
0100
0000
0010
0000
1000
0001
0000
0000
0100
0000
0010
0000
1000
0000
,  // measure 32
0001
0000
0000
0001
0010
0000
0100
0000
1000
0010
0000
0010
1000
0000
0001
0000
,  // measure 33
0100
0000
0010
1000
0001
0000
0100
0000
0010
0000
0000
0000
1001
0000
0000
0000
,  // measure 34
0110
0000
0001
0010
0100
0010
1000
0100
,  // measure 35
0010
0000
0000
0001
0010
0000
0100
0000
0010
0000
1000
0000
1001
0000
0000
0000
,  // measure 36
0010
0000
1000
0100
0010
0001
0100
0010
,  // measure 37
1000
0000
0001
1000
0100
0000
0010
0000
1001
0000
0000
0000
1100
0000
0000
0000
,  // measure 38
0010
0000
0011
0000
0001
0010
0100
0000
,  // measure 39
1000
0000
0010
0000
0100
0000
0001
1000
0000
0000
0010
0000
0100
0000
0001
0000
,  // measure 40
1000
0000
0000
1000
0100
0000
0010
0000
0001
0100
0000
0100
0001
0000
1000
0000
,  // measure 41
0010
0000
0100
0001
1000
0000
0010
0000
0100
0000
0000
0000
1001
0000
0000
0000
,  // measure 42
0110
0000
1000
0100
0010
0100
0001
0010
,  // measure 43
0100
0000
0000
1000
0100
0000
0010
0000
0100
0000
0001
0000
1001
0000
0000
0000
,  // measure 44
0100
0000
0001
0010
0100
1000
0010
0100
,  // measure 45
0001
0000
1000
0001
0010
0001
0100
1000
0001
0000
0000
0000
0011
0000
0000
0000
,  // measure 46
1000
0100
1000
0100
0010
0100
0010
0100
,  // measure 47
0010
0001
0010
0001
1000
0001
1000
0001
,  // measure 48
0010
0100
1000
0010
1000
0100
0010
0001
,  // measure 49
0010
0100
1000
0010
0100
0001
1100
0000
,  // measure 50
1000
0010
0100
0010
1000
0010
0100
0010
,  // measure 51
1000
0001
0100
0010
0100
0001
0100
0010
,  // measure 52
0001
0010
0100
1000
0100
0010
0001
0010
,  // measure 53
0200
0010
1000
0310
,  // measure 54
0002
0000
0000
0100
0000
0000
0100
0000
0103
0000
0000
0000
0110
0000
0000
0000
,  // measure 55
0010
0000
0100
0000
0010
0000
1000
0000
0001
0000
0100
0000
0010
0100
0010
0100
,  // measure 56
2000
0000
0000
0010
0000
0000
0010
0000
3010
0000
0000
0000
0110
0000
0000
0000
,  // measure 57
0100
0000
0010
0000
0100
0000
0001
0000
1000
0000
0010
0000
0100
0010
0100
0010
,  // measure 58
0200
0000
0001
1300
,  // measure 59
0100
1000
0010
0100
0001
0010
0100
1000
,  // measure 60
0000
0010
0000
0010
0000
0010
0100
0001
,  // measure 61
1000
0001
0000
0000
0100
0000
0001
0000
1000
0001
0000
0000
0010
0000
0100
0000
,  // measure 62
0001
0000
1000
0010
0100
0000
0001
0000
1000
0001
0000
0100
0010
0000
1000
0000
,  // measure 63
0001
0010
0001
0010
1000
0100
1000
0100
0010
0100
0010
0001
1000
0100
0010
0100
,  // measure 64
1000
0000
0000
0000
0100
0000
0010
0000
0100
0001
0100
0001
0010
1000
0010
1000
,  // measure 65
0100
0000
0000
0100
0001
0000
0010
0000
1000
0100
1000
0100
1000
0000
0010
0000
,  // measure 66
0100
0001
0010
0100
1000
0100
0010
0002
,  // measure 67
1000
0100
0013
0011
,  // measure 68
1100
0000
1010
0000
0010
1000
0100
0010
,  // measure 69
0100
0000
0001
1000
0010
0000
1000
0000
0110
0000
0100
0000
0001
0000
0010
0000
,  // measure 70
1000
0000
0001
0010
1000
0000
0010
0000
1000
0000
1000
0100
0001
0000
0010
0000
,  // measure 71
0100
0000
0001
1000
0010
0000
0001
0000
1000
0100
1000
0100
1000
0000
0000
0000
,  // measure 72
0010
0000
1000
0000
0001
0000
0100
0000
1000
0010
0100
0010
1000
0000
0001
0000
,  // measure 73
0010
0000
1000
0000
0001
0000
0100
0000
0001
0100
0010
0100
0001
0000
1000
0000
,  // measure 74
0020
0000
0000
0000
0000
0000
0000
0000
0130
0000
0100
0010
0001
0000
0011
0000
,  // measure 75
0200
0000
0000
0000
0000
0000
0000
0000
0310
0000
0010
0100
1000
0000
1100
0000
,  // measure 76
0010
0000
0000
0001
0000
0000
0010
0000
0000
0100
0000
0000
1000
0000
0000
0100
0000
0000
0010
0000
0000
0000
0000
0000
0001
0000
0000
1000
0000
0000
0001
0000
0000
1000
0000
0000
0001
0000
1000
0000
0001
0000
1000
0000
0000
0001
0000
0000
,  // measure 77
2000
3100
0002
0013
,  // measure 78
0220
0000
0000
0000
,  // measure 79
0000
0000
0000
0330
;
