#TITLE:ゆりゆららららゆるゆり 大事件;
#SUBTITLE:;
#ARTIST:七森中☆ごらく部;
#TITLETRANSLIT:Yuriyurarararayuruyuri Daijiken;
#SUBTITLETRANSLIT:;
#ARTISTTRANSLIT:Nana Morinaka ☆ go raku-bu;
#GENRE:Anime/Game;
#CREDIT:;
#BANNER:;
#BACKGROUND:;
#LYRICSPATH:;
#CDTITLE:;
#MUSIC:Yuriyurarararayuruyuri Daijiken.ogg;
#OFFSET:0.640000;
#SAMPLESTART:51.940125;
#SAMPLELENGTH:15.000000;
#SELECTABLE:YES;
#BPMS:0.000000=175.000000
;
#STOPS:
;
#BGCHANGES:;
#KEYSOUNDS:;
#ATTACKS:;

//---------------dance-single - ----------------
#NOTES:
     dance-single:
     :
     Hard:
     12:
     0.550366,0.503220,0.344177,0.144332,0.022205,303.000000,31.000000,13.000000,0.000000,0.000000,0.000000,0.550366,0.503220,0.344177,0.144332,0.022205,303.000000,31.000000,13.000000,0.000000,0.000000,0.000000:
0000
0000
0000
0000
,
0000
0000
0000
0000
,
0000
0000
0000
0000
,
0000
0000
0000
0000
,
0000
0000
0000
0000
,
0000
0000
0000
0000
,
1000
0000
0010
0100
0000
0001
0000
0010
,
0000
1000
0000
0010
1000
0100
0010
0001
,
1000
0000
0001
0000
1000
0010
0000
0110
,
0000
0001
0010
0100
1000
0010
1000
0100
,
0010
0000
0000
1000
0100
0010
0000
0000
,
0100
0000
0000
0000
0000
0000
0010
0000
1000
0000
0100
0000
0000
0000
0010
0100
,
0010
0000
0100
0000
0000
0000
0010
0001
0100
0000
0010
0000
0000
0000
0001
0000
,
0010
1000
0100
0010
0100
0001
0010
0000
,
0001
0000
0000
0010
0100
1000
0000
0000
,
0010
0000
0000
0000
0000
0000
0100
0000
0001
0000
0010
0000
0000
0000
0010
0100
,
0010
0000
0001
0000
0000
0000
0010
1000
0100
0000
0010
0000
0000
0000
0001
0000
,
0010
0100
1000
0010
1000
0000
0001
0000
,
1000
0100
0010
2002
0000
0000
3003
0000
,
0001
0010
0100
2002
0000
0000
3003
0000
,
1000
0100
0010
0100
0001
0010
0100
1000
,
1100
0000
1000
1000
0000
0000
1100
0000
,
0010
0000
1000
0100
0010
0000
0001
0000
,
1000
0000
0001
0010
0100
0000
0010
0000
,
1000
0100
0010
0000
0001
0100
0010
0000
,
0001
0010
0100
1000
0010
0000
1001
0000
,
0010
1000
0100
0000
0010
0000
1001
0000
,
0100
0001
0010
0000
0100
0000
1100
0000
,
0010
1000
0100
0010
0100
0001
0010
0000
,
0001
0010
0100
1000
0000
0000
1100
0000
,
0002
0000
0000
0100
0100
0000
0013
0000
,
2000
0000
0000
0010
0010
0000
0001
0000
,
3200
0000
0000
0010
0010
0000
1300
0000
,
2000
0000
0000
0010
0010
0000
0001
0000
,
3200
0000
0000
0010
0010
0000
0301
0000
,
0002
0000
0000
0010
0010
0000
1003
0000
,
0001
0010
0100
0100
0100
0100
0100
0100
,
0010
1000
0001
0020
0000
0000
0000
0000
,
0030
0000
0000
0001
0000
0010
1000
0100
,
1100
0000
0000
0010
0000
1000
0100
0010
,
0011
0000
0000
0001
0000
0100
0010
0001
,
0011
0000
0000
0001
0000
0001
0010
0100
,
1100
0000
1000
0100
,
1100
0100
0110
0010
,
0011
0001
1001
0001
,
0001
0010
0100
2200
0000
0000
3300
0000
,
1000
0100
0010
0011
0000
0001
0010
0100
,
1100
0000
0000
0010
0000
1000
0100
0010
,
1100
0000
0000
0010
0000
1000
0100
0010
,
0011
0000
0000
0010
0000
0100
0010
0001
,
0011
0000
0000
0000
0001
0010
0100
1000
,
1100
1000
1001
0001
,
0011
0010
0110
0100
,
1000
0100
0010
0001
0000
0000
0010
0000
,
0001
0010
0100
1000
0000
0000
0100
1000
,
0100
1000
0100
0010
,
0001
0000
0010
0000
0100
0001
0010
0100
,
1000
0000
1000
0100
0000
1100
0000
1000
,
0000
0100
0000
0010
0001
1000
0010
0100
,
0001
0000
0010
1000
0000
0011
0000
0001
,
0000
0010
0000
0100
1000
0010
0100
0001
,
0010
0000
0100
1000
0000
0110
0000
0001
,
0000
0010
0000
1000
0100
0010
0100
0001
,
0010
0000
1000
0000
1000
0100
0000
0010
,
1000
0100
0010
0001
0000
0000
0110
0000
;

//---------------dance-single - ----------------
#NOTES:
     dance-single:
     :
     Medium:
     8:
     0.428238,0.395387,0.210947,0.111025,0.000000,241.000000,19.000000,10.000000,0.000000,0.000000,0.000000,0.428238,0.395387,0.210947,0.111025,0.000000,241.000000,19.000000,10.000000,0.000000,0.000000,0.000000:
0000
0000
0000
0000
,
0000
0000
0000
0000
,
0000
0000
0000
0000
,
0000
0000
0000
0000
,
0000
0000
0000
0000
,
0000
0000
0000
0000
,
1000
0000
0010
0100
0000
0001
0000
0010
,
0000
0100
0000
1000
0001
0000
0010
0000
,
0100
0000
0001
0000
0010
0100
0000
2000
,
0000
0000
0000
3000
,
0110
0000
0000
1000
0100
0010
0000
0000
,
0110
0000
0000
0001
0010
0100
0000
0100
,
0010
0100
0000
0001
1000
0001
0000
0001
,
1000
0100
0010
0000
1001
0000
0000
0000
,
0110
0000
0000
1000
0100
0010
0000
0000
,
0110
0000
0000
0001
0010
0100
0000
1000
,
0100
0010
0000
0100
0010
0001
0000
0001
,
0010
0100
1000
0000
1001
0000
0000
0000
,
1000
0100
0010
0001
0000
0000
0000
0000
,
0001
0010
0100
1000
0000
0000
0000
0000
,
0100
0010
0100
0000
0001
1000
0001
0000
,
0110
0010
0010
0000
,
0001
0010
1000
0100
,
0010
0000
1000
0000
0001
0010
0001
0000
,
0010
1000
0001
0010
,
0100
0000
0001
0000
0010
0100
1000
0000
,
0010
1000
0100
0010
,
0100
0000
0001
0000
0100
1000
0100
0000
,
0010
1000
0100
0010
,
1000
0000
0001
0000
0100
0010
0001
0000
,
0020
0000
0100
0031
,
2000
0000
0001
3100
,
0020
0000
0100
0031
,
2000
0000
0100
3010
,
0002
0000
1000
0013
,
2000
0000
0001
3100
,
0010
0000
1000
0000
0100
0100
0100
0100
,
0010
0000
1000
0001
0000
0000
0000
0000
,
0110
0000
0000
0001
0000
0001
0010
0100
,
1000
0000
0000
1000
0000
1000
0100
0010
,
0001
0000
0000
0010
0000
0010
0100
0001
,
1000
0000
0000
0100
0000
0100
0010
1000
,
0001
0000
0010
0100
,
0101
0000
1100
0000
,
1010
0010
0011
0000
,
0001
0010
1000
0100
0000
0000
0000
0000
,
1000
0010
0100
0001
0000
0000
0000
0000
,
0010
0000
0000
0100
0000
0001
0010
0100
,
1000
0000
0000
0010
0000
1000
0100
0010
,
0001
0000
0000
0010
0000
0100
0001
1000
,
0010
0000
0100
0010
,
1100
0000
0101
0000
,
0011
0010
1010
0000
,
1000
0100
0010
0001
0000
0000
0000
0000
,
0001
0010
0100
1000
0000
0000
0000
1000
,
0100
0010
0100
0001
,
0010
0000
0100
0000
1000
0001
1000
0001
,
0020
0000
0100
0130
,
0001
0010
1000
0100
,
0201
0000
0010
0310
,
0001
0010
1000
0100
,
1002
0000
0100
0103
,
0010
1000
0100
0010
,
0001
0000
0010
0000
0100
1000
0000
0010
,
1000
0100
0010
0001
0000
0000
1001
0000
;

//---------------dance-single - ----------------
#NOTES:
     dance-single:
     :
     Easy:
     6:
     0.317214,0.395387,0.210947,0.177640,0.000000,165.000000,19.000000,16.000000,0.000000,0.000000,0.000000,0.317214,0.395387,0.210947,0.177640,0.000000,165.000000,19.000000,16.000000,0.000000,0.000000,0.000000:
0000
0000
0000
0000
,
0000
0000
0000
0000
,
0000
0000
0000
0000
,
0000
0000
0000
0000
,
0000
0000
0000
0000
,
0000
0000
0000
0000
,
0100
0010
0100
0010
,
1000
0001
1000
0001
,
0010
0100
1000
1001
,
0000
0000
0000
0000
,
2100
0000
0100
3000
,
0002
0000
0100
0003
,
1000
0010
0100
0001
,
0010
0100
1001
0000
,
0102
0000
0103
0000
,
2000
0000
0100
3000
,
0010
1000
0010
0100
,
0001
0010
0011
0000
,
0002
1000
0000
1003
,
2000
0001
0000
3001
,
0020
0100
0100
0130
,
0002
0000
1003
0000
,
1000
0100
0010
0001
,
0010
0010
0100
0000
,
0001
0010
0100
1000
,
0100
0100
0010
0000
,
1000
0010
0100
0001
,
0010
0010
0001
0000
,
0010
0100
0001
1000
,
0100
0100
1000
0000
,
0020
0000
1000
0000
,
0100
0000
0001
0000
,
0230
0000
0001
0000
,
0010
0000
1000
0000
,
0302
0000
1000
0000
,
0010
0000
0103
0000
,
0010
1000
0100
0010
,
0002
0000
0000
0000
,
2000
0000
0000
3003
,
0001
0010
0100
0000
,
1000
0010
0100
0000
,
1100
0100
0010
0000
,
0001
0010
0100
0000
,
0011
0000
1000
0000
,
1100
0000
0001
0000
,
0010
0010
0000
0000
,
0100
0100
0001
0000
,
0001
0010
1000
0000
,
1000
0100
0010
0000
,
0001
0010
0100
0000
,
0001
0100
1000
0000
,
1100
0000
0100
0000
,
0011
0000
0001
0000
,
0001
1100
0000
0000
,
1000
0011
0100
0000
,
0002
0000
0000
0000
,
2000
0000
3003
0000
,
0010
1000
0100
0010
,
0001
0010
0011
0011
,
0001
0010
0100
0001
,
0010
0100
1100
1100
,
1000
0010
0100
0001
,
0010
1000
0110
0110
,
0002
1000
0100
0013
,
0000
0000
0000
0110
;

//---------------dance-single - ----------------
#NOTES:
     dance-single:
     :
     Beginner:
     3:
     0.122127,0.143777,0.066615,0.011102,0.000000,70.000000,6.000000,1.000000,0.000000,0.000000,0.000000,0.122127,0.143777,0.066615,0.011102,0.000000,70.000000,6.000000,1.000000,0.000000,0.000000,0.000000:
// measure 0
0000
0000
0000
0000
,  // measure 1
0000
0000
0000
0000
,  // measure 2
0000
0000
0000
0000
,  // measure 3
0000
0000
0000
0000
,  // measure 4
0000
0000
0000
0000
,  // measure 5
0000
0000
0000
0000
,  // measure 6
0110
0000
0000
0000
,  // measure 7
0000
0000
0000
0000
,  // measure 8
0001
0001
0001
0001
,  // measure 9
0000
0000
0000
0000
,  // measure 10
1000
0000
0000
0000
,  // measure 11
0001
0000
0000
0000
,  // measure 12
1000
0000
0000
0000
,  // measure 13
0001
0000
0000
0000
,  // measure 14
0100
0000
0000
0000
,  // measure 15
0010
0000
0000
0000
,  // measure 16
0100
0000
0000
0000
,  // measure 17
0010
0000
0000
0000
,  // measure 18
1000
1000
0000
0000
,  // measure 19
1000
1000
0000
0000
,  // measure 20
0001
0001
0000
0000
,  // measure 21
0001
0000
0000
0000
,  // measure 22
0010
0000
0000
0000
,  // measure 23
0010
0000
0100
0000
,  // measure 24
0010
0000
0000
0000
,  // measure 25
0100
0000
0010
0000
,  // measure 26
0100
0000
0000
0000
,  // measure 27
0001
0000
1000
0000
,  // measure 28
0001
0000
0000
0000
,  // measure 29
1000
0000
0001
0000
,  // measure 30
1000
0000
0000
0000
,  // measure 31
0100
0000
0000
0000
,  // measure 32
1000
0000
0000
0000
,  // measure 33
0010
0000
0000
0000
,  // measure 34
0001
0000
0000
0000
,  // measure 35
0100
0000
0000
0000
,  // measure 36
0001
0000
0000
0000
,  // measure 37
0010
0000
0000
0000
,  // measure 38
0110
0000
0000
0000
,  // measure 39
1000
0000
0000
0000
,  // measure 40
0000
0000
0000
0000
,  // measure 41
0001
0000
0000
0000
,  // measure 42
0000
0000
0000
0000
,  // measure 43
1000
0000
1000
0000
,  // measure 44
0001
0000
0001
0000
,  // measure 45
0100
0100
0000
0000
,  // measure 46
0100
0100
0000
0000
,  // measure 47
0001
0000
0000
0000
,  // measure 48
0000
0000
0000
0000
,  // measure 49
1000
0000
0000
0000
,  // measure 50
0000
0000
0000
0000
,  // measure 51
0001
0000
0001
0000
,  // measure 52
1000
0000
1000
0000
,  // measure 53
0010
0010
0000
0000
,  // measure 54
0010
0010
0000
0000
,  // measure 55
0200
0000
0000
0000
,  // measure 56
0300
0000
0000
0000
,  // measure 57
1001
0000
0000
0000
,  // measure 58
0000
0000
0000
0000
,  // measure 59
1001
0000
0000
0000
,  // measure 60
0000
0000
0000
0000
,  // measure 61
0110
0000
0000
0000
,  // measure 62
0000
0000
0000
0000
,  // measure 63
1000
1000
1000
1000
,  // measure 64
0000
0000
0000
0110
;
