#TITLE:いーあるふぁんくらぶ;
#SUBTITLE:;
#ARTIST:みきとP;
#TITLETRANSLIT:Yie Ar Fanclub;
#SUBTITLETRANSLIT:;
#ARTISTTRANSLIT:mikitoP;
#GENRE:Pop;
#CREDIT:;
#BANNER:;
#BACKGROUND:;
#LYRICSPATH:;
#CDTITLE:;
#MUSIC:Yie Ar Fanclub.ogg;
#OFFSET:-0.098000;
#SAMPLESTART:72.901314;
#SAMPLELENGTH:15.000000;
#SELECTABLE:YES;
#DISPLAYBPM:145.000000;
#BPMS:0.000000=145.000000
,172.000000=144.500000
,176.000000=145.000000
;
#STOPS:
;
#BGCHANGES:;
#KEYSOUNDS:;
#ATTACKS:;

//---------------dance-single - ----------------
#NOTES:
     dance-single:
     :
     Beginner:
     2:
     0.115798,0.146975,0.053445,0.017815,0.000000,83.000000,6.000000,2.000000,0.000000,0.000000,0.000000,0.115798,0.146975,0.053445,0.017815,0.000000,83.000000,6.000000,2.000000,0.000000,0.000000,0.000000:
0000
0000
0000
0000
,
0000
0000
0000
0000
,
1000
0000
0000
0000
,
0001
0000
0000
0000
,
1000
0000
0000
0000
,
0001
0000
0000
0000
,
1000
0000
0000
0000
,
0001
0000
0000
0000
,
1000
0000
0000
0000
,
0001
0000
0000
0000
,
0110
0000
0000
0000
,
0000
0000
0000
0000
,
0000
0000
1000
0000
,
0000
0000
0100
0000
,
0000
0000
0001
0000
,
0000
0000
0100
0000
,
0000
0000
1000
0000
,
0000
0000
0100
0000
,
0000
0000
0001
0000
,
0000
0000
0100
0000
,
1000
0000
1000
0000
,
1000
0000
0000
0000
,
0001
0000
0001
0000
,
0001
0000
0000
0000
,
1000
0000
0010
0000
,
1000
0000
0000
0000
,
0001
0000
0010
0000
,
0001
0000
0000
0000
,
1000
0000
0001
0000
,
1000
0000
0000
0000
,
0001
0000
1000
0000
,
0001
0000
0000
0000
,
1000
0000
0100
0000
,
1000
0000
0000
0000
,
0001
0000
0100
0000
,
0001
0000
0000
0000
,
1000
0000
0100
0000
,
0010
0000
0000
0000
,
0100
0000
0010
0000
,
0001
0000
0000
0000
,
1000
0000
0100
0000
,
0010
0000
0000
0000
,
0100
0000
0010
0000
,
0010
0000
1001
0000
,
0100
0000
0000
0000
,
1000
0000
0010
0000
,
0100
0000
0000
0000
,
0001
0000
0100
0000
,
0010
0000
0000
0000
,
1000
0000
0100
0000
,
0010
0000
0000
0000
,
0001
0000
0010
0000
,
0100
0000
0000
0000
,
1001
0000
0000
0000
,
1000
0000
0100
0000
,
1000
0000
0000
0000
,
0001
0000
0100
0000
,
0001
0000
0000
0000
,
1000
0000
0010
0000
,
1000
0000
0000
0000
,
0001
0000
0010
0000
,
0001
0000
0000
0000
,
1001
0000
0000
0000
,
0110
0000
0000
0000
,
2002
0000
0000
0000
,
0000
0000
0000
0000
,
3003
0000
0000
0000
;

//---------------dance-single - ----------------
#NOTES:
     dance-single:
     :
     Easy:
     5:
     0.279952,0.295063,0.169244,0.222689,0.000000,176.000000,19.000000,25.000000,0.000000,0.000000,0.000000,0.279952,0.295063,0.169244,0.222689,0.000000,176.000000,19.000000,25.000000,0.000000,0.000000,0.000000:
0000
0000
0000
0000
,
0000
0000
0000
0000
,
0001
1000
0001
0000
,
1000
0001
1000
0000
,
0001
1000
0001
0000
,
1000
0001
1000
0000
,
0010
0100
0010
0000
,
0100
0010
0100
0000
,
0010
0100
0010
0000
,
0100
0010
0100
0000
,
2001
0000
0000
0000
,
3020
0000
0200
0000
,
0330
0000
1001
0000
,
0000
0000
1100
0000
,
0000
0000
0101
0000
,
0000
0000
1001
0000
,
0000
0000
1001
0000
,
0000
0000
1010
0000
,
0000
0000
0011
0000
,
0000
0000
1001
0000
,
1000
0100
1000
0100
,
0010
0010
0000
0000
,
0001
0010
0001
0010
,
0100
0100
0200
0000
,
1300
0100
1000
0100
,
0010
0010
0000
0000
,
0001
0010
0001
0010
,
0100
0100
0200
0000
,
0310
1000
0010
1000
,
0001
0001
0000
0000
,
0001
0010
0001
0010
,
1000
1000
2000
0000
,
3010
0100
0010
0100
,
1000
1000
0000
0000
,
0100
0010
0100
0010
,
0001
1000
1001
0000
,
1000
0100
0010
0100
,
0010
0001
1001
1001
,
0001
0010
0100
0010
,
0100
1000
1001
1001
,
0200
0000
2300
0000
,
3020
0000
0032
0000
,
0200
0000
0000
0303
,
1001
1001
1001
0000
,
1000
0010
0100
0000
,
0010
0100
0001
0000
,
1000
0100
0010
0001
,
2000
3002
2000
3003
,
0010
0100
0001
1000
,
0010
0010
1000
0001
,
0200
0000
0010
0310
,
1000
0001
0010
1000
,
0002
0000
1000
1003
,
2000
0000
3020
0000
,
0130
0001
0100
1000
,
0100
0001
0100
1000
,
0020
0000
0100
0000
,
0100
0100
0230
0000
,
1300
0001
0100
0000
,
0001
1000
0100
0000
,
0010
1000
0001
0100
,
0010
0000
1000
0001
,
2001
0000
3002
0000
,
0203
0010
0310
0000
,
2002
0000
0000
0000
,
0000
0000
0000
0000
,
0000
3003
0000
0000
;

//---------------dance-single - ----------------
#NOTES:
     dance-single:
     :
     Medium:
     8:
     0.423746,0.383582,0.320673,0.124706,0.017815,283.000000,36.000000,14.000000,0.000000,0.000000,0.000000,0.423746,0.383582,0.320673,0.124706,0.017815,283.000000,36.000000,14.000000,0.000000,0.000000,0.000000:
0000
0000
0000
0000
,
0000
0000
0000
0000
,
0001
1000
0001
1000
,
0001
0000
1000
0000
0001
1000
1000
0000
,
0001
1000
0001
1000
,
0001
0000
1000
0000
0100
0001
1000
0001
,
1000
0001
1000
0001
,
1000
0000
0001
0000
1000
0001
0001
0000
,
1000
0001
1000
0001
,
1000
0000
0001
0000
0010
1000
0001
1000
,
0002
0000
0000
0000
,
0203
0000
2000
0000
,
3300
0000
1001
0000
,
0010
0100
1001
0000
,
0100
0010
1001
0000
,
0010
0100
1001
0000
,
1000
0001
0110
0000
,
0001
1000
0110
0000
,
1000
0001
0110
0000
,
0001
1000
0110
0000
,
1000
0000
0100
0000
0001
0000
0000
0000
1000
0000
0000
1000
0000
0000
1000
0000
,
0001
0100
1000
0000
1001
0000
1001
0000
,
1000
0000
0100
0000
0001
0000
0000
0000
1000
0000
0000
1000
0000
0000
1000
0000
,
0001
0100
1000
0000
1001
0000
1001
0000
,
0010
1000
0010
0000
1000
0000
1000
0000
,
0010
0100
0010
0000
0001
0000
0001
0000
,
0010
0001
0010
0000
0100
0010
0100
0000
,
2000
0000
0002
3003
,
0001
0000
0010
0000
1000
0000
0000
0000
0001
0000
0000
0001
0000
0000
0001
0000
,
1000
0010
0001
0000
1001
0000
1001
0000
,
0001
0000
0010
0000
1000
0000
0000
0000
0001
0000
0000
0001
0000
0000
0001
0000
,
1000
0010
0001
0000
1001
0000
1001
0000
,
0100
0001
0100
0000
0001
0000
0001
0000
,
0100
0010
0100
0000
1000
0000
1000
0000
,
0100
1000
0100
0000
0010
0100
0010
0000
,
0002
1000
1000
1003
,
0010
1000
0001
0000
1000
0000
0010
0001
,
1000
0001
0200
0310
,
0001
1000
0100
0000
0010
0000
1000
0001
,
0010
0100
0002
1003
,
1000
0100
0010
0000
1000
0000
0001
0100
,
0010
1000
1001
0000
,
1000
0000
1000
0100
0010
0000
0100
0010
,
0001
1100
0102
0000
,
0103
0000
1100
0000
1000
0001
0100
0000
,
1000
0000
0001
1000
0010
0000
1000
0000
,
0001
0011
1010
1001
,
0001
0010
0100
1000
0002
0000
0000
0000
,
0103
0000
1100
0000
0001
1000
0010
0000
,
1000
0000
0011
0000
1000
0010
0001
0000
,
0100
0000
0010
0000
1000
0001
0100
0010
,
1000
0001
0100
1100
,
0102
0000
0100
0103
,
1000
0001
0100
0010
1000
0000
1100
0000
,
1000
0010
0100
0000
0001
0000
0011
0000
,
0001
0100
0010
0000
1000
0000
1100
0000
,
1000
0010
0100
0000
0100
0010
0001
0000
,
0001
0100
0010
1000
0100
0000
1100
0000
,
0010
0100
0001
0000
1000
0000
1100
0000
,
0001
1000
0010
0000
1000
0000
0011
0000
,
0100
0001
1000
0000
1000
0001
0100
0000
,
1000
0000
0010
1000
0001
0000
1100
0000
,
0102
0000
1000
1003
,
0001
1000
0010
1000
0001
0000
0000
0000
,
0220
0000
0000
0000
,
0000
0000
0000
0000
,
0000
0330
0000
0000
;

//---------------dance-single - ----------------
#NOTES:
     dance-single:
     :
     Hard:
     12:
     0.554815,0.531114,0.472101,0.080168,0.129160,374.000000,53.000000,9.000000,0.000000,0.000000,0.000000,0.554815,0.531114,0.472101,0.080168,0.129160,374.000000,53.000000,9.000000,0.000000,0.000000,0.000000:
// measure 0
0000
0000
0000
0000
,  // measure 1
0000
0000
0000
0000
,  // measure 2
0001
1000
0001
1000
,  // measure 3
0001
0000
1000
0000
0010
0100
0110
0000
,  // measure 4
1000
0001
1000
0001
,  // measure 5
1000
0000
0001
0000
1000
0010
0100
0001
,  // measure 6
1000
0001
1000
0001
,  // measure 7
1000
0000
0001
0000
0100
0010
0110
0000
,  // measure 8
0010
0100
0010
0100
,  // measure 9
0010
0000
0100
0000
0001
0100
0010
1000
,  // measure 10
0100
0000
0010
0000
0100
0000
0010
0100
0000
0010
0100
0000
0010
0000
0000
0000
,  // measure 11
0001
0000
1000
0000
0001
0000
1000
0001
0000
1000
0001
0000
1000
0000
0000
0000
,  // measure 12
0010
1000
0100
0001
0101
0000
0000
0000
,  // measure 13
0001
0100
0010
1000
1100
0000
0000
0000
,  // measure 14
1000
0100
0010
0001
0011
0000
0000
0000
,  // measure 15
0001
0010
0100
1000
1100
0000
0000
0000
,  // measure 16
1000
0010
0100
0001
0011
0000
0000
0000
,  // measure 17
0001
0100
0010
1000
1100
0000
0000
0000
,  // measure 18
1000
0100
0010
0001
0011
0000
0000
0000
,  // measure 19
0001
0010
0100
1000
1100
0000
0000
0000
,  // measure 20
1000
0000
0010
0000
0100
0000
0000
0000
0001
0000
0000
0001
0000
0000
0001
0000
,  // measure 21
0100
0010
1000
0000
1000
0100
0010
0100
,  // measure 22
0001
0000
1000
0000
0010
0000
0000
0000
1000
0000
0000
1000
0000
0000
1000
0000
,  // measure 23
0010
0100
0001
1000
0010
0000
1001
0000
,  // measure 24
0010
0000
1000
0000
0001
0000
0000
0000
0010
0000
0000
0010
0000
0000
0010
0000
,  // measure 25
0100
0001
1000
0010
0100
0001
1000
0000
,  // measure 26
1000
0010
0100
0001
0100
0010
1000
0000
,  // measure 27
1100
1100
2200
0000
0000
0000
3300
0000
,  // measure 28
0001
0000
0100
0000
0010
0000
0000
0000
1000
0000
0000
1000
0000
0000
1000
0000
,  // measure 29
0010
0100
0001
0000
0001
0010
0100
0010
,  // measure 30
1000
0000
0001
0000
0100
0000
0000
0000
0001
0000
0000
0001
0000
0000
0001
0000
,  // measure 31
0100
0010
1000
0001
0100
0000
1001
0000
,  // measure 32
0100
0000
0001
0000
1000
0000
0000
0000
0100
0000
0000
0100
0000
0000
0100
0000
,  // measure 33
0010
1000
0001
0100
0010
1000
0001
0000
,  // measure 34
0001
0100
0010
1000
0010
0100
0001
0000
,  // measure 35
0011
0011
0011
0000
1001
0000
1001
0000
,  // measure 36
1000
0001
0100
0001
1000
0000
0001
1000
,  // measure 37
0010
1000
0001
0000
1001
0000
1001
0000
,  // measure 38
0001
1000
0010
1000
0001
0000
1000
0001
,  // measure 39
0100
0001
1000
0000
1001
0000
1001
0000
,  // measure 40
0010
1000
0001
0100
0010
0000
0010
0100
,  // measure 41
1000
0000
0100
0010
0002
0000
0003
0000
,  // measure 42
1001
0000
0100
0010
1001
0000
0010
0100
,  // measure 43
1001
0000
0000
0000
1100
0000
0000
0000
0101
0000
0000
0000
0001
0010
0001
0010
,  // measure 44
0001
0000
1001
0000
1001
0010
1000
0000
,  // measure 45
1000
0010
0100
0001
0010
1000
1100
0000
,  // measure 46
0001
1100
0101
1001
,  // measure 47
0001
0010
1000
0010
0110
0001
1000
0000
,  // measure 48
1100
0000
1001
0000
1001
0100
0001
0000
,  // measure 49
0001
0100
0010
1000
0100
0001
0011
0000
,  // measure 50
1000
0000
0011
0000
1000
0010
0001
1000
,  // measure 51
2200
3300
0110
1001
,  // measure 52
1002
0000
0000
0000
1003
0010
0100
0001
,  // measure 53
1000
0010
1000
0100
0010
0100
0001
0010
,  // measure 54
0100
1000
0000
1000
0100
0000
0010
0000
0100
0000
0000
0000
1001
0000
0000
0000
,  // measure 55
0100
0001
0000
0001
0100
0000
0010
0000
0100
0000
0000
0000
1001
0000
0000
0000
,  // measure 56
1000
0010
0000
0010
1000
0000
0001
0000
0100
0000
0010
0000
1000
0000
0010
0000
,  // measure 57
0001
0100
0000
0100
0001
0000
0010
0000
1000
0000
0000
0000
1001
0000
0000
0000
,  // measure 58
1000
0010
0000
0010
0100
0000
0001
0000
1000
0000
0001
0000
1001
0000
0000
0000
,  // measure 59
0001
0100
0000
0100
0010
0000
1000
0000
0001
0000
1000
0000
1001
0000
0000
0000
,  // measure 60
0010
1000
0100
0001
0010
0100
1000
0010
,  // measure 61
1000
0100
0010
0100
0001
0000
1100
0000
,  // measure 62
0102
0000
1000
1003
,  // measure 63
0001
1000
0001
1000
0001
0000
0010
0100
0010
0100
0010
0000
0000
0000
0000
0000
,  // measure 64
2002
0000
0000
0000
,  // measure 65
3003
0000
0000
0000
,  // measure 66
0000
0000
0001
1000
0001
0000
0000
0000
0000
0000
0000
0000
0000
0000
0000
0000
;
