#TITLE:夜空ノムコウ;
#SUBTITLE:;
#ARTIST:EUROBEAT LOVERS;
#TITLETRANSLIT:;
#SUBTITLETRANSLIT:;
#ARTISTTRANSLIT:;
#GENRE:Dancemania;
#CREDIT:;
#BANNER:;
#BACKGROUND:;
#LYRICSPATH:;
#CDTITLE:;
#MUSIC:YOZORA NO MUKO.ogg;
#OFFSET:-0.144000;
#SAMPLESTART:60.904057;
#SAMPLELENGTH:15.000000;
#SELECTABLE:YES;
#DISPLAYBPM:156.000000;
#BPMS:0.000000=156.000000
;
#STOPS:
;
#BGCHANGES:;
#KEYSOUNDS:;
#ATTACKS:;

//---------------dance-single - ----------------
#NOTES:
     dance-single:
     :
     Beginner:
     2:
     0.091320,0.187347,0.039338,0.059007,0.000000,65.000000,61.000000,4.000000,6.000000,0.000000,0.000000,0.091320,0.187347,0.039338,0.059007,0.000000,65.000000,61.000000,4.000000,6.000000,0.000000,0.000000:
0000
0000
0000
0000
,
0000
0000
0000
0000
,
0000
0000
0000
0000
,
0000
0000
0000
0000
,
0000
0000
0000
0000
,
2000
0000
0000
0000
,
3000
0000
0000
0000
,
0002
0000
0000
0000
,
0003
0000
0000
0000
,
0200
0000
0000
0000
,
0300
0000
0000
0000
,
0020
0000
0000
0000
,
0030
0000
0000
0000
,
2002
0000
0000
0000
,
3003
0000
0000
0000
,
0001
0000
0000
0000
,
1000
0000
0000
0000
,
0010
0000
0000
0000
,
0100
0000
0000
0000
,
1000
0000
0000
0000
,
0001
0000
0000
0000
,
0100
0000
0000
0000
,
0010
0000
0000
0000
,
1000
0000
0000
0000
,
1000
0000
0000
0000
,
0001
0000
0000
0000
,
0100
0000
0000
0000
,
0100
0000
0000
0000
,
0010
0000
0000
0000
,
0100
0000
0000
0000
,
0010
0000
1001
0000
,
0100
0000
0000
0000
,
0100
0000
0000
0000
,
0010
0000
0000
0000
,
0000
0000
0000
0000
,
1000
0000
0000
0000
,
0001
0000
0000
0000
,
1000
0000
1000
0000
,
0010
0000
0010
0000
,
0100
0100
0100
0000
,
0001
0000
0000
0000
,
1000
0000
0000
0000
,
0100
0000
0000
0000
,
0010
0000
0000
0000
,
1001
0000
0000
0000
,
1001
0000
0000
0000
,
0010
0000
0000
0000
,
0100
0000
0000
0000
,
1000
0000
0000
0000
,
0100
0000
0000
0000
,
1000
0000
0000
0000
,
1000
0000
0000
0000
,
1000
0000
0000
0000
,
0100
0000
0000
0000
,
1000
0000
0000
0000
,
0010
0000
0010
0000
,
1000
0000
0000
0000
,
0001
0000
0000
0000
,
0100
0000
0000
0000
,
0010
0000
0010
0000
,
1000
0000
0000
0000
,
0001
0000
0000
0000
,
0100
0000
0000
0000
,
0010
0000
1000
0000
;

//---------------dance-single - ----------------
#NOTES:
     dance-single:
     :
     Easy:
     4:
     0.151732,0.313474,0.118014,0.108179,0.000000,108.000000,96.000000,12.000000,11.000000,0.000000,0.000000,0.151732,0.313474,0.118014,0.108179,0.000000,108.000000,96.000000,12.000000,11.000000,0.000000,0.000000:
0000
0000
0000
0000
,
0000
0000
0000
0000
,
0000
0000
0000
0000
,
0000
0000
0000
0000
,
0000
0000
0000
0000
,
2000
0000
0100
0000
,
0010
0000
3100
0000
,
0002
0000
0010
0000
,
0100
0000
0013
0000
,
0200
0000
0010
0000
,
1000
0000
0310
0000
,
0020
0000
0001
0000
,
0100
0000
0031
0000
,
2002
0000
0000
3003
,
0220
0000
0000
0330
,
0001
0000
0000
0000
,
1000
0000
0000
0000
,
0001
0000
0000
0000
,
0100
0000
0001
0100
,
1000
0000
0000
0000
,
0001
0000
0000
0000
,
1000
0000
0000
0000
,
0010
0000
1000
0001
,
1000
0000
0000
0000
,
0001
0000
0000
0000
,
0100
0000
0000
0000
,
0001
0000
0010
0001
,
1000
0000
0000
0000
,
0001
0000
0000
0000
,
0100
0000
0000
0000
,
0010
1000
0001
0000
,
1000
0000
1000
0000
,
0001
0000
0001
0000
,
0100
0000
0100
0000
,
0001
0000
0001
0000
,
2000
0000
0000
3000
,
0002
0000
0000
0003
,
1000
0000
1000
0000
,
0010
1000
0010
1000
,
0001
1000
0001
1000
,
1001
0000
0000
0000
,
1001
0000
0000
0000
,
0100
0000
0000
0000
,
0010
0000
0000
0000
,
1001
0000
0000
0000
,
1001
0000
0000
0000
,
0010
0000
0000
0000
,
0100
0000
0000
0000
,
1000
0001
0000
0000
,
0100
0001
0000
0000
,
1000
0100
0000
0000
,
1000
0001
0000
0000
,
1000
0010
0000
0000
,
0100
0010
0000
0000
,
1000
0001
0000
0000
,
0010
0000
0010
0000
,
1001
0000
0000
0000
,
1001
0000
0000
0000
,
1001
0000
0000
0000
,
0100
0000
0100
0000
,
1001
0000
0000
0000
,
1001
0000
0000
0000
,
1001
0000
0000
0000
,
0010
0000
2000
3000
;

//---------------dance-single - ----------------
#NOTES:
     dance-single:
     :
     Medium:
     6:
     0.278175,0.375431,0.118014,0.491724,0.000000,198.000000,186.000000,12.000000,50.000000,0.000000,0.000000,0.278175,0.375431,0.118014,0.491724,0.000000,198.000000,186.000000,12.000000,50.000000,0.000000,0.000000:
0000
0000
0000
0000
,
0000
0000
0000
0000
,
0000
0000
0000
0000
,
0000
0000
0000
0000
,
0000
0000
0000
0000
,
2000
0000
3100
0010
,
0002
0000
0013
0100
,
2000
0000
3100
0001
,
0020
0000
0031
0100
,
2000
0000
3001
0100
,
0020
0000
0130
0001
,
0200
0000
0301
1000
,
0002
0000
1000
0103
,
0220
0000
0000
0000
0330
0000
0000
2002
,
0000
0000
0000
3003
0000
1001
0000
0000
,
0002
0000
0003
2000
0000
0000
3000
0000
,
0020
0000
0030
2000
0000
0000
3000
0000
,
0001
0010
0100
1000
,
0020
0030
0100
0001
,
2000
0000
3000
0002
0000
0000
0003
0000
,
0200
0000
0300
0002
0000
0000
0003
0000
,
1000
0100
0010
0001
,
0200
0000
0300
0000
0010
1000
0000
0000
,
0002
0003
0200
0300
,
0010
1000
0001
0000
,
0020
0030
0200
0300
,
1001
0000
0100
0100
,
0020
0030
2000
3000
,
0001
0010
0100
0000
,
2000
3000
0002
0003
,
1000
0100
2000
0000
0000
0000
3000
0000
,
0002
1000
1000
1003
,
0100
0010
0200
0300
,
2000
0001
0001
3001
,
0100
0010
0200
0300
,
1001
0001
0001
0001
,
1001
1000
1000
1000
,
0010
1000
0010
1000
,
0001
1000
0001
1000
,
1001
0000
1001
0000
0001
1000
0000
0000
,
0100
1001
1000
0010
,
1000
0001
0100
0010
,
1000
0000
1000
0000
0001
0010
0001
0000
,
2000
3000
0100
0100
,
1000
1001
0001
0100
,
0010
0100
0001
1000
,
0001
0000
0001
0000
1000
0100
1000
0000
,
0002
0003
1000
1000
,
0100
1001
1000
0010
,
1000
0001
0100
0010
,
1000
0000
1000
0000
0001
0010
0001
0000
,
2000
3000
0100
0100
,
1000
1001
0001
0100
,
0010
0100
0001
1000
,
0001
0000
0001
0000
1000
0100
1000
0000
,
0200
0000
0000
0300
,
2000
0000
3000
0002
0000
0000
0003
0000
,
0020
0000
0030
0002
0000
0000
0003
0000
,
2000
0000
3000
0002
0000
0000
0003
0000
,
1000
0100
0010
0001
,
2000
0000
3000
0020
0000
0000
0030
0000
,
2000
0000
3000
0002
0000
0000
0003
0000
,
0010
0100
0010
0001
,
2000
0000
3000
0000
0010
0100
0000
0000
;

//---------------dance-single - ----------------
#NOTES:
     dance-single:
     :
     Hard:
     11:
     0.505774,0.594433,0.108179,0.363876,0.206524,360.000000,349.000000,11.000000,37.000000,0.000000,0.000000,0.505774,0.594433,0.108179,0.363876,0.206524,360.000000,349.000000,11.000000,37.000000,0.000000,0.000000:
0000
0000
0000
0000
,
0000
0000
0000
0000
,
0000
0000
0000
0000
,
0000
0000
0000
0000
,
0000
0000
0000
0000
,
0200
0000
1300
0000
0001
0100
0010
1000
,
0020
0000
0130
0000
0001
0010
0100
1000
,
0002
0000
0103
0000
1000
0100
0010
0001
,
2000
0000
3010
0000
0100
0001
1000
0010
,
0200
0000
0310
0000
0001
1000
0010
0100
,
0002
0000
1003
0000
0001
0100
0010
0100
,
2000
0000
3001
0000
1000
0010
0100
0010
,
0002
0000
0010
0000
0103
1000
0001
0100
,
0220
0000
0000
0000
0000
0000
0000
0000
0330
0000
0000
0000
0000
0000
0001
1000
,
0001
1000
0000
0010
0100
0000
0010
0100
0000
0000
0220
0000
0330
0000
0000
0000
,
0010
0001
0000
1000
0000
0100
0020
0000
0000
0000
0000
0000
0030
0000
0000
0000
,
1000
0001
0000
0100
0000
0010
2000
0000
0000
0000
0000
0000
3000
0000
0000
0000
,
0100
0010
0000
1000
0000
0001
0020
0000
0000
0000
0000
0000
0030
0000
0000
0000
,
2000
0010
0010
3010
,
0010
1000
0000
0001
0000
0100
0020
0000
0000
0000
0000
0000
0030
0000
0000
0000
,
1000
0001
0000
0010
0000
0100
2000
0000
0000
0000
0000
0000
3000
0000
0000
0000
,
0010
0100
0010
1000
0100
0000
0000
0000
,
0010
0001
1000
0001
0010
0100
1000
0100
0010
0000
0001
0000
0000
0000
0000
0000
,
1000
0010
1000
0001
1000
0010
1000
0001
,
0010
0100
0010
1000
0010
0100
0010
1000
,
0010
0001
1000
0010
0100
1000
0100
0220
,
0000
0300
0100
0130
,
1000
0001
1000
0100
1000
0001
1000
0100
,
0010
0100
0001
0100
0010
0100
0001
0100
,
1000
0001
0100
0010
1000
0001
0010
0001
,
1000
0100
0020
0000
0001
0000
0031
0000
,
2000
3000
0200
0300
,
0010
0001
0100
1000
0100
0001
0010
0000
,
0200
0300
2000
3000
,
0001
0010
0100
1000
0010
0100
0001
0000
,
2000
3100
0020
0031
,
2000
3010
0200
0302
,
1000
1000
1000
1003
,
0010
0100
0010
1000
0001
0010
0100
0010
,
0110
0000
1001
0000
1010
1001
0000
0000
,
0100
0000
1001
0000
0010
0100
0010
1000
,
0001
0000
0010
0000
0100
0010
0001
0010
,
0100
0000
1000
0000
0001
0100
1000
0100
,
0010
0000
1000
0000
0001
0010
0100
0010
,
0001
0000
1001
0000
0100
0010
0100
1000
,
0100
0000
0001
0000
1000
0100
1000
0001
,
1000
0000
0100
0000
0010
0001
0010
0100
,
1000
0000
0001
0000
0100
0010
0100
0001
,
1000
0000
1001
0000
0010
0100
0010
1000
,
0001
0000
0010
0000
0100
0010
0001
0010
,
0100
0000
1000
0000
0001
0100
1000
0100
,
0010
0000
1000
0000
0001
0010
0100
0010
,
0001
0000
1001
0000
0100
0010
0100
1000
,
0100
0000
0001
0000
1000
0100
1000
0010
,
0100
0000
0001
0000
1000
0100
0010
0001
,
1000
0000
1000
0000
0001
0010
0001
0010
,
0100
1000
0000
0001
0000
0010
0200
0000
0000
0000
1000
0000
1300
0000
0000
0000
,
0001
1000
0000
0010
0000
0100
0002
0000
0000
0000
1000
0000
1003
0000
0000
0000
,
0010
0100
0000
0001
0000
1000
0200
0000
0000
0000
0010
0000
0310
0000
0000
0000
,
0002
0100
0100
0103
,
0010
1000
0000
0001
0000
0100
0020
0000
0000
0000
1000
0000
1030
0000
0000
0000
,
0001
1000
0000
0010
0000
0100
0002
0000
0000
0000
1000
0000
1003
0000
0000
0000
,
0010
0100
0001
0100
0020
0000
0030
0000
,
0100
0001
1000
0001
0100
0010
1000
0010
0100
0000
0001
0000
0000
0000
0000
0000
;

//---------------dance-double - ----------------
#NOTES:
     dance-double:
     :
     Easy:
     4:
     0.161567,0.347526,0.147517,0.098345,0.000000,115.000000,100.000000,15.000000,10.000000,0.000000,0.000000,0.161567,0.347526,0.147517,0.098345,0.000000,115.000000,100.000000,15.000000,10.000000,0.000000,0.000000:
00000000
00000000
00000000
00000000
,
00000000
00000000
00000000
00000000
,
00000000
00000000
00000000
00000000
,
00000000
00000000
00000000
00000000
,
00000000
00000000
00000000
00000000
,
20000000
00000000
31000000
00000000
,
00020000
00000000
01030000
00000000
,
00002000
00000000
00003010
00000000
,
00000002
00000000
00000013
00000000
,
00100000
00010000
00001000
00000000
,
00000100
00000010
00001000
00000000
,
00000001
00000010
00000100
00000000
,
00001000
00010000
00100000
00000000
,
02200000
00000000
00000000
00000000
,
03300000
00000000
00000000
00000000
,
00011000
00000000
00000000
00000000
,
00011000
00000000
00000000
00000000
,
01000000
00000000
00000000
00000000
,
10000000
00000000
00100000
00000000
,
00011000
00000000
00000000
00000000
,
00011000
00000000
00000000
00000000
,
00000010
00000000
00000000
00000000
,
00000001
00000000
00000100
00000000
,
00000010
00000000
00000000
00000000
,
00010000
00000000
00000000
00000000
,
00001000
00000000
00000000
00000000
,
00011000
00000000
00010000
00010000
,
01000000
00000000
00000000
00000000
,
10000000
00000000
00000000
00000000
,
00010000
00000000
00000000
00000000
,
01000000
00000000
00001000
00001000
,
00011000
00000000
00000000
00000000
,
00000020
00000000
00000000
00000030
,
00001001
00000000
00000000
00000000
,
00000200
00000000
00000000
00000300
,
00010000
00010000
00000000
00000000
,
00001000
00001000
00000000
00000000
,
01000000
00000000
00010000
00000000
,
10000000
10000000
10000000
10000000
,
10010000
10010000
10010000
00000000
,
01000000
00000000
00001000
00000000
,
00010000
00000000
00000010
00000000
,
00001000
00000000
00000001
00000000
,
00000010
00000000
00000000
00000000
,
00000100
00000000
00010000
00000000
,
00001000
00000000
00100000
00000000
,
01000000
00000000
10000000
00000000
,
00010000
00000000
00000000
00000000
,
01000000
00000000
00001000
00000000
,
00010000
00000000
00000010
00000000
,
00000100
00000000
00000001
00000000
,
00001000
00000000
00000000
00000000
,
00010000
00000000
01000000
00000000
,
00010000
00000000
10000000
00000000
,
00100000
00000000
01000000
00000000
,
00002000
00000000
00000000
00003000
,
00011000
00000000
00000000
00000000
,
00011000
00000000
00000000
00000000
,
00000010
00000000
00001000
00000000
,
00000001
00000000
00001000
00000000
,
00011000
00000000
00000000
00000000
,
00011000
00000000
00000000
00000000
,
01000000
00000000
00010000
00000000
,
10000000
00000000
02000000
00000000
,
00000000
03000000
00000000
00000000
;

//---------------dance-double - ----------------
#NOTES:
     dance-double:
     :
     Medium:
     6:
     0.297844,0.344146,0.157352,0.432717,0.000000,212.000000,196.000000,16.000000,44.000000,0.000000,0.000000,0.297844,0.344146,0.157352,0.432717,0.000000,212.000000,196.000000,16.000000,44.000000,0.000000,0.000000:
00000000
00000000
00000000
00000000
,
00000000
00000000
00000000
00000000
,
00000000
00000000
00000000
00000000
,
00000000
00000000
00000000
00000000
,
00000000
00000000
00000000
00000000
,
20000000
01000000
31000000
00100000
,
00020000
00001000
00031000
00000100
,
00000020
00000001
00000031
00000100
,
00012000
00003000
00021000
00030000
,
00020000
00100000
01030000
00100000
,
00020000
00000100
00030010
00000100
,
00000002
00000010
00000103
00001000
,
00020000
00100000
01030000
10000000
,
20020000
00000000
00000000
00000000
30030000
00000000
00000000
00022000
,
00000000
00000000
00000000
00000000
00000000
00033000
00000000
00000000
,
00011000
00000000
00001000
00001000
,
00011000
00000000
00010000
00010000
,
00000020
00000030
00002000
00003000
,
00000002
00000003
00000010
00000100
,
00011000
00000000
00010000
00010000
,
00011000
00000000
00001000
00001000
,
02000000
03000000
00020000
00030000
,
20000000
00000000
30000000
00000000
01000000
00100000
00000000
00000000
,
00001000
00001000
00001000
00001000
,
00000010
00000000
00000100
00000000
,
00001000
00000100
00000010
00000001
,
00001000
00000000
01000000
00000000
,
10000000
10000000
10000000
10000000
,
01000000
00000000
00010000
00000000
,
00001000
00000100
00000010
00000001
,
00000010
00000000
00010000
00000000
,
01000000
10000000
01000000
00000000
00200000
00000000
00300000
00000000
,
00010000
10000000
00010000
00000000
02000000
00000000
03000000
00000000
,
00001000
00010000
00001000
00000000
00000200
00000000
00000300
00000000
,
00000001
00000100
00000001
00000000
00002000
00000000
00003000
00000000
,
00000200
00000300
00020000
00030000
,
02000000
03000000
20000000
30000000
,
00020000
01030000
02000000
03001000
,
00002000
00000000
00000000
00003000
,
00010000
00000000
00010000
00000000
00001000
00010000
00000000
00000000
,
00000010
00001001
00001000
00000100
,
00001000
00001001
00000001
00000100
,
00000010
00010000
00001000
01000000
,
00100000
00000000
10000000
10000000
,
01000000
10010000
00100000
10000000
,
00010000
10010000
00100000
00010000
,
01000000
00001000
00010000
00000010
,
00000100
00000000
00000001
00000001
,
00000010
00001001
00001000
00000100
,
00001000
00001001
00000001
00000100
,
00000010
00010000
00001000
01000000
,
00100000
00000000
10000000
10000000
,
01000000
10010000
00100000
10000000
,
00010000
10010000
00100000
00010000
,
01000000
00001000
00010000
00000010
,
00000200
00000000
00000000
00000300
,
00000002
00001003
00002000
00003100
,
00000200
00010300
00020000
00031000
,
00002000
01003000
02000000
03010000
,
00010000
00100000
01000000
10000000
,
00020000
01030000
02000000
03001000
,
00002000
00013000
00020000
00030100
,
00000200
00000310
00000020
00000031
,
00000002
00000000
00000003
00000000
00001000
00000010
00000000
00000000
;

//---------------dance-double - ----------------
#NOTES:
     dance-double:
     :
     Hard:
     12:
     0.519823,0.594433,0.118014,0.639242,0.063924,370.000000,358.000000,12.000000,65.000000,0.000000,0.000000,0.519823,0.594433,0.118014,0.639242,0.063924,370.000000,358.000000,12.000000,65.000000,0.000000,0.000000:
00000000
00000000
00000000
00000000
,
00000000
00000000
00000000
00000000
,
00000000
00000000
00000000
00000000
,
00000000
00000000
00000000
00000000
,
00000000
00000000
00000000
00000000
,
20000000
00000000
31000000
00000000
01000000
00100000
00010000
00001000
,
00020000
00000000
00031000
00000000
00001000
00000100
00000010
00000001
,
00000020
00000000
00000130
00000000
00000001
00000010
00000100
00001000
,
00020000
00000000
00031000
00000000
00001000
00010000
00010000
00100000
,
02000000
00000000
03100000
00000000
00100000
01000000
00010000
00001000
,
00000200
00000000
00001300
00000000
00000010
00000100
00000001
00001000
,
00000200
00000000
00010300
00000000
00001000
00010000
00100000
01000000
,
20000000
30010000
00110000
00011000
,
00002200
00000000
00000000
00000000
00000000
00000000
00000000
00000000
00003300
00000000
00000000
00000000
00000000
00000000
00010000
00001000
,
00010000
00001000
00000000
00010000
00000100
00000000
00001000
00000100
00000000
00000000
00001100
00000000
00000000
00000000
00000000
00000000
,
00000001
00000010
00000100
00001000
00010000
00100000
02000000
00000000
,
03010000
00100000
01000000
00010000
00001000
00000010
00000200
00000000
,
00001300
00000010
00000100
00000001
00001000
00010000
02000000
00000000
,
03100000
00100000
00100000
00100000
,
10000000
01000000
00100000
00010000
00001000
00000100
00000020
00000000
,
00000031
00000100
00000010
00001000
00010000
01000000
00200000
00000000
,
10300000
10000000
10000000
10000000
,
00010000
00000000
00100000
00000000
01000000
20000000
00000000
00000000
,
00000000
30010000
00100000
00002000
00000000
00023000
00000000
00030000
,
00000100
00000010
00000001
00002000
00000000
00003000
01000000
00010000
,
01000000
00000000
00100000
00020000
00000000
10030000
00010000
01000000
,
00000000
00000000
00001000
00010000
00001000
00000000
00000100
00001000
00000100
00000000
00000010
00000100
00000010
00000000
00001000
00000010
,
00001000
00000001
00000010
00000200
00000000
00002300
00000000
00003000
,
01000000
00100000
01000000
20000000
00000000
30000000
00000000
00020000
,
00000000
01030000
00100000
01000000
00001000
00020000
00000000
00030010
,
00000000
00000000
00000100
00000001
00000100
00000000
00000010
00001000
00000010
00000000
00010000
00001000
00010000
00000000
01000000
00010000
,
01000000
00100000
00010000
02000000
00000000
13000000
01000000
00200000
,
00000000
10300000
00010000
02000000
00000000
03001000
00010000
00000100
,
00001000
00000001
00000100
00000020
00000000
00010030
00001000
02000000
,
00000000
03100000
10000000
01000000
00200000
00001000
00301000
00000000
,
00000010
00000100
00001000
00000002
00000000
00000103
00001000
00000000
,
00010000
00100000
01000000
00020000
00000000
10030000
01000000
00000000
,
00200000
00000000
00302000
00000000
00003010
00000001
00001000
00000010
,
00020000
00000000
00000000
00030000
,
10010000
00000000
10010000
00000000
10100000
10010000
00000000
00000000
,
00001000
00000000
00011000
00000000
00000100
00001000
00000001
00000200
,
00000000
00000310
00020000
00000000
00031000
01000000
00100000
20000000
,
00000000
30010000
02000000
00000000
03001000
00010000
00000100
00000020
,
00000000
00000031
00002000
00000000
00103000
01000000
00010000
20000000
,
00000000
31000000
10010000
00000000
00100000
10000000
00010000
02000000
,
00000000
03001000
00020000
00000000
00030100
00000010
00000001
00002000
,
00000000
00013000
00200000
00000000
01300000
10000000
00010000
02000000
,
00000000
03100000
00020000
00000000
00030010
00001000
00000100
00000020
,
00000000
00000031
00001001
00000000
00000010
00010000
00001000
02000000
,
00000000
03100000
20000000
00000000
31000000
00100000
00001000
00020000
,
00000000
00030010
00000200
00000000
00000301
00001000
00000100
00020000
,
00000000
00031000
01000000
00000000
00100000
01000000
10000000
02000000
,
00000000
03001000
00020000
00000000
00030010
00000100
00001000
00000200
,
00000000
00000301
00002000
00000000
00003100
00010000
00001000
02000000
,
00000000
03100000
01000000
00000000
00010000
00001000
00000010
00000100
,
00000001
00001000
01000000
00100000
00010000
10000000
00100000
01000000
,
10000000
01000000
00100000
00010000
00001000
00000100
00000020
00000000
,
00001030
00000100
00000010
00001000
00010000
01000000
00200000
00000000
,
00310000
01000000
00100000
10000000
00010000
00001000
00000020
00000000
,
00000130
00000100
00000100
00000100
,
00000001
00000010
00000100
00001000
00010000
00100000
02000000
00000000
,
13000000
00100000
01000000
00010000
00001000
00000010
00000200
00000000
,
00000301
00000010
00000100
00001000
00010000
01000000
00100000
10000000
,
00010000
00100000
00001000
00000000
00010000
00000000
00000100
00000000
00000010
00000000
00001001
00000000
00000000
00000000
00000000
00000000
;

//---------------dance-single - ----------------
#NOTES:
     dance-single:
     :
     Challenge:
     7:
     0.251482,0.376169,0.108179,0.354041,0.000000,179.000000,168.000000,11.000000,36.000000,160.000000,0.000000,0.251482,0.376169,0.108179,0.354041,0.000000,179.000000,168.000000,11.000000,36.000000,160.000000,0.000000:
0000
0000
0000
0000
,
0000
0000
0000
0000
,
0000
0000
0000
0000
,
0000
0000
0000
0000
,
0000
0000
0000
0000
,
2000
0000
3100
MMMM
,
0002
0000
0013
MMMM
,
2000
0000
3100
MMMM
,
0020
0000
0031
MMMM
,
2000
0000
3001
MMMM
,
0020
0000
0130
MMMM
,
0200
0000
0301
MMMM
,
0002
0000
1003
MMMM
,
0220
0000
0000
0000
0330
0000
0000
2002
,
0000
0000
0000
3003
0000
MMMM
0000
0000
,
0002
0000
0003
1000
0000
0000
MMMM
0000
,
0020
0000
0030
1000
0000
0000
MMMM
0000
,
0001
0010
0100
1000
,
0020
0030
0100
MMMM
,
2000
0000
3000
0001
0000
0000
MMMM
0000
,
0200
0000
0300
0001
0000
0000
MMMM
0000
,
1000
0100
0010
0001
,
0200
0000
0300
0000
0010
1000
MMMM
0000
,
0002
0003
0200
0300
,
0010
1000
0001
MMMM
,
0020
0030
0200
0300
,
1001
MMMM
0100
0100
,
0020
0030
2000
3000
,
0001
0010
0100
MMMM
,
2000
3000
0002
0003
,
1000
0100
2000
0000
3000
0000
MMMM
0000
,
0002
1000
1000
1003
,
0100
0010
0100
MMMM
,
2000
0001
0001
3001
,
0100
0010
0100
MMMM
,
1001
0001
0001
MMMM
,
1001
1000
1000
MMMM
,
0010
MMMM
0010
MMMM
,
0001
1000
0001
1000
,
1001
0000
1001
0000
0001
1000
MMMM
0000
,
0100
1001
1000
0010
,
1000
0001
0100
MMMM
,
1000
0000
1000
0000
0001
0010
0001
0000
,
1000
MMMM
0100
0100
,
1000
1001
0001
0100
,
0010
0100
0001
MMMM
,
0001
0000
0001
0000
1000
0100
1000
0000
,
0001
MMMM
1000
1000
,
0100
1001
1000
0010
,
1000
0001
0100
MMMM
,
1000
0000
1000
0000
0001
0010
0001
0000
,
1000
MMMM
0100
0100
,
1000
1001
0001
0100
,
0010
0100
0001
MMMM
,
0001
0000
0001
0000
1000
0100
1000
0000
,
0200
0000
0300
MMMM
,
2000
0000
3000
0001
0000
0000
MMMM
0000
,
0020
0000
0030
0001
0000
0000
MMMM
0000
,
2000
0000
3000
0001
0000
0000
MMMM
0000
,
1000
0100
0010
0001
,
2000
0000
3000
0010
0000
0000
MMMM
0000
,
2000
0000
3000
0001
0000
0000
MMMM
0000
,
0010
0100
0010
0001
,
2000
0000
3000
0000
0010
0100
MMMM
0000
;

//---------------dance-double - ----------------
#NOTES:
     dance-double:
     :
     Challenge:
     7:
     0.275366,0.344822,0.157352,0.354041,0.000000,196.000000,180.000000,16.000000,36.000000,352.000000,0.000000,0.275366,0.344822,0.157352,0.354041,0.000000,196.000000,180.000000,16.000000,36.000000,352.000000,0.000000:
// measure 0
00000000
00000000
00000000
00000000
,  // measure 1
00000000
00000000
00000000
00000000
,  // measure 2
00000000
00000000
00000000
00000000
,  // measure 3
00000000
00000000
00000000
00000000
,  // measure 4
00000000
00000000
00000000
00000000
,  // measure 5
20000000
01000000
31000000
MMMMMMMM
,  // measure 6
00020000
00001000
00031000
MMMMMMMM
,  // measure 7
00000020
00000001
00000031
MMMMMMMM
,  // measure 8
00011000
MMMMMMMM
00011000
MMMMMMMM
,  // measure 9
00020000
00100000
01030000
MMMMMMMM
,  // measure 10
00020000
00000100
00030010
MMMMMMMM
,  // measure 11
00000002
00000010
00000103
MMMMMMMM
,  // measure 12
00020000
00100000
01030000
MMMMMMMM
,  // measure 13
20020000
00000000
00000000
00000000
30030000
00000000
00000000
00022000
,  // measure 14
00000000
00000000
00000000
00000000
00000000
00033000
00000000
00000000
,  // measure 15
00011000
MMMMMMMM
00001000
00001000
,  // measure 16
00011000
MMMMMMMM
00010000
00010000
,  // measure 17
00000020
00000030
00002000
00003000
,  // measure 18
00000002
00000003
00000010
MMMMMMMM
,  // measure 19
00011000
MMMMMMMM
00010000
00010000
,  // measure 20
00011000
MMMMMMMM
00001000
00001000
,  // measure 21
02000000
03000000
00020000
00030000
,  // measure 22
20000000
00000000
30000000
00000000
01000000
00100000
00000000
00000000
,  // measure 23
00001000
00001000
00001000
00001000
,  // measure 24
00000010
MMMMMMMM
00000100
MMMMMMMM
,  // measure 25
00001000
00000100
00000010
00000001
,  // measure 26
00001000
MMMMMMMM
01000000
MMMMMMMM
,  // measure 27
10000000
10000000
10000000
10000000
,  // measure 28
01000000
MMMMMMMM
00010000
MMMMMMMM
,  // measure 29
00001000
00000100
00000010
00000001
,  // measure 30
00000010
MMMMMMMM
00010000
MMMMMMMM
,  // measure 31
01000000
10000000
01000000
00000000
00100000
00000000
MMMMMMMM
00000000
,  // measure 32
00010000
10000000
00010000
00000000
01000000
00000000
MMMMMMMM
00000000
,  // measure 33
00001000
00010000
00001000
00000000
00000100
00000000
MMMMMMMM
00000000
,  // measure 34
00000001
00000100
00000001
00000000
00001000
00000000
MMMMMMMM
00000000
,  // measure 35
00000200
00000300
00010000
MMMMMMMM
,  // measure 36
02000000
03000000
10000000
MMMMMMMM
,  // measure 37
00020000
01030000
02000000
03001000
,  // measure 38
00002000
00003000
MMMMMMMM
MMMMMMMM
,  // measure 39
00010000
00000000
00010000
00000000
00001000
00010000
00000000
00000000
,  // measure 40
00000010
00001001
00001000
00000100
,  // measure 41
00001000
00001001
00000001
00000100
,  // measure 42
00000010
00010000
00001000
01000000
,  // measure 43
00100000
MMMMMMMM
10000000
10000000
,  // measure 44
01000000
10010000
00100000
10000000
,  // measure 45
00010000
10010000
00100000
00010000
,  // measure 46
01000000
00001000
00010000
00000010
,  // measure 47
00000100
MMMMMMMM
00000001
00000001
,  // measure 48
00000010
00001001
00001000
MMMMMMMM
,  // measure 49
00001000
00001001
00000001
MMMMMMMM
,  // measure 50
00000010
00010000
00001000
MMMMMMMM
,  // measure 51
00100000
MMMMMMMM
10000000
10000000
,  // measure 52
01000000
10010000
00100000
MMMMMMMM
,  // measure 53
00010000
10010000
00100000
MMMMMMMM
,  // measure 54
01000000
00001000
00010000
MMMMMMMM
,  // measure 55
00000200
00000300
MMMMMMMM
MMMMMMMM
,  // measure 56
00000002
00001003
00002000
00003100
,  // measure 57
00000200
00010300
00020000
00031000
,  // measure 58
00002000
01003000
02000000
03010000
,  // measure 59
00010000
MMMMMMMM
01000000
MMMMMMMM
,  // measure 60
00020000
01030000
02000000
03001000
,  // measure 61
00002000
00013000
00020000
00030100
,  // measure 62
00000200
00000310
00000020
00000031
,  // measure 63
00000002
00000000
00000003
00000000
00001000
00000010
MMMMMMMM
00000000
;
