#TITLE:X↑X↓;
#SUBTITLE:;
#ARTIST:DJ TECHNORCH;
#TITLETRANSLIT:;
#SUBTITLETRANSLIT:;
#ARTISTTRANSLIT:;
#GENRE:beatmania IIDX;
#CREDIT:;
#BANNER:;
#BACKGROUND:;
#LYRICSPATH:;
#CDTITLE:;
#MUSIC:xX.ogg;
#OFFSET:-0.620000;
#SAMPLESTART:31.276028;
#SAMPLELENGTH:15.000000;
#SELECTABLE:YES;
#DISPLAYBPM:172.000;
#BPMS:0.000000=172.000000
;
#STOPS:
;
#BGCHANGES:;
#KEYSOUNDS:;
#ATTACKS:;

//---------------dance-single - ----------------
#NOTES:
     dance-single:
     :
     Hard:
     15:
     0.691705,0.832901,0.222107,0.177686,0.459021,600.000000,30.000000,24.000000,0.000000,0.000000,0.000000,0.691705,0.832901,0.222107,0.177686,0.459021,600.000000,30.000000,24.000000,0.000000,0.000000,0.000000:
0000
0000
0000
0000
,
0000
0000
0000
0000
,
0000
0000
0000
0000
,
0000
0000
0000
0000
,
1000
0010
0100
0000
0001
0010
0100
0000
,
0001
0010
0100
2200
0000
0300
3100
0000
,
1100
0010
0100
0000
0001
0010
0100
0000
,
0011
0010
0100
0000
0001
1000
0010
0000
,
1100
1000
0001
0000
0010
1000
0001
0000
,
0011
0001
0100
0000
0001
0100
1000
0000
,
0010
1000
0100
0010
0100
0001
0010
0100
,
1000
0010
1000
0100
0010
0100
0001
0100
,
0001
0100
0001
0000
1000
0100
1000
0000
0001
0010
0001
0000
1000
0010
1000
0000
,
0001
0100
0001
0100
0001
0100
0001
0100
0001
0100
0001
0100
0001
0000
0000
0000
,
0001
0011
0000
0000
0010
0110
0000
0000
,
0100
1100
0000
0000
1000
1001
0000
0000
,
0001
0110
0000
0000
0100
1001
0000
0000
,
1000
0100
0010
0000
0001
0100
0010
0000
,
0010
1000
0100
0010
0100
0001
0010
0000
,
0001
0010
0100
0010
1000
0100
0010
0000
,
0010
1000
0100
0010
0100
0001
0010
0100
,
1000
0000
0010
0000
1000
0000
0001
0000
0100
0000
0010
0000
0100
0001
0010
0001
,
0200
0000
0000
0000
,
0320
0000
0000
0000
,
0031
0000
1000
0000
0010
0000
1000
0000
0100
0000
0010
0000
0100
0001
0100
0001
,
0100
0010
1000
0010
0001
0100
1100
0000
,
1000
0000
0010
0000
0100
0000
0001
0000
0010
0000
0100
0000
0001
0100
0001
0100
,
0001
0010
1000
0100
1100
0000
0101
0000
,
0001
0000
0100
0000
0010
0000
1000
0000
0100
1000
0100
1000
0100
0000
0001
0000
,
0010
0100
0001
0010
1000
0100
0011
0000
,
0010
0000
0100
0000
0001
0000
0010
0000
0001
0100
0001
0100
0001
0000
1000
0000
,
0010
0100
1000
0100
0001
0100
1000
0000
,
1000
0100
0000
1000
0100
0000
1000
0100
0000
0000
0010
0000
0100
0000
1000
0000
,
0001
1000
0000
0001
1000
0000
0001
1000
0000
0000
0001
0000
0010
0000
0100
0000
,
0001
0010
0000
0001
0010
0000
0001
0010
0000
0000
0100
0000
0001
0000
0010
0000
,
0100
0010
0000
1000
0010
0000
0100
0010
0000
0001
0010
0000
0001
0000
1000
0000
,
0001
0010
0001
0010
0001
0000
0010
0001
0000
0000
0100
0000
1000
0000
0010
0000
,
0100
1000
0100
1000
0100
0000
1000
0100
0000
0000
1000
0000
0001
0000
1000
0000
,
0010
0100
0010
0100
0010
0000
0100
0010
0000
0000
0001
0000
1000
0000
0100
0000
,
0120
2030
3002
0203
,
0310
0000
0000
0000
,
2000
0000
0000
0100
0000
3100
1000
0000
,
0001
0100
0010
1000
0010
1000
1100
0000
,
0010
1000
0010
0100
0001
0100
0011
0000
,
0001
0010
0100
1000
0010
1000
1100
0000
,
0001
0000
0100
0000
0010
0000
1000
0000
0100
0000
0010
0000
0001
0000
0100
1000
,
0100
0000
0001
0000
0010
0000
0001
0000
0100
0000
0010
0000
1000
0000
0001
0100
,
0001
0000
0010
0000
1000
0000
0100
0000
0010
0000
1000
0000
0001
0000
1000
0001
,
1000
0000
0010
0000
1000
0000
0100
0000
0010
0000
0100
0000
0001
0000
0100
0010
,
0100
0000
0000
0000
0010
0000
0100
0010
0000
0100
0010
0000
0001
0000
1000
0010
,
1000
0000
0000
0000
0010
0000
0100
0001
0000
0100
0001
0000
0010
0000
1000
0010
,
1000
0000
0000
0000
0010
0000
1000
0001
0000
1000
0001
0000
0010
0000
1000
0010
,
0100
0000
0001
0000
0010
0000
0100
0000
1000
0000
0100
0000
0001
0010
0100
1000
,
0020
0000
0000
0001
0000
0000
0000
0000
,
0230
0000
0000
1000
0000
0000
0000
0000
,
2300
0000
0000
0100
0000
0000
0000
0000
,
3002
0000
0000
0010
0000
0000
0000
0000
,
0203
0000
0000
0020
0000
0000
0300
0000
,
0032
0000
0000
2000
0000
0000
0003
0000
,
3200
0000
0000
0000
0010
0000
0000
2000
,
0000
0000
0000
0000
,
3300
0000
0000
0000
,
0000
0000
0000
0000
,
0000
0000
0000
0000
,
1000
1100
0000
0000
0100
0110
0000
0000
,
0010
0000
0011
0000
0000
0000
0000
0000
0001
0000
1001
0000
0000
0000
0001
0010
,
0001
1000
0000
0000
0010
0110
0000
0000
,
1000
0000
1100
0000
0000
0000
0000
0000
0001
0000
0011
0000
0000
0000
0001
0100
,
0001
0000
1000
0000
0000
0000
0010
0000
0100
0000
1000
0000
0000
0000
1000
0100
,
1000
0000
0001
0000
0000
0000
0010
0000
0100
0000
0001
0000
0000
0000
0001
0100
,
0010
0001
1000
0100
0010
0100
0001
0010
,
1000
0100
1000
0100
1000
0100
1000
0100
1000
0100
1000
0100
1000
0100
1000
0100
,
2000
0000
0000
0000
,
3200
0000
0000
0000
0000
0000
0000
0000
0320
0000
0000
0000
0000
0000
0000
0030
,
0001
0000
0010
0000
0100
0000
0010
1000
0000
0010
1000
0010
0100
0000
0001
0000
,
0010
0000
1000
0000
0010
0000
0100
0001
0000
0100
0010
1000
0010
0000
0001
0000
,
0010
0000
0100
0000
0010
0000
1000
0001
0000
0001
1000
0010
1000
0000
0010
0000
,
0100
0001
0010
0100
1000
0000
1100
0000
,
0001
0000
1000
0000
0010
0000
1000
0010
0000
1000
0001
0100
0010
0000
0001
0000
,
0010
0000
0100
0000
1000
0000
0010
0100
0000
0001
0100
0010
1000
0010
0100
0000
,
0001
0000
0010
0000
0100
0000
1000
0010
0000
1000
0010
0100
0001
0000
0010
0000
,
0100
0010
0001
0010
0100
1000
1100
0000
,
1000
0010
0000
1000
0010
0000
0100
0010
0000
0100
0010
0000
0001
0000
0010
0000
,
0100
0010
0000
0100
0010
0000
0100
0001
0000
0100
0001
0000
0010
0000
1000
0000
,
0100
1000
0000
0100
1000
0000
0001
0100
0000
0001
0100
0000
0010
0000
0100
0000
,
1000
0010
0000
0100
0001
0000
1000
0100
0000
0010
0001
0010
0001
0000
0000
0000
,
0001
0010
0001
0010
0001
0000
0100
0010
0000
1000
0010
0100
0001
0000
0010
0000
,
1000
0100
1000
0100
1000
0000
0010
0001
0000
0100
0001
0100
1000
0000
0001
0000
,
0010
0100
0010
0001
0010
0000
0010
0100
0000
0000
1000
0100
0010
0100
1000
0000
,
0002
0000
0000
2003
0000
0000
3100
0010
0110
0001
1000
0001
,
1001
0000
0000
0000
;

//---------------dance-single - ----------------
#NOTES:
     dance-single:
     :
     Medium:
     12:
     0.506616,0.533057,0.214703,0.192493,0.014807,424.000000,29.000000,26.000000,0.000000,0.000000,0.000000,0.506616,0.533057,0.214703,0.192493,0.014807,424.000000,29.000000,26.000000,0.000000,0.000000,0.000000:
0000
0000
0000
0000
,
0000
0000
0000
0000
,
0000
0000
0000
0000
,
0000
0000
0000
0000
,
2000
0000
0000
0100
0000
3100
0000
0001
,
0100
0020
0000
0001
0000
0031
0000
0001
,
0010
0100
1000
0000
1100
0000
1000
0000
,
0010
1000
0101
0000
0011
0000
0010
0000
,
0100
0001
0010
0000
1100
0000
0100
0000
,
0001
1000
0010
0000
0011
0000
1001
0000
,
0010
1000
0100
0000
0001
0100
0010
0000
,
1000
0100
0010
0000
0100
0010
0001
0000
,
0001
0010
0100
1000
0001
0010
0100
1000
,
0001
0100
0010
1000
0001
0100
0010
1000
,
0002
0000
0103
0010
,
2000
0000
3010
0100
,
0002
0000
0103
0010
,
2000
0000
3010
0100
,
0001
0100
0010
0000
1000
0100
0010
0000
,
0010
0100
0001
0000
0001
0010
1000
0000
,
0001
1000
0100
0010
0100
0001
0010
0100
,
1000
1100
0100
0101
,
0002
0000
0000
0000
,
0023
0000
0000
0000
,
1030
0001
1000
0001
1000
0000
0101
0000
,
0001
0100
0001
0100
0001
0000
1100
0000
,
1000
0010
1000
0010
1000
0000
0011
0000
,
0001
0100
0010
0000
0010
1000
0100
0000
,
0001
0100
0001
0100
0001
0000
0011
0000
,
0001
1000
0001
1000
0001
0000
1010
0000
,
1000
0010
1000
0010
1000
0000
1100
0000
,
1000
0001
1000
0000
0010
1000
0001
0000
,
0001
0010
0100
1000
0010
0100
0001
0000
,
0001
0010
0100
1000
0010
0100
0001
0000
,
0001
0010
0100
1000
0010
0100
0001
0000
,
0001
0010
0100
1000
0010
0100
0001
0000
,
0001
0100
1000
0100
0001
0000
1001
0000
,
0001
0100
1000
0100
0001
0000
1001
0000
,
1000
0010
0001
0010
1000
0000
1001
0000
,
1000
0010
0001
0010
1000
0000
1001
0000
,
0020
0000
0000
0000
,
2030
0000
0000
0100
0000
3100
0000
0000
,
0002
0000
0000
0100
0000
0103
0000
0000
,
2000
0000
0000
0010
0000
3010
0000
0000
,
0002
0000
0000
0010
0000
0013
0000
0000
,
1000
0100
0010
0100
0000
0100
0000
0010
,
0001
0100
1000
0010
0000
0010
0000
0100
,
0001
0010
0100
1000
0000
1000
0000
1000
,
0100
0010
0100
0001
0000
0001
0000
0001
,
0010
0100
1000
0010
0000
0010
0000
0010
,
1000
0001
0100
0010
0000
0010
0000
0010
,
1000
0001
0100
1000
0000
1000
0000
1000
,
0100
0010
0100
0001
0000
0001
0000
0001
,
0020
0000
0000
0100
0000
0000
0000
0000
,
2030
0000
0000
0100
0000
0000
0000
0000
,
3002
0000
0000
0100
0000
0000
0000
0000
,
0023
0000
0000
0100
0000
0000
0000
0000
,
2030
0000
0000
3200
0000
0000
0000
0000
,
0302
0000
0000
0203
0000
0000
0000
0000
,
0320
0000
0000
0000
2030
0000
0000
0002
,
0000
0000
0000
0000
,
3003
0000
0000
0000
,
0000
0000
0000
0000
,
0000
0000
0000
0000
,
1100
0100
0101
0001
,
0011
0010
1010
1000
,
1100
0100
0001
0010
,
0001
0010
0100
1000
,
1000
0100
1000
0000
0001
0100
0001
0000
,
0010
1000
0010
0000
0001
0010
0001
0000
,
0001
0010
0100
1000
0001
0010
0100
1000
,
0001
0100
0010
1000
0001
0100
0010
1000
,
0002
0000
0000
0000
,
2003
0000
0000
3000
,
0010
0100
0001
0100
0010
0000
1001
0000
,
0010
1000
0100
1000
0010
0000
1100
0000
,
0010
1000
0001
0100
0010
0000
0011
0000
,
0001
0100
1000
0000
1000
0100
0001
0000
,
0010
1000
0001
1000
0010
0000
1001
0000
,
1000
0001
0100
0001
1000
0000
1001
0000
,
1000
0100
1000
0010
1000
0000
1100
0000
,
0001
1000
0100
0000
0010
1000
0001
0000
,
0001
0010
0100
0010
1000
0100
0010
0000
,
0001
0010
0100
0010
1000
0100
0010
0000
,
0001
0010
0100
0010
1000
0100
0010
0000
,
0001
0010
0100
0010
1000
0100
0010
0000
,
0001
0100
1000
0100
0001
0100
1000
0000
,
0001
0010
1000
0010
0001
0010
1000
0000
,
1000
0100
0010
0001
1000
0010
0100
0001
,
1000
0000
0000
0001
0000
0000
1000
0001
1000
0001
1000
0001
,
1000
0000
0000
0000
;

//---------------dance-single - ----------------
#NOTES:
     dance-single:
     :
     Easy:
     7:
     0.324699,0.433109,0.051825,0.111054,0.000000,285.000000,7.000000,15.000000,0.000000,0.000000,0.000000,0.324699,0.433109,0.051825,0.111054,0.000000,285.000000,7.000000,15.000000,0.000000,0.000000,0.000000:
0000
0000
0000
0000
,
0000
0000
0000
0000
,
0000
0000
0000
0000
,
0000
0000
0000
0000
,
2000
0000
0000
0100
0000
3100
0000
0000
,
0002
0000
0000
0100
0000
0103
0000
0000
,
0010
1000
0010
0000
,
0001
0010
0001
0000
,
1000
0010
1000
0000
,
0010
0100
0010
0000
,
0001
0010
0100
1000
,
0001
0010
0100
1000
,
0001
0010
0100
1000
,
0002
0000
0000
0000
,
1003
0100
1000
0000
,
0001
0100
0001
0000
,
1000
0100
1000
0000
,
0001
0100
0001
0000
,
1000
0010
1000
0010
,
0001
0010
0001
0010
,
0001
1000
0001
1000
,
0010
0000
0010
0000
0010
0010
0010
0000
,
0002
0000
0000
0000
,
0000
0000
0000
0003
,
1000
0000
0010
0000
1000
0100
1000
0000
,
0010
0100
0001
0000
,
0001
0000
0100
0000
0010
0001
0010
0000
,
0100
0001
1000
0000
,
0010
0000
1000
0000
0100
0010
0100
0000
,
0001
1000
0010
0000
,
0001
0000
0100
0000
1000
0100
1000
0000
,
0010
1000
0001
0000
,
0100
0000
0100
0000
0100
0100
0100
0000
,
0010
0000
0010
0000
0010
0010
0010
0000
,
1000
0000
1000
0000
1000
1000
1000
0000
,
0001
0000
0001
0000
0001
0001
0001
0000
,
0001
0100
1000
0000
0010
0000
0010
0000
,
1000
0100
0001
0000
0100
0000
0100
0000
,
0001
1000
0010
0000
0001
0000
0001
0000
,
1000
0010
0100
0001
,
0200
0000
0000
0000
,
2300
0000
0000
0000
,
3001
0010
0000
0001
,
0000
0010
0000
1000
,
0000
0010
0000
0010
,
0010
0000
0001
0000
0010
1000
0100
0000
,
0010
1000
0001
0000
,
1000
0000
0010
0000
0100
0001
0010
0000
,
0001
0100
0001
0000
,
0001
0001
1000
1000
,
0100
0010
0100
0010
,
1000
1000
0001
0001
,
0100
0010
0100
0010
,
2000
0000
0000
0100
0000
0000
0000
0000
,
0100
0000
0000
0100
0000
0000
0000
0000
,
0100
0000
0000
0100
0000
0000
0000
0000
,
0100
0000
0000
0100
0000
0000
0000
0000
,
0100
0000
0000
0100
0000
0000
0000
0000
,
0100
0000
0000
0100
0000
0000
0000
0000
,
3200
0000
0000
0000
0320
0000
0000
0032
,
0000
0000
0000
0000
,
0003
0000
0000
0000
,
0000
0000
0000
0000
,
0000
0000
0000
0000
,
1100
0000
0001
0000
,
0011
0000
1000
0000
,
1100
0000
0001
0000
,
0011
0000
1000
0000
,
0100
1000
0100
1000
,
0001
0100
0001
0100
,
1000
0001
1000
0001
,
0100
0000
0100
0000
0100
0100
0100
0000
,
0020
0000
0000
0000
,
0000
0000
0000
0030
,
0001
0000
1000
0000
0010
1000
0010
0000
,
1000
0001
0010
0000
,
0001
0000
1000
0000
0100
0010
0100
0000
,
0001
1000
0010
0000
,
1000
0000
0001
0000
0100
0001
1000
0000
,
0010
1000
0001
0000
,
0100
0000
0001
0000
1000
0010
0001
0000
,
0100
0010
2000
0000
,
3100
0000
0100
0000
0010
0100
0010
0000
,
0001
0000
0001
0000
1000
0001
1000
0000
,
0010
0000
0010
0000
0100
0010
0100
0000
,
1000
0000
1000
0000
0001
1000
0001
0000
,
0001
1000
0100
0000
0010
0000
1001
0000
,
1000
0001
0100
0000
0001
0000
1001
0000
,
0001
1000
0100
0000
0001
0100
1000
0000
,
0020
0130
2002
0000
,
3003
0000
0000
0000
;

//---------------dance-single - ----------------
#NOTES:
     dance-single:
     :
     Beginner:
     4:
     0.161821,0.199896,0.014807,0.029614,0.000000,147.000000,2.000000,4.000000,0.000000,0.000000,0.000000,0.161821,0.199896,0.014807,0.029614,0.000000,147.000000,2.000000,4.000000,0.000000,0.000000,0.000000:
0000
0000
0000
0000
,
0000
0000
0000
0000
,
0000
0000
0000
0000
,
0000
0000
0000
0000
,
1000
0000
0100
0000
,
1000
0000
0100
0000
,
0001
0000
0000
0000
,
0000
0000
0000
0000
,
0000
0000
0000
0000
,
0000
0000
0000
0000
,
0010
0000
0010
0000
,
0010
0000
0010
0000
,
0010
0000
0010
0000
,
0010
0000
0000
0000
,
1000
0000
0100
0000
,
0100
0000
1000
0000
,
0001
0000
0010
0000
,
0010
0000
0001
0000
,
1000
0000
0100
0000
,
0010
0000
0001
0000
,
1000
0000
0010
0000
,
0100
0000
0001
0000
,
2000
0000
0000
0000
,
3000
0000
0000
0000
,
0100
0000
0100
0000
,
0010
0000
0010
0000
,
0100
0000
0100
0000
,
0010
0000
0010
0000
,
1000
0000
1000
0000
,
0001
0000
0001
0000
,
1000
0000
1000
0000
,
0001
0000
0001
0000
,
1000
1000
1000
0000
,
1000
1000
1000
0000
,
1000
1000
1000
0000
,
1000
1000
1000
0000
,
0010
0000
0100
0000
,
0010
0000
0100
0000
,
1000
0000
0001
0000
,
1000
0000
0001
0000
,
0110
0000
0000
0000
,
0000
0000
0000
0000
,
0001
0000
0100
0000
,
0001
0000
0100
0000
,
1000
0000
0010
0000
,
0001
0000
1000
0000
,
0010
0000
0100
0000
,
0001
0000
1000
0000
,
0010
0000
0100
0000
,
0001
0000
0100
0000
,
0010
0000
1000
0000
,
0001
0000
0100
0000
,
0010
0000
1000
0000
,
0020
0000
0000
0000
,
0100
0000
0000
0000
,
0100
0000
0000
0000
,
0100
0000
0000
0000
,
0200
0000
0000
0000
,
0000
0000
0000
0000
,
0330
0000
0000
0000
,
0000
0000
0000
0000
,
0000
0000
0000
0000
,
0000
0000
0000
0000
,
0000
0000
0000
0000
,
1000
0000
0100
0000
,
0010
0000
0010
0000
,
0001
0000
0010
0000
,
0100
0000
0100
0000
,
1000
0000
1000
0000
,
0001
0000
0001
0000
,
1000
0000
1000
0000
,
0001
0000
0001
0000
,
0002
0000
0000
0000
,
0003
0000
0000
0000
,
0010
0000
0010
0000
,
0100
0000
0100
0000
,
0010
0000
0010
0000
,
0100
0000
0100
0000
,
0001
0000
0001
0000
,
1000
0000
1000
0000
,
0001
0000
0001
0000
,
1000
0000
1000
0000
,
0001
0001
0001
0000
,
0001
0001
0001
0000
,
0001
0001
0001
0000
,
0001
0001
0001
0000
,
0100
0000
0010
0000
,
0100
0000
0010
0000
,
0001
0000
1000
0000
,
0001
0000
1000
0000
,
0110
0000
0000
0000
;
