#TITLE:Won(*3*)Chu KissMe! (IIDX Edition);
#SUBTITLE:;
#ARTIST:Remixed by BEMANI Sound Team "L.E.D." feat. IOSYS;
#TITLETRANSLIT:;
#SUBTITLETRANSLIT:;
#ARTISTTRANSLIT:;
#GENRE:Anime/Game;
#CREDIT:;
#BANNER:;
#BACKGROUND:;
#LYRICSPATH:;
#CDTITLE:;
#MUSIC:Won Chu KissMe! (IIDX Edition).ogg;
#OFFSET:-0.043000;
#SAMPLESTART:70.542969;
#SAMPLELENGTH:15.000000;
#SELECTABLE:YES;
#DISPLAYBPM:160.000000;
#BPMS:0.000000=160.000000
;
#STOPS:
;
#BGCHANGES:;
#KEYSOUNDS:;
#ATTACKS:;

//---------------dance-single - ----------------
#NOTES:
     dance-single:
     :
     Beginner:
     3:
     0.136636,0.198247,0.086950,0.017390,0.000000,110.000000,100.000000,10.000000,2.000000,0.000000,0.000000,0.136636,0.198247,0.086950,0.017390,0.000000,110.000000,100.000000,10.000000,2.000000,0.000000,0.000000:
0000
0000
0000
0000
,
0000
0000
0000
0000
,
0000
0000
0000
0000
,
1000
0000
0000
0000
,
0001
0000
0000
0000
,
1000
0000
0000
0000
,
0001
0000
0000
0000
,
0100
0000
0000
0000
,
0010
0000
0000
0000
,
0100
0000
0000
0000
,
0010
0000
0000
0000
,
1001
0000
0000
0000
,
1001
0000
0000
0000
,
1000
0000
0100
0000
,
1000
0000
0000
0000
,
0001
0000
0100
0000
,
0001
0000
0000
0000
,
1000
0000
0010
0000
,
1000
0000
0000
0000
,
0001
0000
0010
0000
,
0001
0000
0000
0000
,
1001
0000
0000
0000
,
0000
0000
0000
0000
,
0110
0000
0000
0000
,
0000
0000
0000
0000
,
1001
0000
0000
0000
,
0000
0000
0000
0000
,
0110
0000
0000
0000
,
0000
0000
0000
0000
,
1000
0000
0100
0000
,
0010
0000
0000
0000
,
0001
0000
0010
0000
,
0100
0000
0000
0000
,
1000
0000
0100
0000
,
0001
0000
0000
0000
,
0001
0000
0010
0000
,
1000
0000
0000
0000
,
0100
0000
0000
0000
,
1000
0000
0000
0000
,
0010
0000
0000
0000
,
0001
0000
0000
0000
,
0010
0000
0000
0000
,
0001
0000
0000
0000
,
0100
0000
0000
0000
,
1000
0000
0000
0000
,
0010
0000
0010
0000
,
0100
0000
0100
0000
,
1000
0000
0100
0000
,
0010
0000
0010
0000
,
0001
0000
0010
0000
,
0100
0000
0100
0000
,
1000
0000
0100
0000
,
0001
0000
0001
0000
,
0001
0000
0010
0000
,
1000
0000
1000
0000
,
0200
0000
0300
0000
,
0020
0000
0030
0000
,
1000
0000
0100
0000
,
0010
0000
0010
0000
,
0001
0000
0010
0000
,
0100
0000
0100
0000
,
1000
0000
0100
0000
,
0001
0000
0001
0000
,
0001
0000
0010
0000
,
1000
0000
1000
0000
,
1001
0000
0000
0000
,
0110
0000
0000
0000
,
1000
0000
0100
0000
,
1000
0000
0000
0000
,
0001
0000
0010
0000
,
0001
0000
0000
0000
,
1000
0000
0010
0000
,
1000
0000
0000
0000
,
0001
0000
0100
0000
,
0001
0000
0000
0000
,
1001
0000
0000
0000
,
0110
0000
0000
0000
;

//---------------dance-single - ----------------
#NOTES:
     dance-single:
     :
     Easy:
     6:
     0.315506,0.428829,0.182596,0.173901,0.000000,254.000000,233.000000,21.000000,20.000000,0.000000,0.000000,0.315506,0.428829,0.182596,0.173901,0.000000,254.000000,233.000000,21.000000,20.000000,0.000000,0.000000:
// measure 0
0000
0000
0000
0000
,  // measure 1
0000
0000
0000
0000
,  // measure 2
0000
0000
0000
0000
,  // measure 3
1000
0100
0010
0000
,  // measure 4
0001
0010
0100
0000
,  // measure 5
1000
0100
0001
0000
,  // measure 6
0001
0010
1000
0000
,  // measure 7
0100
0010
1000
0000
,  // measure 8
0010
0100
0001
0000
,  // measure 9
1000
0100
0010
0010
,  // measure 10
0001
0010
0100
0100
,  // measure 11
1100
0000
0000
0101
0000
0000
2200
0000
,  // measure 12
0000
0000
0000
3300
,  // measure 13
0001
0100
0001
0100
,  // measure 14
1000
1000
0010
0000
,  // measure 15
1000
0010
1000
0010
,  // measure 16
0001
0001
0100
0000
,  // measure 17
1000
0100
0010
0001
,  // measure 18
1000
1000
1001
0000
,  // measure 19
0001
0010
0100
1000
,  // measure 20
0001
0001
1001
0000
,  // measure 21
0200
0000
0000
0000
0000
0000
0000
1000
,  // measure 22
0000
1000
0000
0000
0000
0000
0300
0000
,  // measure 23
0020
0000
0000
0000
0000
0000
0000
0001
,  // measure 24
0000
0001
0000
0000
0000
0000
0030
0000
,  // measure 25
2000
0000
0000
0000
0000
0000
0000
0010
,  // measure 26
0000
0010
0000
0000
0000
0000
3000
0000
,  // measure 27
0002
0000
0000
0000
0000
0100
0000
0100
,  // measure 28
0000
0100
0000
0000
0000
0000
0003
0000
,  // measure 29
0001
0100
1000
0100
,  // measure 30
0001
0001
1001
0000
,  // measure 31
0001
0010
1000
0010
,  // measure 32
0001
1000
1001
0000
,  // measure 33
1000
0010
0001
0010
,  // measure 34
1000
1000
1001
0000
,  // measure 35
1000
0100
0001
0100
,  // measure 36
1000
0001
1001
0000
,  // measure 37
0100
1000
0100
0010
,  // measure 38
0001
0001
1000
1000
,  // measure 39
0001
0010
0100
0010
,  // measure 40
1000
1000
0001
0000
,  // measure 41
1001
0100
0010
0000
,  // measure 42
1001
0010
0100
0000
,  // measure 43
0200
0010
0000
0010
,  // measure 44
0300
1000
0001
0100
,  // measure 45
0020
0000
0000
0200
0000
0000
0000
0000
,  // measure 46
0000
0000
0330
0000
,  // measure 47
0001
0100
1000
0010
,  // measure 48
2000
0001
3001
0000
,  // measure 49
0010
0100
0010
1000
,  // measure 50
0002
1000
1003
0000
,  // measure 51
0100
1000
0010
0001
,  // measure 52
0200
0010
0310
0000
,  // measure 53
0001
0100
1000
0010
,  // measure 54
1000
0010
0001
0100
,  // measure 55
0110
0110
0001
1000
,  // measure 56
1001
1001
0010
0100
,  // measure 57
2000
3100
0010
0001
,  // measure 58
0002
0103
0010
1000
,  // measure 59
0200
0310
1000
0001
,  // measure 60
0020
0130
0001
1000
,  // measure 61
0020
1030
0001
0100
,  // measure 62
2000
3001
0010
0100
,  // measure 63
1100
0001
0100
0010
,  // measure 64
0011
1000
0010
0100
,  // measure 65
0011
0000
0000
1010
0000
0000
0022
0000
,  // measure 66
0000
0000
0000
0033
,  // measure 67
0001
0100
0010
0010
,  // measure 68
1000
0001
0100
0010
,  // measure 69
1000
0010
0100
0100
,  // measure 70
0001
0100
0010
1000
,  // measure 71
0100
0010
0001
0001
,  // measure 72
0100
0010
0001
1000
,  // measure 73
0100
1000
1000
0010
,  // measure 74
0000
0100
0000
0000
0010
0000
0000
1000
,  // measure 75
0000
0000
0001
0000
0000
1000
0000
1001
;

//---------------dance-single - ----------------
#NOTES:
     dance-single:
     :
     Medium:
     8:
     0.396246,0.428829,0.330412,0.191291,0.004348,319.000000,281.000000,38.000000,22.000000,0.000000,0.000000,0.396246,0.428829,0.330412,0.191291,0.004348,319.000000,281.000000,38.000000,22.000000,0.000000,0.000000:
// measure 0
0000
0000
0000
0000
,  // measure 1
0000
0000
0000
0000
,  // measure 2
0000
0000
0000
0000
,  // measure 3
1000
0000
0001
0010
0000
0100
0000
1000
,  // measure 4
0000
0010
0100
0000
1001
0000
0000
0000
,  // measure 5
0100
0000
0001
1000
0000
0010
0000
1000
,  // measure 6
0000
0001
0100
0000
0110
0000
0000
0000
,  // measure 7
0001
0000
0100
1000
0000
0010
0000
0100
,  // measure 8
0000
0001
1000
0000
1001
0000
0000
0000
,  // measure 9
1000
0010
0100
0101
,  // measure 10
0001
0100
0010
1010
,  // measure 11
0011
0000
0000
0110
0000
0000
1100
0000
,  // measure 12
2002
0000
0000
3003
,  // measure 13
0001
0000
1000
0000
0010
0100
0010
0000
,  // measure 14
1000
0010
0100
0001
,  // measure 15
1000
0000
0001
0000
0100
0010
0100
0000
,  // measure 16
0001
0100
0010
1010
,  // measure 17
1000
0000
0010
0000
0001
0010
0001
0000
,  // measure 18
0100
0010
0001
1001
,  // measure 19
0100
0000
0010
0000
1000
0100
1000
0000
,  // measure 20
0000
0010
0000
0100
0000
1001
0000
0000
,  // measure 21
0020
0000
0000
0000
0000
0000
0000
1000
,  // measure 22
0000
0001
0000
0000
0000
0000
0030
0000
,  // measure 23
0200
0000
0000
0000
0000
0000
0000
0001
,  // measure 24
0000
1000
0000
0000
0000
0000
0300
0000
,  // measure 25
0020
0000
0000
0000
0000
0000
0000
0100
,  // measure 26
0000
0001
0000
0000
0000
0000
0030
0000
,  // measure 27
0200
0000
0000
0000
0000
0010
0000
0010
,  // measure 28
0000
1000
0000
0000
0000
0000
0300
0000
,  // measure 29
0010
1000
0010
0000
0100
0000
1001
0000
,  // measure 30
0010
1000
0001
0100
,  // measure 31
0010
0001
0010
0000
0100
0000
1001
0000
,  // measure 32
0100
1000
0010
0001
,  // measure 33
0100
0010
0100
0000
1000
0000
1001
0000
,  // measure 34
0010
1000
0100
0001
,  // measure 35
0100
0010
0100
0000
0001
0000
1001
0000
,  // measure 36
0001
0100
1000
0010
,  // measure 37
0200
0010
1000
0310
,  // measure 38
0001
0000
1000
0000
0010
0100
0010
0000
,  // measure 39
0020
0100
0001
0130
,  // measure 40
0001
0000
1000
0000
0001
0100
0010
0000
,  // measure 41
0001
0000
0100
0000
1000
0010
0100
0000
,  // measure 42
0001
0000
0100
0000
1000
0001
0010
0000
,  // measure 43
0200
0010
0000
0310
,  // measure 44
0001
0100
0001
0000
1000
0100
1000
0000
,  // measure 45
0020
0000
0000
0200
0000
0000
0330
0000
,  // measure 46
0010
0000
0000
0100
0000
0000
2002
0000
0000
0000
0000
0000
3003
0000
0000
0000
,  // measure 47
0010
0000
1000
0010
0100
0000
0001
0000
,  // measure 48
1000
0010
1001
0000
,  // measure 49
0010
0000
0100
0001
1000
0000
0010
0000
,  // measure 50
0100
0001
1001
0000
,  // measure 51
1000
0000
0010
0100
0001
0000
1000
0000
,  // measure 52
1100
0101
0020
0000
,  // measure 53
0130
0000
0001
1000
0010
0000
1000
0000
,  // measure 54
0001
0000
1000
0010
0100
0000
0001
0000
,  // measure 55
0200
0000
1000
1300
,  // measure 56
0020
0001
0031
0110
,  // measure 57
0001
0100
1000
0010
,  // measure 58
1000
0001
1000
0000
1001
0000
0110
0000
,  // measure 59
0001
0100
0010
1000
,  // measure 60
0001
1000
0001
0000
0110
0000
1001
0000
,  // measure 61
1000
0100
0010
0001
,  // measure 62
0100
0010
0100
0000
1001
0000
0110
0000
,  // measure 63
0002
0100
0010
0103
,  // measure 64
2000
0010
0100
3010
,  // measure 65
1010
0000
0000
0011
0000
0000
0110
0000
,  // measure 66
2002
0000
0000
3003
,  // measure 67
0001
1000
0001
0000
0100
0000
0010
0000
,  // measure 68
1000
1000
0001
0001
,  // measure 69
0100
0010
0100
0000
1000
0000
0010
0000
,  // measure 70
0002
0100
0100
0103
,  // measure 71
1000
0000
0010
0000
1000
0001
1000
0000
,  // measure 72
0200
0010
1000
0310
,  // measure 73
1000
0010
0100
0000
0001
0100
0010
0000
,  // measure 74
0000
1100
0000
0000
0011
0000
0000
0110
,  // measure 75
0000
0000
1001
0000
0000
1100
0000
0101
;

//---------------dance-single - ----------------
#NOTES:
     dance-single:
     :
     Hard:
     12:
     0.637223,0.659737,0.608653,0.191291,0.069560,513.000000,443.000000,70.000000,22.000000,0.000000,0.000000,0.637223,0.659737,0.608653,0.191291,0.069560,513.000000,443.000000,70.000000,22.000000,0.000000,0.000000:
// measure 0
0000
0000
0000
0000
,  // measure 1
0000
0000
0000
0000
,  // measure 2
0000
0000
0000
0000
,  // measure 3
0110
0000
1000
0010
0000
0100
0000
0001
,  // measure 4
0000
0100
0010
1000
1001
0000
0000
0000
,  // measure 5
0110
0000
0001
0100
0000
0010
0000
1000
,  // measure 6
0000
0010
0100
0001
1001
0000
0000
0000
,  // measure 7
1000
0000
0010
0100
0000
0001
0000
1000
,  // measure 8
0000
0010
0100
0001
1001
0000
0000
0000
,  // measure 9
1000
0100
0001
0100
1000
0100
0001
0100
,  // measure 10
1000
0010
0001
0010
1000
0010
0001
0010
,  // measure 11
0011
0000
0000
0000
0010
0000
0110
0000
0000
0000
0100
0000
1100
0000
0001
2000
,  // measure 12
0002
0000
0000
3003
,  // measure 13
0001
0000
1000
0001
1000
0000
0001
0000
0100
0000
0010
0000
1000
0000
0010
0000
,  // measure 14
0100
0001
0010
0100
1000
0010
0110
0000
,  // measure 15
1000
0000
0001
1000
0001
0000
1000
0000
0010
0000
0100
0000
1000
0000
0010
0000
,  // measure 16
0001
1000
0010
0100
0001
0100
0110
0000
,  // measure 17
0001
0000
0010
0100
0010
0000
0100
0000
0001
0000
0010
0000
1000
0000
0100
0000
,  // measure 18
0010
0100
0001
0100
0010
1000
1010
0000
,  // measure 19
1000
0000
0010
0100
0010
0000
0100
0000
0001
0000
0010
0000
0100
0000
1000
0000
,  // measure 20
0000
0011
0000
0110
0000
1100
0000
0000
,  // measure 21
0220
0000
0000
0000
0000
0330
0000
1100
,  // measure 22
0000
0202
0000
0000
0000
0000
0303
0000
,  // measure 23
0022
0000
0000
0000
0000
0033
0000
0110
,  // measure 24
0000
2200
0000
0000
0000
0000
3300
0000
,  // measure 25
2200
0000
0000
0000
0000
3300
0000
0110
,  // measure 26
0000
0202
0000
0000
0003
0000
0301
0000
,  // measure 27
0022
0000
0000
0033
0000
0110
0000
1100
,  // measure 28
0000
0000
1001
0000
0000
0000
0001
1000
0001
0000
0100
0000
0110
0000
0000
0000
,  // measure 29
0001
0100
0001
0100
1000
0100
1000
0100
,  // measure 30
0010
1000
0001
0100
1001
0000
0110
0000
,  // measure 31
1000
0010
1000
0010
0001
0010
0001
0010
,  // measure 32
0100
0001
1000
0010
1001
0000
0110
0000
,  // measure 33
0010
1000
0100
0001
0010
0100
1000
0010
,  // measure 34
0100
0001
0010
1000
1100
0000
0101
0000
,  // measure 35
0010
0100
1000
0000
0010
0100
0001
0000
,  // measure 36
0100
1000
0010
0100
0001
0010
0100
1000
,  // measure 37
0020
0100
0001
0130
,  // measure 38
0200
0010
1000
0310
,  // measure 39
0001
0100
0010
0000
1000
0010
0100
0000
,  // measure 40
0001
0100
1000
0010
0100
0001
0010
0000
,  // measure 41
2000
0010
0100
3010
,  // measure 42
0002
0100
0010
0103
,  // measure 43
0001
0100
0110
0000
1000
0010
0110
0000
,  // measure 44
0001
1000
0110
0000
1000
0001
0110
0000
,  // measure 45
0010
1000
0100
0010
0001
0100
0010
1000
,  // measure 46
1100
0000
0000
0101
0000
0000
1100
0000
0000
0000
0010
0100
0010
0000
0000
0000
,  // measure 47
0100
0001
0010
0100
0010
1000
0010
0100
,  // measure 48
0001
0001
0100
0010
1001
0000
0110
0000
,  // measure 49
1000
0100
0010
0001
0100
0010
1000
0001
,  // measure 50
1000
1000
0010
0100
0101
0000
1001
0000
,  // measure 51
1000
0010
0100
0001
0100
0010
1000
0100
,  // measure 52
0010
0001
0100
0010
0110
0000
1001
0000
,  // measure 53
0001
0010
1000
1000
0010
0001
0010
0010
,  // measure 54
0100
0010
1000
1000
0010
0001
0100
0100
,  // measure 55
0010
0001
1000
0010
1000
0100
0001
0010
,  // measure 56
0011
0000
0000
0110
0000
0000
1100
0000
2000
0000
0000
0000
3001
0000
0000
0000
,  // measure 57
0010
1000
0100
0010
0100
0001
0100
0010
,  // measure 58
1000
1000
0010
0100
1001
0000
0110
0000
,  // measure 59
0001
0010
0100
1000
0010
0100
0001
1000
,  // measure 60
0001
0001
0100
0010
1010
0000
1001
0000
,  // measure 61
0001
0100
0010
1000
0010
0100
0001
0010
,  // measure 62
0100
1000
0010
0100
0110
0000
1001
0000
,  // measure 63
1000
0100
0001
0001
0100
1000
0100
0100
,  // measure 64
0010
0100
0001
0001
0100
1000
0010
0010
,  // measure 65
0110
0000
0000
0000
0010
0000
1010
0000
0000
0000
1000
0000
1001
0000
1000
0100
,  // measure 66
0002
0000
0000
1003
,  // measure 67
0001
0000
1000
0001
1000
0000
0010
0000
1000
0000
0100
0000
0010
0000
0001
0000
,  // measure 68
0010
0100
1000
0100
0001
0010
0011
0000
,  // measure 69
0010
0000
1000
0001
1000
0000
0010
0000
1000
0000
0100
0000
0010
0000
0011
0000
,  // measure 70
0000
0110
0000
1100
0000
1001
0010
1000
,  // measure 71
0010
0000
0100
0001
0100
0000
0001
1000
0001
0000
1000
0000
0010
0000
0100
0000
,  // measure 72
0001
0010
0100
1000
0010
0100
0001
0010
,  // measure 73
1000
0000
0010
1000
0010
0000
1000
0001
1000
0000
0010
0000
1000
0000
0100
0000
,  // measure 74
0000
1100
0000
0000
0011
0000
0000
0110
,  // measure 75
0000
0000
1001
0000
0000
1100
0000
0011
;
