#TITLE:ウィーアー!;
#SUBTITLE:;
#ARTIST:Y&Co.;
#TITLETRANSLIT:We Are!;
#SUBTITLETRANSLIT:;
#ARTISTTRANSLIT:;
#GENRE:Anime/Game;
#CREDIT:;
#BANNER:;
#BACKGROUND:;
#LYRICSPATH:;
#CDTITLE:;
#MUSIC:We Are.ogg;
#OFFSET:1.640000;
#SAMPLESTART:73.545860;
#SAMPLELENGTH:15.000000;
#LASTBEATHINT:1.162783;
#SELECTABLE:YES;
#DISPLAYBPM:130.000000;
#BPMS:0.000000=130.000000
;
#STOPS:
;
#BGCHANGES:;
#KEYSOUNDS:;
#ATTACKS:;

//---------------dance-single - ----------------
#NOTES:
     dance-single:
     :
     Beginner:
     2:
     0.076878,0.131810,0.043634,0.036361,0.000000,74.000000,68.000000,6.000000,5.000000,0.000000,0.000000,0.076878,0.131810,0.043634,0.036361,0.000000,74.000000,68.000000,6.000000,5.000000,0.000000,0.000000:
// measure 0
0000
0000
0000
0000
,  // measure 1
0000
0000
0000
0000
,  // measure 2
0000
0000
0000
0000
,  // measure 3
0000
0000
0000
0000
,  // measure 4
0000
0000
0000
0000
,  // measure 5
0000
0000
0000
0000
,  // measure 6
1001
0000
0000
0000
,  // measure 7
0100
0000
0000
0000
,  // measure 8
0100
0000
0000
0000
,  // measure 9
0100
0000
0000
0000
,  // measure 10
0010
0000
0000
0000
,  // measure 11
0010
0000
0000
0000
,  // measure 12
0010
0000
0000
0000
,  // measure 13
0010
0000
0000
0000
,  // measure 14
1000
0000
0000
0000
,  // measure 15
0100
0000
0000
0000
,  // measure 16
1000
0000
0000
0000
,  // measure 17
0100
0000
0000
0000
,  // measure 18
0001
0000
0000
0000
,  // measure 19
0010
0000
0000
0000
,  // measure 20
0001
0000
0000
0000
,  // measure 21
0010
0000
0000
0000
,  // measure 22
0100
0000
0000
0000
,  // measure 23
1000
0000
0000
0000
,  // measure 24
0100
0000
0000
0000
,  // measure 25
1000
0000
0000
0000
,  // measure 26
0010
0000
0000
0000
,  // measure 27
0001
0000
0000
0000
,  // measure 28
0010
0000
0000
0000
,  // measure 29
0001
0000
0000
0000
,  // measure 30
0000
0000
0000
0000
,  // measure 31
0200
0000
0000
0000
,  // measure 32
0300
0000
0000
0000
,  // measure 33
0020
0000
0000
0000
,  // measure 34
0030
0000
0000
0000
,  // measure 35
2000
0000
0000
0000
,  // measure 36
3000
0000
0000
0000
,  // measure 37
0002
0000
0000
0000
,  // measure 38
0003
0000
0000
0000
,  // measure 39
0200
0000
0000
0000
,  // measure 40
0300
0000
0000
0000
,  // measure 41
0000
1001
0000
0000
,  // measure 42
0100
0000
0000
0000
,  // measure 43
0110
0000
0000
0000
,  // measure 44
0001
0000
0001
0000
,  // measure 45
1000
0000
0000
0000
,  // measure 46
0100
0000
0000
0000
,  // measure 47
0110
0000
0000
0000
,  // measure 48
0001
0000
0001
0000
,  // measure 49
1000
0000
0000
0000
,  // measure 50
0100
0000
0000
0000
,  // measure 51
1000
0000
0000
0000
,  // measure 52
0010
0000
0000
0000
,  // measure 53
0001
0000
0000
0000
,  // measure 54
0100
0000
0000
0000
,  // measure 55
0001
0000
0000
0000
,  // measure 56
0010
0000
0000
0000
,  // measure 57
1001
0000
0100
0000
,  // measure 58
0100
0000
0000
0000
,  // measure 59
0100
0000
0100
0000
,  // measure 60
0100
0000
0000
0000
,  // measure 61
1001
0000
0010
0000
,  // measure 62
0010
0000
0000
0000
,  // measure 63
0010
0000
0010
0000
,  // measure 64
0010
0000
0000
0000
,  // measure 65
1000
0000
0000
0000
,  // measure 66
0100
0000
0000
0000
,  // measure 67
1000
0000
0000
0000
,  // measure 68
0100
0000
0000
0000
,  // measure 69
0001
0000
0000
0000
,  // measure 70
0010
0000
0000
0000
,  // measure 71
0001
0000
0000
0000
,  // measure 72
0010
0000
0010
0000
;

//---------------dance-single - ----------------
#NOTES:
     dance-single:
     :
     Easy:
     6:
     0.223362,0.343887,0.087267,0.116356,0.000000,215.000000,203.000000,12.000000,16.000000,0.000000,0.000000,0.223362,0.343887,0.087267,0.116356,0.000000,215.000000,203.000000,12.000000,16.000000,0.000000,0.000000:
0000
0000
0000
0000
,
0000
0000
0000
0000
,
0000
0000
0000
0000
,
0000
0000
0000
0000
,
0000
0000
0000
0000
,
0000
0000
0000
0000
,
1000
0100
0000
0100
,
0000
0100
0000
0000
,
0010
0000
0010
0000
,
0001
0000
0001
0000
,
2000
0000
0001
0000
,
0001
0000
0001
3000
,
0100
0100
0100
0100
,
0220
0000
0000
0330
,
1000
0100
0100
0010
,
0001
0010
0010
0100
,
1000
0100
0001
0010
,
0100
1000
0010
0001
,
0100
1000
0100
0000
,
0010
0001
0010
0000
,
0100
1000
0010
0000
,
0010
0001
0100
0000
,
1000
0100
0010
0010
,
0001
0010
0100
0100
,
1000
0100
0001
0001
,
0001
0010
1000
1000
,
0100
1000
0100
1000
,
0010
0001
0010
0001
,
0100
0010
1000
0001
,
0210
0000
0010
0000
,
1000
0000
1000
0300
,
0020
0000
0030
0000
,
0200
0000
0300
0000
,
2000
0000
3000
0000
,
0002
0000
0003
0000
,
0200
0000
0310
0000
,
2000
0000
3100
0000
,
0002
0000
0013
0000
,
0200
0000
0310
0000
,
0220
0000
0000
0000
,
0330
0000
0000
0000
,
0000
0000
1001
0000
0000
0000
0000
1001
,
0000
0010
0000
1000
,
0100
0000
0000
0010
0000
0000
0000
0000
,
0001
0001
1000
1000
,
0001
0000
0110
0000
0000
0000
0000
0110
,
0000
1000
0000
0000
,
0001
0000
0000
1000
0000
0000
0000
0000
,
0100
0100
0100
0010
,
1000
0100
1000
0100
,
0001
0010
0001
0010
,
0100
1000
0100
1000
,
0010
0001
0010
0001
,
0100
1000
0010
0001
,
0100
1000
0010
0001
,
0210
0010
0010
0010
,
0020
0000
0000
0330
,
1000
0100
0010
0010
,
0001
0010
0100
0100
,
1000
0100
0001
0001
,
0010
0100
0010
0100
,
0001
0010
0100
0100
,
1000
0100
0010
0010
,
0001
0010
1000
1000
,
0100
0010
0100
0010
,
1000
0100
1000
0010
,
1000
0100
1000
0010
,
0001
0100
0001
0010
,
0001
0100
0010
0001
,
0100
1000
0010
0001
,
0100
1000
0010
0001
,
0100
0010
1000
0001
,
0110
1100
0011
0110
;

//---------------dance-single - ----------------
#NOTES:
     dance-single:
     :
     Medium:
     7:
     0.283618,0.370339,0.203623,0.109084,0.000000,273.000000,245.000000,28.000000,15.000000,0.000000,0.000000,0.283618,0.370339,0.203623,0.109084,0.000000,273.000000,245.000000,28.000000,15.000000,0.000000,0.000000:
0000
0000
0000
0000
,
0000
0000
0000
0000
,
0000
0000
0000
0000
,
0000
0000
0000
0000
,
0000
0000
0000
0000
,
0000
0000
0000
0000
,
1001
0000
0100
0000
0000
0000
0000
0100
,
0000
0010
1000
0001
,
0200
0000
0000
0310
0000
0000
0000
0000
,
0001
0010
0100
1000
,
2001
0001
0001
3001
,
0001
1000
0001
1000
,
1002
1000
1000
1003
,
1000
0001
1000
0001
,
0100
1000
0100
0010
,
0001
0010
0100
0010
,
1000
0100
0010
0100
,
0001
0010
0100
0010
,
1000
0100
0010
0001
,
1000
0010
0100
0001
,
0001
0010
0100
1000
,
0001
0100
0010
1000
,
0001
0011
0100
0010
,
1000
1100
0010
0100
,
1000
0100
0001
0011
,
0001
0010
1000
1100
,
1000
0100
0010
0010
,
0001
0010
0100
0100
,
1000
0100
0001
0010
,
0100
1000
0010
0001
,
0210
0010
0010
0310
,
0002
0000
0103
0000
,
2000
0000
3100
0000
,
0002
0000
0013
0000
,
2000
0000
3010
0000
,
0020
0000
0031
0000
,
0200
0000
1300
0000
,
0002
0000
0013
0000
,
2000
0000
0000
0000
0100
3000
0100
0000
,
0020
0000
0100
0130
,
1001
0000
0000
0100
,
0001
0000
1100
0000
0000
0000
0000
0110
,
0000
0000
0011
0000
0000
0000
1000
0100
,
0010
0000
0000
0001
0000
0000
0000
0000
,
0010
0010
0100
0100
,
0001
0000
0011
0000
0000
0000
0000
0110
,
0000
0000
1100
0000
0000
0000
0001
0010
,
0100
0000
0000
1000
0000
0000
0000
0000
,
0010
0010
0010
0010
,
1000
0000
0100
0000
1000
0000
0100
0100
,
0010
0001
0010
0001
,
0010
0000
0100
0000
0010
0000
0010
0010
,
0100
1000
0100
1000
,
0100
0010
0001
0010
,
0100
1000
0100
0010
,
1000
0001
1000
0000
0001
1000
0001
0000
,
2002
0000
0000
3003
,
0100
1000
0010
0010
,
0001
0100
0010
0010
,
0100
1000
0010
0010
,
0100
1001
0100
1001
,
0010
0100
1000
1000
,
0010
0100
0001
0001
,
0010
0100
1000
1000
,
1001
1100
0101
0011
,
0001
0000
0100
0000
1000
1000
1000
0000
,
0100
0000
0010
0000
0001
0001
0001
0000
,
0100
0000
0010
0000
1000
1000
1000
0000
,
0010
0100
0101
1100
,
0010
0000
1000
0000
0001
0001
0001
0000
,
0100
0000
0001
0000
1000
1000
1000
0000
,
0010
0000
0100
0000
1000
1000
1000
0000
,
0011
0110
1100
1001
;

//---------------dance-single - ----------------
#NOTES:
     dance-single:
     :
     Hard:
     9:
     0.389585,0.476151,0.290890,0.116356,0.047270,375.000000,335.000000,40.000000,16.000000,0.000000,0.000000,0.389585,0.476151,0.290890,0.116356,0.047270,375.000000,335.000000,40.000000,16.000000,0.000000,0.000000:
0000
0000
0000
0000
,
0000
0000
0000
0000
,
0000
0000
0000
0000
,
0000
0000
0000
0000
,
0000
0000
0000
0000
,
0000
0000
0000
0000
,
1000
0100
0010
0000
0000
0000
0000
0001
,
0000
0011
0100
1000
,
0010
0000
0100
0010
0000
0100
0010
0000
,
1000
0001
1000
0001
,
2001
0001
0001
0001
,
3002
1000
1000
1000
,
2003
0001
0001
3001
,
0110
0110
1100
0101
,
0010
0000
0100
0000
1000
0100
1000
0100
,
0010
0001
0100
0010
,
1000
0000
0100
0000
0001
0010
0001
0010
,
0100
1000
0010
0001
,
0100
0000
1000
0000
0010
0100
0010
0100
,
1000
0100
0010
0001
,
1000
0000
0001
0000
0100
0010
0100
0010
,
0001
0100
0010
1000
,
0100
0000
1100
0000
0100
0010
0100
0010
,
0001
0000
0011
0000
0001
0100
0001
0100
,
0010
0000
0110
0000
1000
0100
1000
0100
,
0010
0000
0011
0000
0100
0001
0100
0001
,
0010
0000
1100
0000
1000
0010
0100
0001
,
0010
0000
0011
0000
0001
0100
0010
1000
,
0100
0000
1100
0000
0010
0100
0001
1000
,
0010
0000
0010
0000
0100
0010
0100
0000
,
0110
1100
0011
0110
,
2000
0000
0000
0000
0100
3100
0000
0020
,
0000
0000
0100
0031
,
0002
0000
0010
0000
0000
0100
0000
0200
,
0000
0000
0303
0011
,
0210
0000
0000
0000
1000
1300
0000
0020
,
0000
0000
0100
0000
0100
0000
0000
0002
,
0000
0000
0000
0033
,
0001
0010
0100
0000
1000
0100
0010
0000
,
0002
0010
0100
1000
,
2000
0000
0000
3003
,
1000
0000
1100
0000
0010
0100
0010
0100
,
0000
0000
0011
0000
0000
0000
0001
0010
,
0110
0000
0000
0100
0000
0000
2200
0000
0000
0000
0000
0000
3300
0000
0000
0000
,
1000
0100
0010
0000
0001
0010
0000
0100
,
1000
0000
1100
0000
1000
0010
0100
0001
,
0000
0000
0011
0000
0100
0001
1000
0000
,
0001
0010
0100
1000
0000
0100
0010
0000
,
0101
1100
0101
1100
,
0010
0100
0010
0000
0100
0010
0100
0000
,
0001
1000
0001
0000
1000
0001
1000
0000
,
0001
0010
0001
0000
0010
0001
0010
0000
,
0100
1000
0100
0000
1000
0100
1000
0000
,
0010
0100
0010
0100
0010
0100
0010
0100
,
0001
1000
0001
1000
0001
1000
0001
1000
,
0001
0010
0100
1000
0100
0010
0001
1000
,
2002
0000
0000
3003
,
0100
0000
1000
0000
0100
0000
0000
0000
0010
0000
0000
0010
0000
0000
0010
0000
,
0001
0000
0010
0000
0001
0000
0000
0000
0100
0000
0000
0100
0000
0000
0100
0000
,
1000
0000
0100
0000
0010
0000
0000
0000
0001
0000
0000
0001
0000
0000
0001
0000
,
0010
0100
1100
0101
,
0001
0000
0010
0000
0001
0000
0000
0000
0100
0000
0000
0100
0000
0000
0100
0000
,
1000
0000
0100
0000
1000
0000
0000
0000
0010
0000
0000
0010
0000
0000
0010
0000
,
0001
0000
0010
0000
0001
0000
0000
0000
0100
0000
0000
1000
0000
0000
0010
0000
,
0001
1001
1100
0101
,
0010
0000
0100
0000
0010
0000
0100
0000
1000
0000
0000
1000
0000
0000
1000
0000
,
0100
0000
0010
0000
0100
0000
0010
0000
0001
0000
0000
0001
0000
0000
0001
0000
,
1000
0000
0010
0000
0100
0000
0001
0000
1000
0000
0000
1000
0000
0000
1000
0000
,
0001
0100
0010
1000
0001
0000
1001
0000
,
0001
0000
0010
0000
0100
0000
0010
0000
0001
0000
0000
0001
0000
0000
0001
0000
,
1000
0000
0100
0000
0010
0000
0100
0000
1000
0000
0000
1000
0000
0000
1000
0000
,
0001
0000
0010
0000
0100
0000
1000
0000
0010
0000
0000
0010
0000
0000
0010
0000
,
0011
0110
1100
1001
;
