#TITLE:Watch Out Pt.2;
#SUBTITLE:;
#ARTIST:DJ Mass MAD Izm* VS. DJ Yoshitaka;
#TITLETRANSLIT:;
#SUBTITLETRANSLIT:;
#ARTISTTRANSLIT:;
#GENRE:beatmaniaIIDX;
#CREDIT:;
#BANNER:;
#BACKGROUND:;
#LYRICSPATH:;
#CDTITLE:;
#MUSIC:Watch Out Pt 2.ogg;
#OFFSET:1.578000;
#SAMPLESTART:74.625793;
#SAMPLELENGTH:15.000000;
#LASTBEATHINT:1.330924;
#SELECTABLE:YES;
#BPMS:0.000000=148.000000
;
#STOPS:
;
#BGCHANGES:0.000=Watch Out Pt 2.avi=1.000=0=0=0=StretchNoLoop====,
99999=-nosongbg-=1.000=0=0=0 // don't automatically add -songbackground-
;
#KEYSOUNDS:;
#ATTACKS:;

//---------------dance-single - ----------------
#NOTES:
     dance-single:
     :
     Easy:
     7:
     0.388038,0.436674,0.156531,0.211777,0.000000,255.000000,17.000000,23.000000,0.000000,0.000000,0.000000,0.388038,0.436674,0.156531,0.211777,0.000000,255.000000,17.000000,23.000000,0.000000,0.000000,0.000000:
0000
0000
0000
0000
,
0000
0000
0000
0000
,
0000
0000
0000
0000
,
0000
0000
0000
0000
,
0000
0000
0000
0000
,
1000
0100
0010
0100
,
0001
0010
0100
0010
,
1000
0100
0001
0100
,
1000
0010
0001
0010
,
0100
0010
0001
0010
,
1000
0100
0010
0100
,
0001
1000
0010
0100
,
1000
0100
0010
1001
,
0010
0100
0001
0000
1000
0000
0010
0000
,
0100
0000
0001
0000
1000
0010
0100
0000
,
0100
0010
0001
0000
0100
0000
0010
0000
,
0001
0000
0100
0000
1000
0010
0100
0000
,
0001
0010
0100
0000
0001
0000
1000
0000
,
0010
0000
0100
0000
1000
0010
0100
0000
,
0001
0100
0010
0000
1000
0000
0001
0000
,
0100
0000
0010
0000
1000
0100
0010
0000
,
0002
0100
0010
0100
,
0010
0010
0020
0033
,
1100
0010
0100
0001
,
0100
0010
1000
1001
,
2000
0010
0100
0010
,
0001
0010
0200
3300
,
0001
0100
1000
0100
,
0001
0010
1000
0010
,
1000
1000
0001
0001
,
0100
0010
0100
0000
1001
0000
1001
0000
,
0020
0000
0100
0001
,
0230
0000
1000
0010
,
2300
0000
0001
0100
,
3002
0000
0010
0100
,
0013
0100
1000
1001
,
1000
0010
0001
1001
,
0100
0010
1000
1010
,
1000
0001
0100
0011
,
0001
0100
1000
0000
0100
0000
0100
0000
,
1000
0001
0010
1001
,
1000
0010
0001
0000
0010
0000
0010
0000
,
0100
0001
1000
0110
,
1000
0001
0100
0000
0010
0000
0010
0000
,
1000
0001
0100
0110
,
0001
1000
0010
0000
0100
0000
0001
0000
,
2002
0000
0000
3003
,
1001
0010
1000
0010
,
0001
0001
0100
0100
,
1000
1000
0010
0010
,
1000
0001
1000
0001
1000
0000
0000
0000
,
0110
1000
0001
0100
,
0010
1000
0010
0001
,
0200
0010
0010
0310
,
0001
1000
0010
1001
,
0100
0010
1000
0001
,
1000
0010
0100
0001
,
0100
0010
1000
0001
,
0100
0010
1000
0001
,
1001
0010
0010
1000
,
0200
0010
0010
0310
,
0001
0100
0010
0000
1000
0010
0100
0000
,
0020
0100
0100
0130
,
0002
0103
2000
3100
,
0020
0031
0200
1300
,
0020
0230
0302
2003
,
3020
0100
0001
0200
,
0000
0000
0000
0330
;

//---------------dance-single - ----------------
#NOTES:
     dance-single:
     :
     Beginner:
     2:
     0.146007,0.122462,0.000000,0.055246,0.000000,105.000000,0.000000,6.000000,0.000000,0.000000,0.000000,0.146007,0.122462,0.000000,0.055246,0.000000,105.000000,0.000000,6.000000,0.000000,0.000000,0.000000:
0000
0000
0000
0000
,
0000
0000
0000
0000
,
0000
0000
0000
0000
,
0000
0000
0000
0000
,
0000
0000
0000
0000
,
0001
0000
0100
0000
,
1000
0000
0100
0000
,
0001
0000
0100
0000
,
1000
0000
0100
0000
,
0001
0000
0010
0000
,
1000
0000
0010
0000
,
0001
0000
0010
0000
,
1000
0000
0010
0000
,
0001
0000
0100
0000
,
0001
0000
0010
0000
,
0001
0000
0100
0000
,
0001
0000
0010
0000
,
1000
0000
0100
0000
,
1000
0000
0010
0000
,
1000
0000
0100
0000
,
1000
0000
0010
0000
,
0100
0000
0000
0000
,
0100
0000
0000
0000
,
0100
0000
0000
0000
,
0100
0000
0000
0000
,
0010
0000
0010
0000
,
0010
0000
0010
0000
,
0010
0000
0010
0000
,
0010
0000
0001
0000
,
1000
0000
0100
0000
,
1000
0000
0100
0000
,
0002
0000
0000
0000
,
0003
0000
0000
0000
,
2000
0000
0000
0000
,
3000
0000
0000
0000
,
0002
0000
0000
0000
,
0003
0000
0000
0000
,
2000
0000
0000
0000
,
3000
0000
0000
0000
,
1000
0000
0100
0000
,
1000
0000
0100
0000
,
0001
0000
0100
0000
,
0001
0000
0100
0000
,
1000
0000
0010
0000
,
1000
0000
0010
0000
,
0001
0000
0010
0000
,
0001
0000
0000
0000
,
1000
0000
0100
0000
,
0010
0000
0001
0000
,
1000
0000
0010
0000
,
0100
0000
0001
0000
,
0001
0000
0010
0000
,
0100
0000
1000
0000
,
0001
0000
0100
0000
,
0010
0000
1000
0000
,
0100
0000
1000
0000
,
0100
0000
0001
0000
,
0100
0000
1000
0000
,
0100
0000
0001
0000
,
0100
0000
1000
0000
,
0010
0000
0001
0000
,
0100
0000
1000
0000
,
0010
0000
0001
0000
,
0200
0000
0000
0000
,
0010
0000
0310
0000
,
0020
0000
0000
0000
,
0100
0000
0130
0000
;

//---------------dance-single - ----------------
#NOTES:
     dance-single:
     :
     Medium:
     11:
     0.514315,0.499056,0.303853,0.128908,0.009208,344.000000,33.000000,14.000000,0.000000,0.000000,0.000000,0.514315,0.499056,0.303853,0.128908,0.009208,344.000000,33.000000,14.000000,0.000000,0.000000,0.000000:
0000
0000
0000
0000
,
0000
0000
0000
0000
,
0000
0000
0000
0000
,
0000
0000
0000
0000
,
0000
0000
0000
0000
,
1000
0010
0100
0001
1000
0000
1001
0000
,
0001
0100
0010
1000
0001
0000
1001
0000
,
1000
0010
0100
0001
1000
0000
1001
0000
,
0001
0100
0010
1000
0001
0000
1001
0000
,
1000
0100
0001
0100
1000
0000
1001
0000
,
0001
0010
1000
0010
0001
0000
1001
0000
,
1000
0010
0001
0010
1000
0000
1001
0000
,
1000
0100
0001
0100
1000
0000
1001
0000
,
1000
0100
0001
0000
0100
0001
1000
0000
,
0010
1000
0001
1001
,
0100
0001
1000
0000
0001
0100
1000
0000
,
0010
1000
0001
0110
,
1000
0100
0010
0000
0100
0010
0001
0000
,
0100
0010
1000
1001
,
0010
0100
0001
0000
0100
0010
1000
0000
,
0001
0100
0010
1000
0001
0000
1001
0000
,
1000
0100
0001
0000
1000
0000
0001
0000
,
0100
1000
0001
0000
0010
0000
0001
0000
,
1000
0001
0100
0000
0010
0000
1000
0000
,
0001
0100
0010
0000
1000
0000
0001
0000
,
0001
0010
1000
0000
0001
0000
1000
0000
,
0010
1000
0001
0000
0010
0000
0100
0000
,
0010
1000
0010
0000
0001
0000
0010
0000
,
0001
0100
0010
0000
1000
0000
0001
0000
,
1100
1100
0100
0001
,
0101
0101
1000
0100
,
0020
0000
0000
0000
0130
0001
1000
0000
,
0200
0000
0000
0000
0301
1000
0010
0000
,
0020
0000
0000
0000
1030
0001
0100
0000
,
0200
0000
0000
0000
0301
1000
0010
0000
,
0020
0000
1030
0000
0001
0100
0020
0000
,
0230
0000
1300
0000
0001
0100
0020
0000
,
0230
0000
0301
0000
1000
0010
0200
0000
,
0301
0000
1000
0000
0010
0100
0001
0000
,
0100
0001
1000
0000
1001
0000
1001
0000
,
0010
1000
0001
0000
1000
0010
0001
0000
,
1000
0010
0100
0000
1001
0000
1001
0000
,
0010
1000
0001
0000
0001
1000
0010
0000
,
1001
0000
1000
0010
0100
0000
0101
0000
,
0010
0100
1000
0000
0001
0010
0100
0000
,
0001
1000
0010
0100
0001
1000
0010
0100
,
0220
0000
0330
1001
,
0010
1000
0001
0000
0001
1000
0010
0000
,
1000
0010
0100
0001
1000
0000
1001
0000
,
0001
1000
0010
0100
1000
0000
1001
0000
,
0001
0000
0100
0000
1000
0000
0001
0000
0000
1001
0000
0000
,
0010
1000
0001
0000
0100
0000
0010
0000
,
0001
1000
0010
0100
0001
0000
1001
0000
,
0001
0100
0010
1000
0001
0000
1010
0000
,
0001
1000
0010
0100
0001
0000
0011
0000
,
0001
0100
1000
0000
0001
0100
1000
0000
,
0001
0100
1000
0000
0001
0100
1000
0000
,
1000
0010
0001
0000
1000
0010
0001
0000
,
1000
0010
0001
0000
1000
0010
0001
0000
,
0001
0100
1000
0100
0001
0100
1000
0100
,
0001
0010
1000
0010
0001
0010
1000
0010
,
0100
1000
0100
0010
0001
0010
0100
1000
,
0010
0100
0001
0100
0010
1000
0100
1000
,
0100
0000
1100
0000
0001
0100
0010
0000
,
0001
0000
0011
0000
0100
0010
1000
0000
,
0001
0100
1000
0100
0001
0100
1000
0100
,
1000
0010
0001
0010
1000
0010
2002
0000
,
0000
0000
0000
3003
;

//---------------dance-single - ----------------
#NOTES:
     dance-single:
     :
     Hard:
     14:
     0.641907,0.842157,0.423553,0.073661,0.207173,434.000000,46.000000,8.000000,0.000000,0.000000,0.000000,0.641907,0.842157,0.423553,0.073661,0.207173,434.000000,46.000000,8.000000,0.000000,0.000000,0.000000:
// measure 0
0000
0000
0000
0000
,  // measure 1
0000
0000
0000
0000
,  // measure 2
0000
0000
0000
0000
,  // measure 3
0000
0000
0000
0000
,  // measure 4
0000
0000
0000
0000
,  // measure 5
1000
0010
0100
0001
1000
0010
0100
0000
,  // measure 6
0001
0100
0010
1000
0001
0100
0001
0000
,  // measure 7
0010
1000
0100
0001
0010
0100
1000
0000
,  // measure 8
0010
0100
1000
0100
0001
0010
0100
0000
,  // measure 9
1000
0100
0010
0100
1000
0100
0010
0000
,  // measure 10
0001
0010
0100
0010
0001
0010
0100
0000
,  // measure 11
1000
0100
0001
0100
1000
0100
0001
0010
,  // measure 12
1000
0010
0001
0010
1000
0010
1001
0000
,  // measure 13
0010
1000
0100
0001
0100
0010
1000
0000
,  // measure 14
0010
1000
0001
0100
0010
0000
1001
0000
,  // measure 15
0010
1000
0001
0100
0010
1000
0001
0000
,  // measure 16
0100
0010
1000
0001
0100
0000
1001
0000
,  // measure 17
0010
1000
0100
0001
0100
0010
1000
0000
,  // measure 18
0001
0100
0010
1000
0100
0000
1001
0000
,  // measure 19
0100
1000
0100
0010
0001
0100
1000
0000
,  // measure 20
0010
1000
0100
0001
0100
0010
1001
0000
,  // measure 21
1000
0100
0001
0000
1000
0100
0001
0000
,  // measure 22
1000
0010
0001
0000
1000
0010
0001
0000
,  // measure 23
0001
0100
1000
0000
0001
0100
1000
0000
,  // measure 24
0001
0010
1000
0000
0001
0010
1000
0000
,  // measure 25
0001
0100
1100
0000
1000
0010
0011
0000
,  // measure 26
0001
0010
1100
0000
1000
0100
0011
0000
,  // measure 27
0001
1000
0001
1000
0001
1000
0001
1000
,  // measure 28
0010
0100
0001
1000
0010
0100
0001
1000
,  // measure 29
0010
0100
0001
0100
0010
1000
1100
0000
,  // measure 30
1000
0100
0010
0100
0001
0010
0011
0000
,  // measure 31
0002
0100
0100
0100
,  // measure 32
2003
0100
0100
0100
,  // measure 33
3002
0010
0010
0010
,  // measure 34
2003
0010
0010
0010
,  // measure 35
3001
0100
0010
1000
0010
0100
0001
0000
,  // measure 36
1000
0010
0100
0001
0100
0010
1000
0000
,  // measure 37
0001
0100
1000
0100
0001
0100
1000
0100
,  // measure 38
1000
0010
0001
0010
1000
0010
0001
0000
,  // measure 39
1100
0000
0001
1001
0110
0000
0001
0010
,  // measure 40
1000
0100
0010
1000
0001
0100
1001
0000
,  // measure 41
0011
0000
1000
1001
0110
0000
0001
0000
,  // measure 42
0010
1000
0100
0001
0010
0100
1001
0000
,  // measure 43
0110
0000
0001
1001
1100
0000
0101
0000
,  // measure 44
0001
0010
1000
0100
0010
0100
1100
0000
,  // measure 45
0001
0100
1000
0000
1000
0100
0001
0000
0001
0010
1000
0000
1000
0010
0001
0000
,  // measure 46
0220
0000
0000
0330
0000
0000
0010
0100
0001
1001
0000
0000
,  // measure 47
0010
1000
0001
0000
0001
0100
1000
0000
,  // measure 48
0010
1000
0000
0010
0000
1000
0000
0001
0000
0000
0010
0000
1000
0000
0000
0000
,  // measure 49
0001
0000
0100
0000
1000
0010
0000
0100
0000
0001
0000
0000
0010
0000
0100
0000
,  // measure 50
0001
0010
0100
1000
0010
0100
0001
0000
0000
1001
0000
0000
,  // measure 51
0010
1000
0100
0000
0001
0100
0010
0000
,  // measure 52
1000
0010
0000
0100
0000
0001
0000
0100
0000
0000
0010
0000
1001
0000
0000
0000
,  // measure 53
0010
0000
1000
0000
0001
0100
0000
0010
0000
1000
0000
0000
1000
0000
0001
0000
,  // measure 54
1001
0010
1000
0100
0001
0010
0100
1000
,  // measure 55
1100
0000
0101
0010
1000
0000
1010
0000
,  // measure 56
0001
0000
1010
0100
0001
0000
0101
0000
,  // measure 57
0110
0000
1001
0010
0100
0000
1100
0000
,  // measure 58
0101
0010
0100
1000
0100
0001
1001
0000
,  // measure 59
1100
1000
0100
0001
0100
0010
1000
0001
,  // measure 60
0101
0001
1000
0010
0100
1000
0001
1000
,  // measure 61
1001
0000
0010
0000
1000
0000
0100
1000
0001
0000
0010
0000
0100
0000
1000
0000
,  // measure 62
0010
0100
0010
0100
0001
1000
0001
1000
0100
0010
0001
1000
0100
0000
0000
0000
,  // measure 63
0001
1000
0000
1000
0010
1000
0010
0100
0001
0100
0000
1001
0000
0110
0000
0100
,  // measure 64
0001
0100
0010
0000
1000
0010
0100
0000
0101
0000
0010
0000
1000
0000
0100
0000
,  // measure 65
1000
0010
1000
0010
0100
0000
0010
0000
0001
0100
0001
0100
0010
0000
0100
0000
,  // measure 66
0001
0010
0100
1000
0010
1000
2002
0000
,  // measure 67
0000
0000
0000
3003
;
