#TITLE:WICKeD CRφSS;
#SUBTITLE:;
#ARTIST:OSTER project;
#TITLETRANSLIT:WICKeD CROSS;
#SUBTITLETRANSLIT:;
#ARTISTTRANSLIT:;
#GENRE:REFLEC BEAT;
#CREDIT:;
#BANNER:;
#BACKGROUND:;
#LYRICSPATH:;
#CDTITLE:;
#MUSIC:WICKeD CROSS.ogg;
#OFFSET:1.330000;
#SAMPLESTART:12.000008;
#SAMPLELENGTH:15.000000;
#LASTBEATHINT:0.847109;
#SELECTABLE:YES;
#BPMS:0.000000=180.000000
;
#STOPS:
;
#BGCHANGES:;
#KEYSOUNDS:;
#ATTACKS:;

//---------------dance-single - ----------------
#NOTES:
     dance-single:
     :
     Beginner:
     4:
     0.160888,0.287458,0.018165,0.136236,0.004541,107.000000,2.000000,15.000000,0.000000,0.000000,0.000000,0.160888,0.287458,0.018165,0.136236,0.004541,107.000000,2.000000,15.000000,0.000000,0.000000,0.000000:
0000
0000
0000
0000
,
0000
0000
0000
0000
,
0000
0000
0000
0000
,
0000
0000
0000
0000
,
0000
0000
0000
0000
,
1000
0000
0100
0000
,
1000
0000
0100
0000
,
0020
0000
0000
0000
,
0200
0000
0000
0000
,
0330
0000
0000
0000
,
0001
0000
0100
0100
,
0100
0000
1000
0000
,
0010
0000
0001
0001
,
0001
0000
0100
0000
,
1000
0000
0100
0010
,
0100
0000
1000
0000
,
0001
0000
0010
0100
,
0010
0000
2002
0000
,
0000
0000
0000
0000
,
3003
0000
0000
0000
,
1000
0000
0100
0000
,
1000
0000
0100
0000
,
0010
0000
0010
0000
,
0010
0000
0000
0000
,
0001
0000
0010
0000
,
0001
0000
0010
0000
,
0100
0000
0100
0000
,
0100
0000
0000
0000
,
1000
0000
0100
0000
,
0010
0000
0001
0000
,
1000
0000
0100
0000
,
0010
0000
0001
0000
,
2000
0000
0000
0000
,
3002
0000
0000
0000
,
2003
0000
0000
0000
,
3002
0000
0000
0000
,
1003
0000
0000
0100
,
0000
0000
0010
0000
,
0000
0001
0000
0000
,
1000
0000
0000
0100
,
0000
0000
0010
0000
,
0000
0001
0000
0000
,
1000
0000
0000
0100
,
0000
0000
0010
0000
,
0000
0001
0000
0000
,
0010
0000
0000
0100
,
0000
0000
2000
0000
,
0000
0000
0000
0000
,
3000
0000
0000
0000
,
0000
0000
0000
0000
,
0000
0000
0000
0000
,
1000
0000
0100
0000
,
1000
0000
0100
0000
,
0001
0000
0100
0000
,
0001
0000
0100
0000
,
1000
0000
0010
0000
,
1000
0000
0010
0000
,
0001
0000
0010
0000
,
0001
0000
0010
0000
,
0000
0000
0000
0000
,
1000
0000
0100
0000
,
0010
0000
0001
0000
,
1001
0000
0000
0000
,
0100
0000
1000
0000
,
0100
0000
1000
0000
,
0100
0000
0100
0000
,
0200
0000
0300
0000
,
0001
0000
0010
0000
,
0001
0000
0010
0000
,
1000
0000
1000
0000
,
1000
0000
0002
0000
,
0000
0000
2000
0000
,
0000
0000
0000
0000
,
3003
0000
0000
0000
,
0200
0000
0000
0000
0000
0000
0000
0000
0000
0000
0000
0000
0000
0000
0000
2300
,
0000
0000
0000
0000
,
0000
3002
0000
0000
,
0000
0000
0000
0000
,
0000
0000
0000
0000
,
0000
0003
0000
0000
0000
0000
0000
0000
;

//---------------dance-single - ----------------
#NOTES:
     dance-single:
     :
     Easy:
     7:
     0.421683,0.503052,0.435955,0.236143,0.004541,251.000000,48.000000,26.000000,0.000000,0.000000,0.000000,0.421683,0.503052,0.435955,0.236143,0.004541,251.000000,48.000000,26.000000,0.000000,0.000000,0.000000:
0000
0000
0000
0000
,
0000
0000
0000
0000
,
0000
0000
0000
0000
,
0000
0000
0000
0000
,
0000
0000
0000
0000
,
1000
0100
0010
0001
,
1000
0010
0100
0001
,
0020
0000
0000
0000
,
0200
0000
0000
0000
0000
0000
0000
0330
,
0001
1000
0010
0100
,
1000
0001
1001
1001
,
0010
0100
0110
0110
,
1000
0100
1100
1100
,
0001
0100
0101
0101
,
1000
0010
1001
1001
,
0010
0100
1001
1001
,
1000
0100
0101
0101
,
0001
0010
1100
0101
,
1100
0101
1001
0110
,
0220
0000
0000
0000
,
0330
0001
0000
0000
0001
0000
0000
0000
,
1000
0010
0100
0001
,
2000
0000
0000
3000
2000
0000
0000
3000
,
0001
0100
0010
1000
,
0020
0000
0230
0000
,
0302
0000
2003
0000
,
3010
0100
0010
0100
,
1000
0100
0010
0000
0100
0010
0001
0000
,
0100
0010
1000
0001
,
0100
0000
0010
0000
0100
0001
0010
0000
,
0100
0010
1000
0001
,
0100
0000
0010
0000
1000
0010
0100
0000
,
0002
0100
0100
0010
,
2003
0010
0010
0100
,
3010
0100
0001
0010
,
0200
0000
0302
0000
,
1003
0010
0100
0001
,
0001
0100
0010
1000
,
0001
0100
0100
1000
,
0010
1000
0100
0001
,
0001
0010
1000
0001
,
0100
0010
1000
0100
,
1100
0001
0100
0101
,
0010
1000
1010
0001
,
0010
0011
0100
0001
,
2000
0001
0001
0010
,
0010
0200
0000
0000
,
0000
0000
0000
0000
,
3300
0000
0000
0000
,
0001
0100
1000
0000
0001
0100
1000
0000
,
0020
0000
0000
0130
,
0001
1000
0010
0000
1000
0010
0001
0000
,
0100
0010
1000
1001
,
1000
0010
0100
0000
0010
0100
0001
0000
,
0010
0100
1000
1001
,
0010
1000
0100
0000
0010
0100
0001
0000
,
0010
1000
0001
0100
,
0010
1000
0010
0000
0100
0001
0100
0000
,
0010
1000
0010
0100
,
0002
0000
2003
0000
,
3010
0100
0001
0100
,
1000
0010
0100
0001
,
2000
0000
0002
3003
,
0001
0100
1100
1100
,
1000
0010
0110
0110
,
0001
0010
0011
0011
,
1000
0001
1001
1001
,
1000
0010
1100
0101
,
0010
1000
0011
1010
,
0001
0100
1100
0101
,
0010
1000
1100
0101
,
1100
0101
0011
1010
,
2002
0000
0000
0000
,
0000
0000
3003
0000
,
0200
0000
0000
0000
0000
0000
0000
0000
0000
0000
0000
0000
0000
0000
0300
2000
,
0000
0000
0000
0000
,
0000
0002
0000
0000
,
0000
0000
0000
0000
,
0000
0000
0000
0000
,
0000
3003
0000
0000
0000
0000
0000
0000
;

//---------------dance-single - ----------------
#NOTES:
     dance-single:
     :
     Medium:
     12:
     0.513805,0.574916,0.190730,0.181648,0.090824,355.000000,21.000000,20.000000,0.000000,0.000000,0.000000,0.513805,0.574916,0.190730,0.181648,0.090824,355.000000,21.000000,20.000000,0.000000,0.000000,0.000000:
0000
0000
0000
0000
,
0000
0000
0000
0000
,
0000
0000
0000
0000
,
0000
0000
0000
0000
,
0000
0000
0000
0000
,
1000
0100
0010
0000
1000
0100
0010
0000
,
0001
0010
0100
0000
0001
0010
0100
0000
,
2000
0100
0100
0010
,
0002
0000
0000
3003
,
0001
0010
0100
1000
0001
0010
0100
1000
,
0001
0010
0100
0000
1100
0000
0101
0000
,
0001
1000
0010
0000
0001
0000
0010
0000
,
1000
0100
0010
0000
0011
0000
1010
0000
,
0100
0001
1000
0000
0010
0000
0100
0000
,
1000
0100
0010
0000
1000
0000
1001
0000
,
0001
0100
0010
0000
1000
0000
1001
0000
,
0010
0100
0001
0000
0100
0010
1000
0000
,
0100
0000
0000
0001
0000
0000
0100
0000
0100
0010
0000
0010
,
0001
0000
0001
1000
0000
1000
0100
0000
0100
0010
0000
0010
,
2000
0000
0000
0000
,
3002
0000
0203
0000
,
1300
0000
0010
0000
0100
0001
1000
0000
,
0020
0000
0230
0000
,
0301
0000
1000
0000
0001
0010
1000
0000
,
0002
0100
0010
0000
,
2003
0010
0100
0000
,
3001
0100
1000
0100
,
0010
1000
0001
0000
0001
1000
0010
0000
,
1000
0100
0010
0000
0100
0010
0001
0000
,
0001
0010
0100
0000
0010
0100
1000
0000
,
0010
1000
0001
0000
0001
1000
0010
0000
,
1000
0010
0001
0000
0100
0010
1000
0000
,
0002
0000
0000
0103
0000
0000
0010
0000
1000
0001
0000
0000
,
0200
0000
0000
0310
0000
0000
1000
0000
0001
0010
0000
0000
,
1000
0000
0000
0001
0000
0000
1100
0000
0100
0001
0000
0002
,
2000
0000
0003
0000
,
3100
0000
0010
0000
1000
0000
0001
1000
,
0010
0000
0010
1000
0001
0000
0100
0000
,
0010
0000
1000
0010
0100
0000
0010
0100
,
1000
0000
0001
0000
0100
0000
0001
0010
,
0100
0000
0010
0100
0001
0000
0010
0000
,
0100
0000
0001
0100
0010
0000
0010
1000
,
0100
0001
1000
1100
,
0101
1001
0010
1000
,
0001
0011
1010
1001
,
0010
1000
0001
0001
0100
0000
0100
0001
,
1000
1000
0010
0000
1000
0000
0100
0000
,
0001
1000
0010
0100
,
0002
0000
0000
0000
,
0200
0000
0000
0303
,
0001
0010
0100
1000
0001
0010
0100
1000
,
0010
1000
0100
0000
0010
0100
0001
0000
,
0001
0100
1000
0100
0010
0001
0010
0000
,
1000
0010
1000
0000
0001
0100
0010
0000
,
1000
1100
0101
1001
,
0010
1000
0001
0000
0001
1000
0010
0000
,
1000
0100
0010
0100
0001
0010
0100
0000
,
0001
0100
0010
0000
0010
1000
0100
0000
,
1000
0100
0010
0100
0001
0010
0100
0000
,
1100
0101
1100
0101
,
1000
0000
1000
0100
0000
0100
0010
0000
0010
0001
0000
0000
,
0001
1000
0100
0000
0001
0100
0010
0000
,
2000
0001
0001
3001
,
0001
0010
0100
1000
0100
0010
0001
0000
,
1000
0100
0010
0001
0010
0100
1000
0000
,
0001
0010
0100
0010
0001
0010
0100
0000
,
1000
0100
0010
0100
1000
0100
0010
0000
,
0001
0010
0100
0010
0010
0100
0001
0000
,
1000
0100
0010
0100
0100
0010
1000
0000
,
0010
0001
1000
0010
0001
0100
1000
0000
,
0010
0000
0000
1000
0000
0000
0001
0000
0000
0000
0000
0000
1100
0000
0000
0000
0001
0000
0100
0000
0000
0000
0100
0000
,
0001
0000
0001
0010
0000
0010
1000
0000
1000
0100
0000
0100
,
0002
0000
0000
0000
,
0000
0000
0000
0000
,
2003
0000
0000
0000
0000
0000
0000
0000
0000
0000
0000
0000
0000
0000
0000
3020
,
0000
0000
0000
0000
,
0000
0200
0000
0000
,
0000
0000
0000
0000
,
0000
0000
0000
0000
,
0000
0330
0000
0000
0000
0000
0000
0000
;

//---------------dance-single - ----------------
#NOTES:
     dance-single:
     :
     Hard:
     16:
     0.822606,0.934239,0.127154,0.190730,0.667557,599.000000,14.000000,21.000000,0.000000,0.000000,0.000000,0.822606,0.934239,0.127154,0.190730,0.667557,599.000000,14.000000,21.000000,0.000000,0.000000,0.000000:
0000
0000
0000
0000
,
0000
0000
0000
0000
,
0000
0000
0000
0000
,
0000
0000
0000
0000
,
0000
0000
0000
0000
,
0001
0010
0001
0010
1000
0010
1000
0010
,
0001
0100
0001
1000
0100
0010
0001
1000
,
0100
0010
0100
0001
0010
0100
1000
0010
,
0100
0100
0010
0010
1000
1000
0001
0001
,
2002
0000
0000
0000
0000
0000
0000
0000
3003
0000
0000
0000
1000
0100
0010
0001
,
0020
0000
0000
0000
0000
0000
0000
0000
1030
0000
0010
0100
0010
0000
0100
0000
,
0002
0000
0000
0000
0000
0000
0000
0000
0103
0000
0010
0100
0010
0000
1000
0000
,
0001
0000
0100
0000
0010
1000
0001
0100
,
0010
1100
0101
1001
,
0010
0000
1000
0010
0100
0000
0001
0000
0010
0000
1000
0000
0100
0000
0010
0000
,
0100
0000
0001
0010
0100
0000
0010
0000
1000
0000
0100
0000
0001
0000
1000
0000
,
0010
0000
1000
0100
0001
0000
0010
0000
0100
0000
1000
0000
0010
0000
0100
0000
,
0001
0000
0000
0000
0000
0000
0001
0000
0000
0010
0000
0000
1000
0000
0000
0000
0000
0000
0010
0000
0000
0000
0000
0000
1000
0000
0000
0000
0010
0000
0000
0000
0100
0000
0000
0000
0001
0000
0000
0000
0010
0000
0000
0000
0100
0000
0000
0000
,
1000
0010
1000
0100
0001
0100
0010
1000
0001
0100
0010
0100
,
0002
0000
0000
0000
,
0103
0000
0010
1000
0001
0000
0001
1000
,
0010
1000
0100
0010
0001
0100
0010
1000
,
1100
0000
0010
1000
0001
0000
0001
1000
,
0010
1000
0100
0001
0100
0010
0001
0010
,
0011
0000
0001
0100
0010
1000
0001
0100
,
1100
0000
1000
0010
0100
0001
0010
1000
,
0100
1000
0100
0000
0001
0100
0001
0000
0100
1000
0001
0010
0100
1000
0001
0000
,
1000
0001
0010
0000
0100
0001
1000
0000
0001
0100
0010
1000
0010
0000
0000
0000
,
0001
0000
1000
0100
1000
0000
0010
0000
0001
0000
0010
0000
0100
0000
1000
0000
,
0010
1000
0100
0010
0100
1000
1001
0001
,
1000
0010
1000
0100
0001
0010
0100
1000
,
0010
1000
0001
0100
0010
0100
1001
0010
,
1000
0000
0000
1000
0010
1000
0001
0010
0100
1000
0010
1000
,
0001
0000
0000
0001
0100
0001
1000
0100
0010
0001
0100
0001
,
1000
0100
0010
0001
0100
0010
0100
0001
1000
0010
0100
0001
,
0200
0000
0320
0000
,
1030
0001
1000
0010
0100
0001
0010
1000
,
0100
0010
1000
0001
0010
1000
0010
0100
,
0001
0010
0100
1000
0010
1000
1001
0000
,
0010
1000
0100
0010
0100
0001
0010
0100
,
1000
0010
1000
0100
0001
0010
0100
1000
,
0010
1000
0100
0001
0010
0100
0110
0000
,
0001
0000
1000
0000
0100
0000
0010
0000
1000
0000
0001
0000
1000
0100
1000
0000
,
1000
0010
1000
0000
1000
0001
1000
0000
0100
0000
0010
0000
1000
0000
0001
0000
,
0100
0000
0010
0000
0001
0010
0001
0000
0001
0100
0001
0000
0001
1000
0001
0000
,
1000
0100
0010
1000
0100
0010
0100
0001
,
0010
0100
1000
0010
2000
0000
3002
0000
,
0203
0320
2030
3002
,
0200
0000
0303
0000
,
1000
0100
1000
0100
0010
0001
0010
0001
,
1000
0000
0010
0000
0100
0000
0001
0000
0010
0000
1000
0000
0010
0100
0010
0100
,
0010
0000
0001
1000
0010
0000
0100
0000
0001
1000
0010
0000
1000
0000
0100
1000
,
0010
1000
0010
1000
0010
0000
0100
0000
0001
0010
0100
0000
0001
0000
0010
0000
,
1000
0000
0100
0010
0100
0000
0001
0100
0010
0000
1000
0010
0100
0000
0001
0000
,
0010
1000
0010
0100
0001
0100
0010
1000
0010
0000
0100
0000
0101
0000
0000
0000
,
0100
0000
1000
0001
0100
0000
0010
0000
1000
0001
0100
0000
0001
0000
0010
0001
,
0100
0001
0100
0001
0100
0000
0010
0000
1000
0100
0010
0000
1000
0000
0100
0000
,
0001
0000
0010
0100
0010
0000
1000
0010
0100
0000
0001
0100
0010
0000
1000
0000
,
0100
0001
0100
0010
1000
0010
0100
0001
0100
0000
0010
0000
1010
0000
0000
0000
,
0010
0000
1000
0100
1000
0000
0001
0010
0001
0000
0010
0100
0010
0000
1000
0000
,
0001
1000
0010
0100
0001
0010
0100
1000
0010
1000
0100
0001
,
1000
0100
0001
0000
1000
0010
0001
0000
1000
0010
0100
0001
0010
0000
0001
0000
,
2000
0000
3002
0000
,
0103
0000
0010
1000
0010
0000
0100
0000
0001
0010
0100
0010
0001
0010
0100
0010
,
0001
0000
1000
0100
1000
0000
0001
0000
0010
1000
0001
1000
0010
1000
0001
1000
,
0010
0000
0100
0001
0100
0000
0010
0000
1000
0100
0010
0100
1000
0100
0010
0100
,
1000
0000
0001
0010
0001
0000
1000
0000
0100
0001
1000
0001
0100
0001
1000
0001
,
0100
0000
0010
0100
1000
0000
0001
0000
0100
0010
1000
0010
0100
0001
0010
0100
,
0010
0000
1000
0001
0100
0000
0010
0000
1000
0010
0100
0010
1000
0001
0100
0010
,
1000
0000
0010
1000
0001
0000
0100
0000
0001
0100
0001
0100
0010
1000
0010
0100
,
0001
0000
0000
0000
0000
0000
1000
0000
0000
0010
0000
0000
0100
0000
0000
0000
0000
0000
0001
0000
0000
0000
0000
0000
0010
0000
0000
0000
1000
0000
0000
0000
0100
0000
0000
0000
0001
0000
0000
0000
1000
0000
0000
0000
0001
0000
0000
0000
,
0100
1000
0100
0010
0100
0001
0100
1000
0010
1000
0100
0001
,
0202
0000
0000
0000
,
0003
0000
0000
0000
,
0020
0000
0000
0000
0300
0000
0000
0002
,
0000
0000
0000
0000
0000
0000
0000
0000
0000
0000
0000
0030
0000
0000
0000
0000
,
0000
2000
0000
0000
,
0000
0000
0000
0000
,
0000
0000
0000
0000
,
0000
3003
0000
0000
0000
0000
0000
0000
;
