#TITLE:Under the Sky (Ryu☆ Remix);
#SUBTITLE:;
#ARTIST:南さやか (BeForU) with platoniX;
#TITLETRANSLIT:Under the Sky (Ryu Remix);
#SUBTITLETRANSLIT:;
#ARTISTTRANSLIT:SayakaMinami(BeForU) with platoniX;
#GENRE:DDR;
#CREDIT:;
#BANNER:;
#BACKGROUND:;
#LYRICSPATH:;
#CDTITLE:;
#MUSIC:Under the Sky (Ryu Remix).ogg;
#OFFSET:0.083100;
#SAMPLESTART:85.542816;
#SAMPLELENGTH:15.000000;
#SELECTABLE:YES;
#DISPLAYBPM:185.000000;
#BPMS:0.000000=185.000000
,328.000000=182.899918
;
#STOPS:
;
#BGCHANGES:;
#KEYSOUNDS:;
#ATTACKS:;

//---------------dance-single - ----------------
#NOTES:
     dance-single:
     :
     Beginner:
     2:
     0.103903,0.183896,0.024795,0.115710,0.000000,71.000000,3.000000,14.000000,0.000000,0.000000,0.000000,0.103903,0.183896,0.024795,0.115710,0.000000,71.000000,3.000000,14.000000,0.000000,0.000000,0.000000:
0000
0000
0000
0000
,
0000
0000
0000
0000
,
0000
0000
0000
0000
,
0000
0000
0000
0000
,
0000
0000
0000
0000
,
1000
0000
0000
0000
,
0100
0000
0000
0000
,
1000
0000
0000
0000
,
0001
0000
0000
0000
,
0010
0000
0000
0000
,
0100
0000
0000
0000
,
1000
0000
0000
0000
,
0001
0000
0000
0000
,
1000
0000
0000
0000
,
0010
0000
0000
0000
,
0100
0000
0000
0000
,
0001
0000
0000
0000
,
0100
0000
0000
0000
,
0010
0000
0000
0000
,
1000
0000
0000
0000
,
0001
0000
0000
0000
,
1000
0000
0000
0000
,
0010
0000
0000
0000
,
0100
0000
0000
0000
,
0001
0000
0000
0000
,
1000
0000
0000
0000
,
0001
0000
0000
0000
,
1000
0000
0000
0000
,
0010
0000
0000
0000
,
1000
0000
0000
0000
,
0100
0000
0000
0000
,
1000
0000
0000
0000
,
1000
0000
0000
0000
,
0001
0000
0000
0000
,
1000
0000
0000
0000
,
0001
0000
0000
0000
,
0100
0000
0000
0000
,
0001
0000
0000
0000
,
0010
0000
0000
0000
,
0001
0000
0000
0000
,
0001
0000
0000
0000
,
1002
0000
0000
0000
,
0003
0000
0000
0000
,
0200
0000
0000
0000
,
0300
0000
0000
0000
,
0020
0000
0000
0000
,
0030
0000
0000
0000
,
2000
0000
0000
0000
,
3000
0000
0000
0000
,
0002
0000
0000
0000
,
0003
0000
0000
0000
,
0200
0000
0000
0000
,
0300
0000
0000
0000
,
0020
0000
0000
0000
,
0000
0030
0000
0000
,
2000
0000
0000
0000
,
3000
0000
0000
0000
,
0100
0000
0000
0000
,
1000
0000
0000
0000
,
0010
0000
0000
0000
,
0001
0000
0000
0000
,
0100
0000
0000
0000
,
0010
0000
0000
0000
,
2002
0000
0000
0000
,
3003
0000
0000
0000
,
0000
0000
0000
0000
,
0010
0000
0000
0000
,
0100
0000
0000
0000
,
0010
0000
0000
0000
,
1000
0000
0000
0000
,
0010
0000
0000
0000
,
0100
0000
0000
0000
,
0010
0000
0000
0000
,
0001
0000
0000
0000
,
0100
0000
0000
0000
,
1000
0000
0000
0000
,
0100
0000
0000
0000
,
0010
0000
0000
0000
,
0100
0000
0000
0000
,
0001
0000
0000
0000
,
0100
0000
0000
0000
,
0010
0000
0000
0000
,
1002
0000
0000
0000
,
0003
0000
0000
0000
,
0200
0000
0000
0000
,
0300
0000
0000
0000
,
0020
0000
0000
0000
,
0030
0000
0000
0000
,
2000
0000
0000
0000
,
3000
0000
0000
0000
;

//---------------dance-single - ----------------
#NOTES:
     dance-single:
     :
     Easy:
     5:
     0.166481,0.297540,0.016530,0.231420,0.000000,111.000000,2.000000,28.000000,0.000000,0.000000,0.000000,0.166481,0.297540,0.016530,0.231420,0.000000,111.000000,2.000000,28.000000,0.000000,0.000000,0.000000:
0000
0000
0000
0000
,
0000
0000
0000
0000
,
0000
0000
0000
0000
,
0000
0000
0000
0000
,
0000
0000
0000
0000
,
1000
0000
0000
0000
,
0100
0000
0000
0000
,
0010
0000
0000
0000
,
0001
0000
0000
0000
,
1001
0000
0000
0000
,
0100
0000
0000
0000
,
1000
0000
0000
0000
,
0010
0000
0100
0000
,
0010
0000
0000
0000
,
0001
0000
0000
0000
,
1000
0000
0000
0000
,
0010
0000
0200
0000
,
0310
0000
0000
0000
,
1000
0000
0000
0000
,
0001
0000
0000
0000
,
0010
0000
0100
0000
,
0010
0000
0000
0000
,
1000
0000
0000
0000
,
0001
0000
0000
0000
,
0200
0000
0010
0000
,
1300
0000
0000
0000
,
0200
0000
0000
0000
,
0301
0000
0000
0000
,
0020
0000
0000
0000
,
1030
0000
0000
0000
,
0200
0000
0000
0000
,
1300
0000
0000
0000
,
0020
0000
0000
0000
,
0031
0000
0000
0000
,
0100
0000
0000
0000
,
1000
0000
0010
0000
,
0001
0000
0100
0000
,
2000
0000
0000
0000
,
3002
0000
0000
0000
,
0203
0000
0010
0000
,
0010
0000
0010
0000
,
0320
0000
0000
0000
,
2030
0000
0000
0000
,
3200
0000
0000
0000
,
0302
0000
0000
0000
,
2003
0000
0000
0000
,
3020
0000
0000
0000
,
0230
0000
0000
0000
,
0302
0000
0000
0000
,
1003
0000
0100
0000
,
0010
0000
0000
0000
,
0100
0000
0010
0000
,
0001
0000
0000
0000
,
1000
0000
0100
0000
,
0001
0000
0000
0000
,
1000
0000
0010
0000
,
0001
0000
0000
0000
,
0200
0000
0000
0000
,
2300
0000
0000
0000
,
3020
0000
0000
0000
,
0032
0000
0000
0000
,
0103
0000
1000
0000
,
0100
0000
0001
0000
,
0200
0000
0000
0000
,
0300
0000
0000
0000
,
0020
0000
0030
0000
,
1000
0000
0001
0000
,
0100
0000
0000
0000
,
0001
0000
1000
0000
,
0100
0000
0000
0000
,
1000
0000
0001
0000
,
0010
0000
0000
0000
,
0001
0000
1000
0000
,
0010
0000
0000
0000
,
1000
0000
0100
0000
,
0001
0000
0000
0000
,
1000
0000
0010
0000
,
0001
0000
0000
0000
,
1000
1000
0100
0000
,
0100
0100
0010
0000
,
0001
0001
0010
0010
,
0100
0100
1000
1000
,
1002
0000
0000
0000
,
0200
0000
0003
0000
,
0020
0000
0000
0000
,
0300
0000
0000
0000
,
2000
0000
0000
0000
,
0030
0000
0000
0000
,
0002
0000
0000
0000
,
0000
0000
0000
0000
,
3003
0000
0000
0000
;

//---------------dance-single - ----------------
#NOTES:
     dance-single:
     :
     Medium:
     8:
     0.366022,0.446310,0.099180,0.322335,0.000000,259.000000,12.000000,39.000000,0.000000,0.000000,0.000000,0.366022,0.446310,0.099180,0.322335,0.000000,259.000000,12.000000,39.000000,0.000000,0.000000,0.000000:
0000
0000
0000
0000
,
0000
0000
0000
0000
,
0000
0000
0000
0000
,
0000
0000
0000
0000
,
0000
0000
0000
0000
,
1000
0100
0010
0001
,
1000
0010
0100
0001
,
0010
0100
1000
0001
,
0110
0000
1100
0000
,
0101
0000
1000
0010
,
0100
0000
0011
0000
,
1001
0010
0100
0001
,
1000
0010
0200
0000
,
0310
0000
1000
0001
,
0020
0000
0130
0001
,
2000
0000
3010
0100
,
0001
0010
2000
0000
,
3010
0100
0001
1000
,
0020
0000
0130
0000
,
0001
1000
0010
0100
,
0002
0000
0103
0000
,
2000
0010
3100
0000
,
0002
0100
0013
0000
,
1000
0010
0100
0001
,
0220
0000
0000
0330
,
0001
1000
0010
0100
,
2200
0000
3300
0000
,
1000
0010
0100
0001
,
0022
0000
0033
0000
,
0001
0100
1000
0100
,
0001
0000
0000
0001
0000
0000
0000
0000
,
1000
0010
0001
0010
,
1000
0000
0000
1000
0000
0000
0000
0000
,
1000
0010
0100
0001
,
0100
0010
1000
0001
,
0020
0000
0230
0000
,
0302
0000
2003
0000
,
3100
0010
1000
0002
,
0103
0010
1000
0200
,
0310
1000
0001
0020
,
1030
0001
0100
1000
,
0020
0000
0100
0000
,
0001
0000
0100
0000
,
2030
0000
0100
0000
,
0001
0000
0100
0000
,
3020
0000
0100
0000
,
0001
0000
1000
0000
,
0230
0000
0001
0000
,
0010
0000
1300
0000
,
0002
0100
0100
0000
,
1000
1000
1000
0000
,
2003
0010
0010
0000
,
0001
0001
0001
0000
,
3020
0100
0100
0000
,
0001
0001
0001
0000
,
0230
1000
1000
0000
,
0010
0010
0010
0000
,
0302
0000
0000
0100
,
2000
0003
0000
0000
0000
0000
0010
0000
,
3002
0000
0100
0000
,
0203
0000
0000
0000
,
1300
0010
0001
1000
,
0100
0010
0001
0100
,
2000
0001
0001
3001
,
0010
0000
0000
0010
0000
0000
0000
0000
,
0100
0000
0000
0100
0000
0000
0000
0000
,
1001
0100
0010
1000
,
0001
0000
0100
0000
0010
1000
0001
0000
,
0010
1000
0100
0010
,
0001
0000
1000
0000
0001
1000
0010
0000
,
0100
0000
0001
0000
1000
0100
1000
0000
,
0010
0000
1000
0000
0001
0010
0001
0000
,
0100
0000
0010
0000
1000
0001
0100
0000
,
0001
0000
0010
0000
1000
0100
0001
0000
,
1001
0000
0010
0000
1000
0010
0100
0001
,
1000
1001
0001
0100
,
0010
0000
0001
0000
0100
0001
0100
0010
,
1000
1001
0010
1000
,
0001
0000
0100
0000
1000
0100
0010
0100
,
0001
0000
0010
0000
0001
0010
0100
0010
,
1000
0100
0001
0100
,
0010
0000
0000
1000
0000
0000
0001
0000
,
0200
0000
0000
0000
,
0320
0000
1000
0000
,
0002
0000
0030
0000
,
0000
0100
0100
0000
,
0200
0000
0000
0000
,
0003
0000
0000
0000
,
2000
0000
0000
0000
,
0000
0000
0000
0000
,
3300
0000
0000
0000
;

//---------------dance-single - ----------------
#NOTES:
     dance-single:
     :
     Hard:
     12:
     0.482913,0.743851,0.148770,0.297540,0.057855,355.000000,18.000000,36.000000,0.000000,0.000000,0.000000,0.482913,0.743851,0.148770,0.297540,0.057855,355.000000,18.000000,36.000000,0.000000,0.000000,0.000000:
// measure 0
0000
0000
0000
0000
,  // measure 1
0000
0000
0000
0000
,  // measure 2
0000
0000
0000
0000
,  // measure 3
0000
0000
0000
0000
,  // measure 4
0000
0000
0000
0000
,  // measure 5
1000
0000
0010
0000
0100
0001
1000
0000
,  // measure 6
0010
0000
0100
0000
0001
1000
0010
0000
,  // measure 7
0100
0001
1000
0010
,  // measure 8
0002
0000
2003
0000
,  // measure 9
3001
0000
0010
0000
1000
0001
0100
0000
,  // measure 10
0010
0000
1000
0000
0100
0010
0001
0000
,  // measure 11
1000
0000
0010
0000
0001
0010
1000
0000
,  // measure 12
0001
0100
1001
0000
,  // measure 13
1000
0000
0010
0000
0100
0001
1000
0000
,  // measure 14
0010
0000
0100
0000
0001
1000
0010
0000
,  // measure 15
0100
0000
0001
0000
1000
0001
0010
0000
,  // measure 16
0100
0000
0000
0000
0001
0000
0000
0000
1000
0000
0000
1000
0000
0000
1000
0000
,  // measure 17
0010
0100
0001
1000
,  // measure 18
0010
0000
0100
0000
0001
1000
0001
0000
,  // measure 19
0010
1000
0100
0001
,  // measure 20
0010
0000
0100
0000
1000
0001
1000
0000
,  // measure 21
0010
1001
0010
1000
,  // measure 22
0100
0110
0001
1000
,  // measure 23
1100
0001
0101
0001
,  // measure 24
0021
0000
0000
0000
,  // measure 25
0130
0000
0001
0000
1000
0000
0010
1000
,  // measure 26
0002
0000
0103
0010
,  // measure 27
1000
0000
0001
0000
0010
0000
0001
0100
,  // measure 28
2000
0000
3100
0010
,  // measure 29
2000
0000
0001
0100
,  // measure 30
0010
0000
0000
0010
0000
0000
0000
0000
,  // measure 31
3002
0000
0100
1000
,  // measure 32
0010
0000
0000
0010
0000
0000
0000
0000
,  // measure 33
1003
0000
0001
0000
0100
0000
0010
1000
,  // measure 34
0001
0000
1000
0000
0010
0000
1000
0001
,  // measure 35
0010
0000
1000
0000
0100
0000
0001
1000
,  // measure 36
0010
0000
1000
0000
0100
0000
0001
0010
,  // measure 37
1000
0000
1000
0100
0010
0000
0010
0100
,  // measure 38
0001
0000
0001
0010
1000
0000
1000
0001
,  // measure 39
0010
1000
0100
0010
0100
0001
0010
0100
,  // measure 40
2000
0000
0000
0000
,  // measure 41
3010
0100
0001
2000
,  // measure 42
0000
3020
0000
0130
,  // measure 43
0001
0000
1000
0000
0010
0000
0100
0001
,  // measure 44
0020
0000
0000
0000
,  // measure 45
0230
0000
1300
0001
,  // measure 46
0100
0010
1000
0100
,  // measure 47
0102
0000
0000
0100
0200
0000
0000
0000
,  // measure 48
0000
0000
0303
0000
,  // measure 49
1100
0001
1000
0020
,  // measure 50
0000
0230
0000
0301
,  // measure 51
1000
0000
0010
0100
0000
0001
0000
2000
,  // measure 52
0000
0000
0000
0000
,  // measure 53
3010
0000
0000
0000
1000
0010
0100
0002
,  // measure 54
0000
0010
0000
0010
0000
0100
0000
0100
,  // measure 55
0000
1000
2000
0000
0000
0000
0000
0000
,  // measure 56
0000
0000
3003
0000
,  // measure 57
0200
0000
0000
1000
,  // measure 58
0020
0300
0000
0000
0000
0000
0000
0000
0000
0000
0000
0000
1000
0000
0000
0000
,  // measure 59
0032
0000
0000
0100
0000
0000
0100
0000
,  // measure 60
0200
0000
0003
0000
,  // measure 61
2000
0000
0300
0010
,  // measure 62
3002
0000
0000
0010
0000
1000
0000
2000
,  // measure 63
0000
0000
0000
3003
,  // measure 64
0010
0000
0000
0010
0000
0000
0220
0000
0000
0000
0000
0000
0330
0000
0000
0000
,  // measure 65
1000
0000
0000
1000
0000
0000
2002
0000
0000
0000
0000
0000
3003
0000
0000
0000
,  // measure 66
1000
0010
0100
0001
0010
0100
1000
0010
,  // measure 67
1000
0100
0010
0100
0001
0010
1000
0000
,  // measure 68
0001
1000
0010
1000
0100
0010
0100
0001
,  // measure 69
0010
1000
0001
0100
0010
0100
0001
0000
,  // measure 70
1000
0100
0010
0100
1000
0100
0010
0000
,  // measure 71
0001
0010
0100
0010
0001
0010
0100
0000
,  // measure 72
0001
0010
1000
0100
0010
0100
0001
0010
,  // measure 73
1000
0000
0000
1100
0000
0000
0101
0000
0001
0000
0000
0101
0000
0000
1100
0000
,  // measure 74
0001
1000
0010
1000
0001
0100
0010
1000
,  // measure 75
0100
0000
0010
0000
0100
0000
0010
0000
1000
0000
0100
0000
0001
0000
0010
0100
,  // measure 76
0010
1000
0001
0010
1000
0100
0010
1000
,  // measure 77
0100
0000
0001
0000
0010
0000
0100
0000
1000
0000
0010
0000
0100
0000
0001
1000
,  // measure 78
0001
0000
0010
0000
1000
0000
0100
0000
0010
0000
0001
0000
0010
0000
1000
0100
,  // measure 79
1000
0000
0010
0000
1000
0000
0100
0000
0010
0000
0001
0000
1000
0000
0001
0010
,  // measure 80
0001
0000
0100
0000
0010
0000
1000
0100
0001
0000
0001
0000
1000
0000
0001
0010
,  // measure 81
1000
0000
0000
1001
0000
0000
1010
0000
0001
0000
0000
1001
0000
0000
0011
0000
,  // measure 82
0020
0000
0000
1000
,  // measure 83
0032
0000
0000
0100
0000
0000
2000
0000
,  // measure 84
0000
0000
0000
0000
,  // measure 85
3003
0000
0000
0000
1000
0000
0000
0000
0010
0000
0000
0100
0000
0000
0010
0000
,  // measure 86
0002
0000
0010
0020
0000
0000
0000
0000
,  // measure 87
0000
0000
0003
0000
,  // measure 88
0200
0000
0000
0000
,  // measure 89
0000
0000
0000
0000
,  // measure 90
0330
0000
0000
0000
;
