#TITLE:アルティメットセンパイ;
#SUBTITLE:;
#ARTIST:ピノキオピー;
#TITLETRANSLIT:Ultimate Senpai;
#SUBTITLETRANSLIT:;
#ARTISTTRANSLIT:PinocchioP;
#GENRE:Vocaloid;
#CREDIT:;
#BANNER:;
#BACKGROUND:;
#LYRICSPATH:;
#CDTITLE:;
#MUSIC:Ultimate Senpai.ogg;
#OFFSET:-0.020000;
#SAMPLESTART:48.009506;
#SAMPLELENGTH:15.000000;
#SELECTABLE:YES;
#BPMS:0.000000=145.000000
;
#STOPS:
;
#BGCHANGES:0.000=Ultimate Senpai.avi=1.000=0=0=0=StretchNoLoop====,
99999=-nosongbg-=1.000=0=0=0 // don't automatically add -songbackground-
;
#KEYSOUNDS:;
#ATTACKS:;

//---------------dance-single - ----------------
#NOTES:
     dance-single:
     :
     Hard:
     13:
     0.488206,0.597678,0.344742,0.209843,0.071197,456.000000,410.000000,46.000000,28.000000,0.000000,0.000000,0.488206,0.597678,0.344742,0.209843,0.071197,456.000000,410.000000,46.000000,28.000000,0.000000,0.000000:
0000
0000
0000
0000
,
0000
0000
0000
0000
,
0000
0000
0000
0000
,
0000
0000
0000
0000
,
0000
0000
0000
0000
,
1000
0000
0000
0000
0001
0000
0000
0000
0100
0000
0000
0010
0000
0000
0010
0000
,
0000
0001
1000
0010
0100
0000
1001
0000
,
0100
0010
1000
1000
,
0001
0100
0220
0330
,
0001
0100
0001
0100
1000
0000
1000
0000
,
0100
0010
0100
0010
1000
1000
0001
0001
,
1000
0010
1000
0010
0001
0000
0001
0000
,
0010
0100
0010
0100
0001
0001
1000
1000
,
0001
1000
0001
1000
0010
0000
1001
0000
,
1000
0001
1000
0001
0100
0100
0010
0010
,
0001
1000
0010
0100
0001
0100
1000
0000
,
0010
0000
0100
0010
0000
0010
0100
0000
1001
0000
0000
0000
0110
0000
0000
0000
,
1000
0100
0010
0001
0100
0000
0001
0100
,
0010
0100
1000
0010
0001
0001
0100
0100
,
0010
1000
0100
0010
0001
0000
0100
0010
,
1000
0001
0100
0010
1000
1000
0010
0010
,
0200
0000
0010
0000
0010
0000
0310
1000
,
0001
0100
1000
0010
0022
0033
2200
3300
,
0010
0100
0001
1000
0100
0010
0001
0100
,
0010
0000
1000
0001
0000
1000
0001
0000
0010
0000
0000
0000
1100
0000
0000
0000
,
1000
1000
1000
1000
,
0001
0001
0001
0001
,
1000
1000
1000
1000
,
0010
0010
0100
0110
,
1000
0100
1000
0100
0010
0000
0101
0000
,
0001
0010
0001
0010
0100
0000
1010
0000
,
0010
0100
1000
0100
0010
0001
0100
0010
,
1000
1000
0001
0001
1000
0000
1001
0000
,
1000
0100
0010
0100
1000
0000
0110
0000
,
0001
0010
0100
0010
0001
0000
0110
0000
,
0100
0001
0100
1000
0010
1000
0010
0001
,
0200
0000
0001
0000
0010
0000
1300
0100
,
0001
0100
0001
0100
0020
0000
0130
0000
,
1000
0100
1000
0100
0020
0000
0130
0000
,
1000
0001
1000
0001
0020
0000
0130
0000
,
0001
1000
0001
1000
0200
0000
0310
0000
,
1000
0010
0100
0001
0010
0000
0011
0010
,
0100
1000
0010
1000
0001
0000
1001
0000
,
1000
0100
0010
0001
0010
0100
0010
1000
,
0001
0011
1000
1100
,
2001
0000
0000
0000
,
0001
0000
0000
0000
0000
0000
3000
0001
,
2002
0000
3003
1000
2002
0000
3003
0001
,
1001
0000
1000
0000
1001
0000
0001
0000
1001
0000
0100
0010
0100
0000
0000
0000
,
1000
0000
1000
0000
,
0010
0000
0100
0000
,
0001
0000
0001
0000
,
0100
0000
0010
0000
,
2000
0000
3010
0000
,
0002
0000
0013
0000
,
2000
0000
3100
0000
,
0002
0000
0103
0000
,
0210
0000
0010
0000
0010
0000
0310
0100
,
2002
0000
0000
3003
,
0010
0000
0100
0010
0000
0100
0010
0000
0001
0000
1000
0001
1000
0000
0000
0000
,
1000
0100
0010
0001
0010
0100
1000
0010
,
0100
0100
0001
0001
1001
0000
0110
0000
,
0001
0010
0100
1000
0010
0000
1100
0000
,
1000
0100
0010
0001
0100
0000
0011
0000
,
0100
1000
0010
0100
0001
0010
1000
0100
,
0002
0100
0010
1003
,
0010
0000
1000
0010
0000
1000
0010
0000
0100
0000
0001
0000
0011
0000
0000
0000
,
0100
0000
0001
0100
0000
0001
0100
0000
0010
0000
1000
0000
1100
0000
0000
0000
,
0001
0000
0010
0001
0000
0010
0001
0000
1000
0000
0100
0000
0101
0000
0000
0000
,
1000
0000
0100
1000
0000
0100
1000
0000
0001
0000
0010
0000
1010
0000
0000
0000
,
0010
0000
0100
0010
0000
0100
0010
0000
0001
0000
0100
0000
1001
0000
0000
0000
,
0100
1000
0010
0100
0001
0000
1001
0000
,
1000
0100
0010
0001
0010
0100
1000
0100
,
1000
1100
0100
0101
,
0001
0011
0010
1010
,
1100
1001
0011
0110
,
2010
0010
0010
0010
,
0001
0001
0001
0001
,
3100
0001
0100
1000
,
0100
0010
2002
3003
;

//---------------dance-single - ----------------
#NOTES:
     dance-single:
     :
     Medium:
     8:
     0.346884,0.478143,0.344742,0.194854,0.000000,324.000000,278.000000,46.000000,26.000000,0.000000,0.000000,0.346884,0.478143,0.344742,0.194854,0.000000,324.000000,278.000000,46.000000,26.000000,0.000000,0.000000:
0000
0000
0000
0000
,
0000
0000
0000
0000
,
0000
0000
0000
0000
,
0000
0000
0000
0000
,
0000
0000
0000
0000
,
1001
0010
0010
0010
,
1001
0100
0100
0100
,
1001
0010
0010
0010
,
0110
0110
0220
0330
,
0001
0100
1000
0010
,
1000
0000
1000
0000
0001
0001
0001
0000
,
0010
1000
0100
0010
,
0001
0000
0010
0000
1000
1000
1000
0000
,
0100
1000
0010
0001
,
0100
0000
0010
0000
0100
0100
0100
0000
,
1000
0010
0001
0100
,
0010
0100
0220
0330
,
0001
0100
1000
0010
,
1000
0000
0100
0000
0001
0001
0001
0000
,
0100
0010
0001
0100
,
0010
0000
0100
0000
1000
1000
1000
0000
,
0020
0100
0100
0130
,
0001
0000
1000
0000
0100
0100
0100
0000
,
0010
1000
0001
0010
,
0110
1001
0220
0330
,
0002
0100
0100
0100
,
0010
0010
0010
0013
,
2000
0010
0010
0010
,
0100
0100
0200
3300
,
0001
0000
0100
0000
1000
1000
1000
0000
,
0100
0000
0010
0000
0001
0001
0001
0000
,
0100
1000
0010
0001
,
0100
0100
0100
0000
0110
0000
1001
0000
,
0100
0000
1000
0000
0001
0001
0001
0000
,
0010
0000
0001
0000
1000
1000
1000
0000
,
0100
1000
0010
0001
,
0210
0010
0010
0310
,
0001
0100
0001
0000
1001
0000
1001
0000
,
1000
0100
1000
0000
1001
0000
1001
0000
,
0001
0010
0001
0000
1001
0000
1001
0000
,
1000
0010
1000
0000
1001
0000
1001
0000
,
0100
0000
1000
0000
0010
0000
0100
0100
,
0100
0000
1000
0000
0010
0000
0001
0001
,
0001
0100
1000
0010
,
0011
0010
1100
1000
,
2001
0000
0000
0000
,
0000
0000
0000
3000
,
1001
0000
0110
0000
,
1001
0110
1001
0000
,
0200
0000
0000
0000
,
2300
0000
0000
0000
,
3002
0000
0000
0000
,
0023
0000
0000
0000
,
2030
0000
0100
0000
,
3002
0000
0100
0000
,
2003
0000
0010
0000
,
3002
0000
0010
0000
,
2000
0000
0000
0000
,
3003
0000
0000
0000
,
1000
1000
2002
3003
,
0100
1000
0010
0001
,
0100
0100
1001
0010
,
0001
0100
1000
1000
,
0100
0010
0001
0001
,
0100
0100
0100
0000
0010
0010
0010
0000
,
1000
0001
1001
1001
,
0010
0100
0010
0100
0110
0000
0000
0000
,
1000
0001
1000
0001
1001
0000
0000
0000
,
0001
0010
0001
0010
0011
0000
0000
0000
,
1000
0100
1000
0100
1100
0000
0000
0000
,
0001
0001
0001
0000
1000
0000
1001
0000
,
1000
1000
1000
0000
0001
0000
1001
0000
,
0100
0100
0100
0000
0010
0010
0010
0000
,
0011
0010
1100
1000
,
0011
0010
1100
1000
,
0011
0010
1100
1000
,
2002
0000
0000
0000
,
0000
0000
0000
3003
,
0100
0001
1000
0001
,
0100
0100
0200
0310
;

//---------------dance-single - ----------------
#NOTES:
     dance-single:
     :
     Easy:
     5:
     0.222691,0.358607,0.202349,0.119910,0.000000,208.000000,181.000000,27.000000,16.000000,0.000000,0.000000,0.222691,0.358607,0.202349,0.119910,0.000000,208.000000,181.000000,27.000000,16.000000,0.000000,0.000000:
0000
0000
0000
0000
,
0000
0000
0000
0000
,
0000
0000
0000
0000
,
0000
0000
0000
0000
,
0000
0000
0000
0000
,
1001
0000
0100
0000
,
0100
0000
0100
1000
,
1000
0000
0001
0001
,
0020
0000
0130
0000
,
1000
1000
0001
0000
,
0100
0000
0010
0000
,
0001
0001
1000
0000
,
0010
0000
0100
0000
,
1000
0100
0010
0000
,
0001
0000
1000
0000
,
0001
0010
0100
0000
,
1000
0000
0001
0000
,
1000
0100
0010
0000
,
0100
0000
0010
0000
,
0001
0010
0100
0000
,
0010
0000
0100
0000
,
1000
0100
0001
0000
,
0010
0000
0100
0000
,
0001
0010
1000
0000
,
0100
0000
0010
0000
,
2001
0000
0000
0000
,
3002
0000
0000
0000
,
2003
0000
0000
0000
,
3002
1000
2000
3003
,
0100
0100
0110
0000
,
0010
0010
0110
0000
,
1000
0000
0001
0000
,
0100
0100
0110
0000
,
0001
0001
1001
0000
,
1000
1000
1001
0000
,
0010
0000
0100
0000
,
0001
0001
1001
0000
,
1000
0100
1100
0000
,
0001
0010
0011
0000
,
0100
0010
0110
0000
,
1000
0001
1001
0000
,
0100
0100
1001
0000
,
0010
0010
1001
0000
,
0100
1000
0010
0001
,
0100
1000
0010
0001
,
0200
0000
0000
0000
,
0000
0000
0000
0000
,
0310
0000
0010
0000
,
0010
0010
0010
0000
,
0002
0000
0000
0000
,
0000
0000
0000
0000
,
2003
0000
0000
0000
,
0000
0000
0000
0000
,
3002
0000
0000
0000
,
0000
0000
0000
0000
,
2003
0000
0000
0000
,
0000
0000
0000
0000
,
3000
0000
0000
0000
,
2002
0000
0000
0000
,
0000
0000
0000
3003
,
0010
0010
0100
0100
,
0001
1000
1001
0000
,
0100
0100
1100
0000
,
0010
0010
0011
0000
,
1000
0100
0010
0001
,
0100
0100
0110
0000
,
0011
0010
0100
0010
,
1010
1000
0100
1000
,
1100
0100
0010
0100
,
0101
0001
0010
0001
,
0011
0001
0100
0000
,
1100
1000
0010
0000
,
0001
0010
1000
0100
,
0001
0010
1000
0100
,
0001
0010
1000
0100
,
0001
0010
0100
1000
,
2001
0000
0001
0000
,
0001
0000
0001
0000
,
0001
0000
0001
0000
,
3010
0000
0220
0330
;

//---------------dance-single - ----------------
#NOTES:
     dance-single:
     :
     Beginner:
     3:
     0.141323,0.268955,0.082438,0.052461,0.000000,132.000000,121.000000,11.000000,7.000000,0.000000,0.000000,0.141323,0.268955,0.082438,0.052461,0.000000,132.000000,121.000000,11.000000,7.000000,0.000000,0.000000:
// measure 0
0000
0000
0000
0000
,  // measure 1
0000
0000
0000
0000
,  // measure 2
0000
0000
0000
0000
,  // measure 3
0000
0000
0000
0000
,  // measure 4
0000
0000
0000
0000
,  // measure 5
2002
0000
0000
0000
,  // measure 6
0000
0000
0000
0000
,  // measure 7
0000
0000
0000
0000
,  // measure 8
3003
0000
0001
0000
,  // measure 9
1000
0000
1000
0000
,  // measure 10
0001
0000
0001
0000
,  // measure 11
0100
0000
0100
0000
,  // measure 12
0010
0000
0010
0000
,  // measure 13
1000
0000
1000
0000
,  // measure 14
0001
0000
0001
0000
,  // measure 15
0100
0000
0100
0000
,  // measure 16
0010
0010
0010
0000
,  // measure 17
0001
0000
0001
0000
,  // measure 18
1000
0000
1000
0000
,  // measure 19
0100
0000
0100
0000
,  // measure 20
0010
0000
0010
0000
,  // measure 21
0001
0000
0001
0000
,  // measure 22
1000
0000
1000
0000
,  // measure 23
0010
0000
0010
0000
,  // measure 24
0100
0100
0200
0000
,  // measure 25
0310
0000
0000
0000
,  // measure 26
0000
0000
0000
0000
,  // measure 27
0000
0000
0000
0000
,  // measure 28
0000
0000
0000
0000
,  // measure 29
0001
0000
0100
0000
,  // measure 30
1000
0000
0010
0000
,  // measure 31
0100
0000
1000
0000
,  // measure 32
0001
0000
0010
0000
,  // measure 33
0100
0000
0001
0000
,  // measure 34
0010
0000
1000
0000
,  // measure 35
0100
0000
0100
0000
,  // measure 36
0010
0000
0010
0000
,  // measure 37
1001
0000
0100
0000
,  // measure 38
1001
0000
0100
0000
,  // measure 39
1001
0000
0100
0000
,  // measure 40
1001
0000
0010
0000
,  // measure 41
0100
0000
1000
0000
,  // measure 42
0010
0000
0001
0000
,  // measure 43
0100
0000
0100
0000
,  // measure 44
0010
0010
0010
0010
,  // measure 45
0020
0000
0000
0000
,  // measure 46
0000
0000
0000
0000
,  // measure 47
0100
0000
0000
0000
,  // measure 48
0100
0000
0100
0000
,  // measure 49
0130
0000
0000
0000
,  // measure 50
0000
0000
0000
0000
,  // measure 51
0000
0000
0000
0000
,  // measure 52
0000
0000
0000
0000
,  // measure 53
1001
0000
0000
0000
,  // measure 54
0100
0000
0000
0000
,  // measure 55
1001
0000
0000
0000
,  // measure 56
0020
0000
0000
0000
,  // measure 57
0000
0000
0000
0000
,  // measure 58
0230
0000
0000
0000
,  // measure 59
0000
0000
0000
0300
,  // measure 60
0001
0000
0001
0000
,  // measure 61
1000
0000
1000
0000
,  // measure 62
0100
0000
0010
0000
,  // measure 63
0001
0000
1000
0000
,  // measure 64
0001
0000
0010
0000
,  // measure 65
0100
0000
1000
0000
,  // measure 66
1001
0000
0100
0000
,  // measure 67
1001
0000
0100
0000
,  // measure 68
1001
0000
0100
0000
,  // measure 69
1001
0000
0010
0000
,  // measure 70
0100
0000
1000
0000
,  // measure 71
0010
0000
0001
0000
,  // measure 72
0100
0000
0010
0000
,  // measure 73
0100
0100
0100
0100
,  // measure 74
0100
0100
0100
0100
,  // measure 75
0100
0100
0100
0100
,  // measure 76
0200
0000
0000
0000
,  // measure 77
0000
0000
0000
0000
,  // measure 78
0000
0000
0000
0000
,  // measure 79
0000
0000
0300
0010
;
