#TITLE:ツーマンライブ;
#SUBTITLE:;
#ARTIST:東雲夏陽 meets 日向美ビタースイーツ♪;
#TITLETRANSLIT:Two man live;
#SUBTITLETRANSLIT:;
#ARTISTTRANSLIT:Natsuhi Shinonome meets Hinatabi Bittersweets;
#GENRE:SOUND VOLTEX;
#CREDIT:;
#BANNER:;
#BACKGROUND:;
#LYRICSPATH:;
#CDTITLE:;
#MUSIC:Two Man Live.ogg;
#OFFSET:1.419163;
#SAMPLESTART:77.867973;
#SAMPLELENGTH:15.000000;
#LASTBEATHINT:1.126314;
#SELECTABLE:YES;
#BPMS:0.000000=174.000000
;
#STOPS:
;
#BGCHANGES:0.000=Two Man Live.avi=1.000=0=0=0=StretchNoLoop====,
99999=-nosongbg-=1.000=0=0=0 // don't automatically add -songbackground-
;
#KEYSOUNDS:;
#ATTACKS:;

//---------------dance-single - ----------------
#NOTES:
     dance-single:
     :
     Hard:
     12:
     0.629478,0.619503,0.320461,0.169132,0.000000,440.000000,36.000000,19.000000,0.000000,0.000000,0.000000,0.629478,0.619503,0.320461,0.169132,0.000000,440.000000,36.000000,19.000000,0.000000,0.000000,0.000000:
0000
0000
0000
0000
,
0000
0000
0000
0000
,
0000
0000
0000
0000
,
0000
0000
0000
0000
,
0000
0000
0000
0000
,
0000
0000
0000
0000
,
1000
0100
1000
0000
0001
0100
0001
0000
,
0010
1000
0010
0100
0001
0010
0100
0010
,
2000
0000
0010
0000
0100
0000
0010
0010
,
0020
0000
0000
0000
3030
0000
0000
1001
,
0000
0000
0010
0000
1000
0010
0100
0001
,
0000
0010
0100
0000
0010
1000
0001
0010
,
0000
0000
0001
1000
0000
1100
0000
0101
,
0000
0011
0000
1010
0000
0010
1000
0100
,
0000
0100
0001
0000
0010
0100
1000
0001
,
0000
0010
0100
0000
0001
0010
1000
0100
,
0000
0010
0100
0001
0000
0001
1000
0100
,
0000
0010
1000
0100
0001
0010
0000
1001
,
0000
0000
0100
0000
0001
0100
0010
1000
,
0000
0100
0010
0000
0100
0001
1000
0100
,
0000
0000
1000
0001
0000
0011
0000
1010
,
0000
1100
0000
0101
0000
0100
0001
0010
,
0000
0010
1000
0000
0100
0010
0001
1000
,
0000
0100
0010
0000
1000
0100
0001
0010
,
1000
0100
0010
1000
0100
1000
0001
0010
,
0000
0100
0001
0010
1000
0100
1000
0000
,
0102
0000
0013
0000
0010
1000
0001
0000
,
2000
0000
3100
0000
1000
0010
0100
0000
,
2000
0000
3010
0000
0100
1000
0001
0000
,
0002
0000
0103
0000
0001
1000
0100
0000
,
0020
0000
0130
0000
0001
1000
0010
0000
,
2000
0000
3001
0000
0100
0010
0001
0000
,
0010
0100
1000
0000
0010
0100
0001
0000
,
0001
0010
0100
1010
0000
1100
0000
0000
,
0010
0100
0001
0010
0100
1000
0010
0000
,
1000
0010
0100
0001
0010
0100
1000
0000
,
1000
0100
0010
0001
0010
0100
1000
0000
,
0001
0010
0100
1000
0100
0010
0001
0000
,
0010
0100
0010
1000
0001
0100
0010
0000
,
0010
1000
0100
0001
0010
0100
1000
0000
,
1100
0100
0010
0001
1000
0100
0010
0001
,
0100
0010
1000
0001
0100
0010
1000
0001
,
0020
0000
0000
0000
0130
0010
1000
0001
,
0200
0000
0000
0000
0310
1000
0001
0010
,
2000
0000
0000
0000
3010
1000
0001
0010
,
0002
0000
0000
0000
0013
1000
0001
0010
,
0200
0000
0000
0000
0310
0001
1000
0100
,
0020
0000
0000
0000
0130
0001
0010
1000
,
0002
0000
0000
0000
1003
0001
0010
0100
,
2000
0000
0000
0000
3010
0100
1000
0010
,
2000
0000
0010
0000
0010
0000
3010
0001
,
0100
0010
1000
0001
0100
0000
1001
0000
,
0020
0000
0100
0000
0100
0000
0130
0001
,
0010
1000
0100
0010
0100
0001
1000
0000
,
1001
0000
0010
1000
0000
1000
0010
0000
,
0001
0010
0000
0010
0001
0011
0000
1010
,
0000
1000
1100
0000
0001
0101
0000
1000
,
0100
1000
0010
0110
0000
1000
0010
0001
,
0000
0000
1100
0000
0010
1000
0001
0010
,
0000
0000
0011
0000
0001
1000
0010
0100
,
0000
0000
1100
0000
0010
1000
0001
0010
,
0000
0010
1000
0000
0010
1000
0100
0101
,
0000
0010
0100
0000
0001
0010
0100
1100
,
0000
1000
0010
0000
0010
1000
0100
0001
,
0020
0000
0100
0000
0100
0000
0130
0001
,
0000
0001
1000
0000
0010
1000
0001
1001
,
0000
0000
0010
1000
0001
0100
0010
1000
,
0000
1000
0100
0000
0010
0100
0001
0011
,
0000
0000
0010
0100
1000
0010
1000
0001
,
0000
0010
1000
0000
1000
0100
1000
1100
,
0000
1000
0010
0100
0001
0010
0001
0011
,
0000
0001
0100
0010
1000
0001
0010
0000
,
1000
0100
1000
0100
1000
0100
1000
0100
,
0010
0100
0001
0010
0100
1000
0000
1001
,
0000
0000
0010
0000
1000
0010
0100
0001
,
0000
0010
0100
0000
0010
1000
0001
0010
,
0000
0000
0001
1000
0000
1100
0000
0101
,
0000
0011
0000
1010
0000
0010
1000
0100
,
0000
0100
0001
0000
0010
0100
1000
0001
,
0000
0010
0100
0000
0001
0010
1000
0100
,
0001
0010
0100
0001
0010
0001
1000
0100
,
0001
0010
1000
0100
0001
0010
0001
0011
;

//---------------dance-single - ----------------
#NOTES:
     dance-single:
     :
     Medium:
     9:
     0.474334,0.510179,0.213641,0.142427,0.000000,333.000000,24.000000,16.000000,0.000000,0.000000,0.000000,0.474334,0.510179,0.213641,0.142427,0.000000,333.000000,24.000000,16.000000,0.000000,0.000000,0.000000:
0000
0000
0000
0000
,
0000
0000
0000
0000
,
0000
0000
0000
0000
,
0000
0000
0000
0000
,
0000
0000
0000
0000
,
0000
0000
0000
0000
0000
0000
0000
1000
,
0000
0100
0000
0010
0000
0001
0000
0010
,
0000
0100
0000
1000
0000
0010
0200
0000
,
0010
0010
0010
0010
,
0020
0000
0000
0000
0330
0000
0000
1001
,
0000
0000
0010
0000
1000
0010
0100
0001
,
0000
0000
0010
0000
0100
0001
1000
0010
,
0000
0000
0100
0000
0001
1000
0100
0010
,
0000
0000
0100
0000
0001
0010
0100
1000
,
0000
0000
0010
0000
1000
0001
0100
0010
,
0000
0000
0001
0000
1000
0100
0010
0000
,
0001
0100
0010
1000
,
0011
0000
0100
0000
1100
0000
0000
1010
,
0000
0000
0001
0000
1000
0010
0100
0001
,
0000
0000
0001
0000
0100
0010
1000
0001
,
0000
0000
0010
0000
0100
0001
0010
1000
,
0000
0000
0100
0000
0010
1000
0001
0010
,
0000
0000
1000
0000
0001
1000
0100
0010
,
0000
0000
0001
0000
0010
1000
0100
0001
,
0000
0010
0000
0100
0010
1000
0000
0100
,
0001
0010
0100
1000
0000
0000
0000
0000
,
1100
0010
0100
0001
,
0011
0100
0010
1000
,
0001
1000
0010
1000
,
0002
1000
1000
1003
,
0110
0001
1000
0010
,
0011
0100
0010
1000
,
1001
0010
1000
0001
,
0200
0010
0010
0310
,
0001
0010
1000
0000
0010
0000
1001
0000
,
0100
0010
1000
0001
,
1000
0100
0001
0000
1000
0000
1001
0000
,
0010
1000
0001
0100
,
0001
0010
1000
0000
0010
0000
1001
0000
,
0010
1000
0001
0100
,
0020
1000
0100
0001
,
0100
0100
1000
1030
,
0002
0000
0100
1003
,
0200
0000
0010
1300
,
0020
0000
0001
0130
,
2000
0000
0010
3100
,
0002
0000
1000
0103
,
2000
0000
0001
3010
,
0001
0010
1000
0100
,
0011
0100
1100
1000
,
1002
0000
0100
0103
,
2000
0000
0010
3010
,
0002
0000
0010
0013
,
2000
0000
0100
3100
,
0001
0010
1000
0010
,
0100
0000
0001
0000
0010
1000
0000
0001
,
0000
1000
0010
0000
0010
0100
0000
0100
,
0000
0001
0200
0000
0000
0000
0000
0310
,
0000
0000
0001
0000
0010
1000
0001
1000
,
0000
0000
0010
0000
1000
0001
0100
1000
,
0000
0000
0010
0000
1000
0001
0010
1000
,
0000
0000
0100
0000
0001
0100
1000
0001
,
0000
0000
0010
0000
1000
0010
0001
1000
,
0000
0000
0010
0000
0100
0001
1000
0000
,
1100
0100
0001
0010
,
0011
0000
1000
0000
0001
1000
0010
0100
,
0000
0000
1001
0000
0010
1000
0100
0001
,
0000
0000
0011
0000
0100
0001
1000
0010
,
0000
0000
1000
0000
0001
1000
0010
0100
,
0000
0000
1000
0000
0001
0010
0100
1000
,
0000
0000
1100
0000
1000
0100
0010
0001
,
0000
0000
0011
0000
0001
0010
1000
0000
,
0010
1000
0001
0000
0001
0100
1000
0000
,
1000
0010
0100
0000
0010
0100
0001
1001
,
0000
0000
0100
0000
0001
0100
0010
1000
,
0000
0000
0100
0000
0010
1000
0001
0100
,
0000
0000
0010
0000
1000
0001
0010
0100
,
0000
0000
0010
0000
1000
0100
0010
0001
,
0000
0000
0100
0000
0001
1000
0010
0100
,
0000
0000
1000
0000
0001
0010
0100
0000
,
1000
0010
0100
0001
,
1100
0000
0010
0000
0011
0010
0100
1000
;

//---------------dance-single - ----------------
#NOTES:
     dance-single:
     :
     Easy:
     6:
     0.320461,0.363857,0.124624,0.213641,0.000000,214.000000,14.000000,24.000000,0.000000,0.000000,0.000000,0.320461,0.363857,0.124624,0.213641,0.000000,214.000000,14.000000,24.000000,0.000000,0.000000,0.000000:
0000
0000
0000
0000
,
0000
0000
0000
0000
,
0000
0000
0000
0000
,
0000
0000
0000
0000
,
0000
0000
0000
0000
,
0000
0000
0000
0000
,
0020
0000
0000
0000
,
0230
0000
0000
0000
,
0302
0000
1000
0000
,
2000
0000
3003
0000
,
1000
0010
0100
0000
,
0001
0100
0010
0000
,
1000
0100
0001
0000
,
1000
0010
0001
0000
,
0010
0100
1000
0000
,
0001
0010
0100
0000
,
1000
0100
0010
0001
,
1001
0000
0110
0000
,
0001
0100
0010
0000
,
1000
0010
0100
0000
,
0001
0010
1000
0000
,
0001
0100
1000
0000
,
1000
0100
0010
0000
,
0100
0010
0001
0000
,
2002
0000
0000
0000
,
3003
0000
0100
0010
,
0200
0000
0010
0000
,
1000
0000
0010
0000
,
0302
0000
0010
0000
,
0100
0000
0010
0000
,
2003
0000
0100
0000
,
0001
0000
0100
0000
,
3020
0000
0100
0000
,
0001
0000
1000
0000
,
0130
0001
1000
0000
,
0010
1000
0001
0000
,
1000
0100
0001
0000
,
1000
0010
0001
0000
,
0010
0100
0001
0000
,
0100
0010
1000
0000
,
0001
0100
0010
1000
,
0001
0010
0100
1000
,
0002
0000
0100
0010
,
0203
0000
1000
0010
,
2300
0000
0010
0100
,
3020
0000
0100
0001
,
0230
0000
0001
1000
,
0302
0000
0010
0100
,
0023
0000
0100
0001
,
0230
0000
1000
0010
,
2300
0000
0001
0000
,
0010
0000
3100
0000
,
0002
0000
1000
0000
,
0100
0000
0010
0000
,
0013
0100
1000
0010
,
0100
0001
0010
1000
,
2002
0000
0000
0000
,
3003
0000
0100
0010
,
0100
0010
1000
0010
,
0100
0010
0001
0000
,
0010
0100
0010
1000
,
0010
0100
0010
0001
,
0010
0100
1001
0000
,
0100
0010
1001
0000
,
0100
0010
1000
0001
,
0010
0000
0101
0000
,
0100
0010
0100
1000
,
0100
0010
0100
0001
,
0010
1000
0100
0001
,
1010
0000
1001
0100
,
0101
0000
0011
1000
,
1010
0000
1001
0010
,
2000
0000
0001
0000
,
0010
0010
0020
3030
,
0001
0100
0010
0000
,
1000
0010
0100
0000
,
0001
0010
1000
0000
,
0001
0100
1000
0000
,
0100
0010
0001
0000
,
1000
0100
0010
0000
,
0001
0010
0100
1000
,
0100
0010
0100
0110
;

//---------------dance-single - ----------------
#NOTES:
     dance-single:
     :
     Beginner:
     3:
     0.160231,0.181372,0.053410,0.062312,0.000000,113.000000,6.000000,7.000000,0.000000,0.000000,0.000000,0.160231,0.181372,0.053410,0.062312,0.000000,113.000000,6.000000,7.000000,0.000000,0.000000,0.000000:
// measure 0
0000
0000
0000
0000
,  // measure 1
0000
0000
0000
0000
,  // measure 2
0000
0000
0000
0000
,  // measure 3
0000
0000
0000
0000
,  // measure 4
0000
0000
0000
0000
,  // measure 5
0000
0000
0000
0000
,  // measure 6
0000
0000
0000
0000
,  // measure 7
0000
0000
0000
0000
,  // measure 8
1001
0000
0000
0000
,  // measure 9
1001
0000
0000
0000
,  // measure 10
0100
0000
1000
0000
,  // measure 11
0100
0000
0000
0000
,  // measure 12
0010
0000
0001
0000
,  // measure 13
0010
0000
0000
0000
,  // measure 14
0100
0000
0001
0000
,  // measure 15
0100
0000
0000
0000
,  // measure 16
0010
0000
1000
0000
,  // measure 17
0010
0000
0000
0000
,  // measure 18
0100
0000
0010
0000
,  // measure 19
0100
0000
0000
0000
,  // measure 20
0001
0000
1000
0000
,  // measure 21
0001
0000
0000
0000
,  // measure 22
1000
0000
0100
0000
,  // measure 23
1000
0000
0000
0000
,  // measure 24
0001
0000
0010
0000
,  // measure 25
0001
0000
0000
0000
,  // measure 26
1000
0000
0100
0000
,  // measure 27
0010
0000
0100
0000
,  // measure 28
1000
0000
0100
0000
,  // measure 29
0010
0000
0010
0000
,  // measure 30
0001
0000
0010
0000
,  // measure 31
0100
0000
0010
0000
,  // measure 32
0001
0000
0010
0000
,  // measure 33
0100
0000
0100
0000
,  // measure 34
1000
0000
0010
0000
,  // measure 35
0200
0000
0300
0000
,  // measure 36
0001
0000
0100
0000
,  // measure 37
0020
0000
0030
0000
,  // measure 38
1000
0000
0100
0000
,  // measure 39
0002
0000
0003
0000
,  // measure 40
1000
0000
0010
0000
,  // measure 41
0002
0000
0003
0000
,  // measure 42
0100
0000
1000
0000
,  // measure 43
0010
0000
0100
0000
,  // measure 44
0001
0000
0000
0000
,  // measure 45
1001
0000
0000
0000
,  // measure 46
0001
0000
0100
0000
,  // measure 47
0010
0000
1000
0000
,  // measure 48
0001
0000
0000
0000
,  // measure 49
1001
0000
0000
0000
,  // measure 50
1000
0000
0100
0000
,  // measure 51
0010
0000
0000
0000
,  // measure 52
0100
0000
0010
0000
,  // measure 53
0001
0000
0000
0000
,  // measure 54
1000
0000
0100
0000
,  // measure 55
0001
0000
0100
0000
,  // measure 56
2000
0000
0000
0000
,  // measure 57
3000
0000
0000
0000
,  // measure 58
0010
0000
0100
0000
,  // measure 59
1000
0000
0000
0000
,  // measure 60
0001
0000
0010
0000
,  // measure 61
0100
0000
0000
0000
,  // measure 62
1000
0000
0100
0000
,  // measure 63
0010
0000
0000
0000
,  // measure 64
0100
0000
0010
0000
,  // measure 65
0001
0000
0000
0000
,  // measure 66
1000
0000
0100
0000
,  // measure 67
0001
0000
0000
0000
,  // measure 68
1000
0000
0010
0000
,  // measure 69
0001
0000
0000
0000
,  // measure 70
0100
0000
1000
0000
,  // measure 71
0010
0000
0001
0000
,  // measure 72
0220
0000
0000
0000
,  // measure 73
0330
0000
0000
0000
,  // measure 74
1000
0000
0100
0000
,  // measure 75
1000
0000
0000
0000
,  // measure 76
0001
0000
0010
0000
,  // measure 77
0001
0000
0000
0000
,  // measure 78
1000
0000
0010
0000
,  // measure 79
1000
0000
0000
0000
,  // measure 80
0001
0000
0100
0000
,  // measure 81
0001
0000
0110
0000
;
