#TITLE:Tropics;
#SUBTITLE:;
#ARTIST:DJ MURASAME feat. 小田ユウ;
#TITLETRANSLIT:;
#SUBTITLETRANSLIT:;
#ARTISTTRANSLIT:;
#GENRE:Japanese Pops;
#CREDIT:;
#BANNER:;
#BACKGROUND:;
#LYRICSPATH:;
#CDTITLE:;
#MUSIC:Tropics.ogg;
#OFFSET:-0.890000;
#SAMPLESTART:76.782875;
#SAMPLELENGTH:15.000000;
#SELECTABLE:YES;
#DISPLAYBPM:151.000000;
#BPMS:0.000000=151.000000
;
#STOPS:
;
#BGCHANGES:;
#KEYSOUNDS:;
#ATTACKS:;

//---------------dance-single - ----------------
#NOTES:
     dance-single:
     :
     Beginner:
     2:
     0.102335,0.154940,0.016098,0.080488,0.000000,89.000000,87.000000,2.000000,10.000000,0.000000,0.000000,0.102335,0.154940,0.016098,0.080488,0.000000,89.000000,87.000000,2.000000,10.000000,0.000000,0.000000:
// measure 0
0000
0000
0000
0000
,  // measure 1
0000
0000
0000
0000
,  // measure 2
0000
0000
0000
0000
,  // measure 3
0000
0000
0000
0000
,  // measure 4
0000
0000
0000
0000
,  // measure 5
1000
0000
0000
0000
,  // measure 6
1000
0000
0000
0000
,  // measure 7
0001
0000
0000
0000
,  // measure 8
0001
0000
0000
0000
,  // measure 9
0100
0000
0000
0000
,  // measure 10
0010
0000
0000
0000
,  // measure 11
0100
0000
0000
0000
,  // measure 12
0010
0000
0000
0000
,  // measure 13
1000
0000
0000
0000
,  // measure 14
0001
0000
0000
0000
,  // measure 15
1000
0000
0000
0000
,  // measure 16
0001
0000
0000
0000
,  // measure 17
1000
0000
0100
0000
,  // measure 18
1000
0000
0000
0000
,  // measure 19
0001
0000
0000
0000
,  // measure 20
0001
0000
0000
0000
,  // measure 21
0001
0000
0010
0000
,  // measure 22
0001
0000
0000
0000
,  // measure 23
1000
0000
0000
0000
,  // measure 24
1000
0000
0000
0000
,  // measure 25
0100
0000
0000
0000
,  // measure 26
1000
0000
0000
0000
,  // measure 27
0010
0000
0000
0000
,  // measure 28
0001
0000
0000
0000
,  // measure 29
1000
0000
0000
0000
,  // measure 30
0100
0000
0000
0000
,  // measure 31
0010
0000
0000
0000
,  // measure 32
0001
0000
0000
0000
,  // measure 33
1000
0000
0000
0000
,  // measure 34
0001
0000
0000
0000
,  // measure 35
1000
0000
0100
0000
,  // measure 36
1000
0000
0000
0000
,  // measure 37
0001
0000
0010
0000
,  // measure 38
0001
0000
0000
0000
,  // measure 39
1000
0000
0010
0000
,  // measure 40
1000
0000
0000
0000
,  // measure 41
0001
0000
0100
0000
,  // measure 42
0001
0000
0000
0000
,  // measure 43
1000
0000
0000
0000
,  // measure 44
0001
0000
0000
0000
,  // measure 45
0100
0000
0000
0000
,  // measure 46
0010
0000
0000
0000
,  // measure 47
0100
0000
0010
0000
,  // measure 48
0200
0000
0300
0000
,  // measure 49
0020
0000
0030
0000
,  // measure 50
1000
0000
0001
0000
,  // measure 51
1000
0000
0000
0000
,  // measure 52
0002
0000
0003
0000
,  // measure 53
2000
0000
3000
0000
,  // measure 54
0010
0000
0100
0000
,  // measure 55
0010
0000
0000
0000
,  // measure 56
0200
0000
0300
0000
,  // measure 57
0020
0000
0030
0000
,  // measure 58
0001
0000
1000
0000
,  // measure 59
0001
0000
0000
0000
,  // measure 60
0002
0000
0003
0000
,  // measure 61
2000
0000
3000
0000
,  // measure 62
0010
0000
0100
0000
,  // measure 63
0010
0000
0000
0000
,  // measure 64
1000
0000
0100
0000
,  // measure 65
0010
0000
0000
0000
,  // measure 66
0001
0000
0010
0000
,  // measure 67
0100
0000
0000
0000
,  // measure 68
1000
0000
0100
0000
,  // measure 69
0001
0000
0000
0000
,  // measure 70
0001
0000
0010
0000
,  // measure 71
1000
0000
0000
0000
,  // measure 72
1001
0000
0000
0000
,  // measure 73
0100
0000
0000
0000
,  // measure 74
0010
0000
0000
0000
,  // measure 75
0100
0000
0000
0000
,  // measure 76
2002
0000
0000
0000
,  // measure 77
3003
0000
0000
0000
;

//---------------dance-single - ----------------
#NOTES:
     dance-single:
     :
     Easy:
     6:
     0.301255,0.371855,0.136830,0.354148,0.000000,262.000000,245.000000,17.000000,44.000000,0.000000,0.000000,0.301255,0.371855,0.136830,0.354148,0.000000,262.000000,245.000000,17.000000,44.000000,0.000000,0.000000:
// measure 0
0000
0000
0000
0000
,  // measure 1
0000
0000
0000
0000
,  // measure 2
0000
0000
0000
0000
,  // measure 3
0000
0000
0000
0000
,  // measure 4
0000
0000
0000
0000
,  // measure 5
1000
0100
1000
0000
,  // measure 6
0001
0010
0001
0000
,  // measure 7
1000
0010
1000
0000
,  // measure 8
0001
0100
0001
0000
,  // measure 9
2000
0000
0100
0000
,  // measure 10
0001
0000
0100
0000
,  // measure 11
3002
0000
0010
0000
,  // measure 12
1000
0000
0010
0000
,  // measure 13
1003
0100
0010
0010
,  // measure 14
0001
0010
0100
0100
,  // measure 15
1000
0100
0001
0001
,  // measure 16
0001
0010
1000
1000
,  // measure 17
0100
1000
0020
0030
,  // measure 18
0001
0100
0020
0030
,  // measure 19
1000
0010
0200
0300
,  // measure 20
0001
1000
0200
0300
,  // measure 21
1000
0010
0001
0100
,  // measure 22
0001
0010
1000
0100
,  // measure 23
1000
0001
1000
0001
,  // measure 24
0200
0000
0020
0330
,  // measure 25
0001
0100
1000
0010
,  // measure 26
0001
1000
2002
3003
,  // measure 27
1000
0010
0001
0100
,  // measure 28
1000
0001
2002
3003
,  // measure 29
0100
1000
0010
0001
,  // measure 30
0100
0010
0220
0330
,  // measure 31
0001
0010
1000
0100
,  // measure 32
0010
0100
0220
0330
,  // measure 33
0002
0000
2000
0000
,  // measure 34
0000
0000
0000
3003
,  // measure 35
0100
1000
0010
0010
,  // measure 36
1000
0001
0010
0010
,  // measure 37
0001
0100
0100
0010
,  // measure 38
0001
1000
1000
0100
,  // measure 39
0010
1000
0001
0001
,  // measure 40
0100
0001
1000
1000
,  // measure 41
0100
1000
0010
0001
,  // measure 42
0100
0010
1000
0001
,  // measure 43
0100
1000
0001
0010
,  // measure 44
0100
0010
0001
1000
,  // measure 45
0020
0100
0001
0130
,  // measure 46
0200
0010
1000
0310
,  // measure 47
0001
1000
0010
0110
,  // measure 48
0100
1000
0020
0030
,  // measure 49
0001
0100
0020
0030
,  // measure 50
1000
0100
0010
0001
,  // measure 51
1000
0001
2002
3003
,  // measure 52
0001
0100
0020
0030
,  // measure 53
1000
0010
0200
0300
,  // measure 54
0001
0010
0100
1000
,  // measure 55
0001
0010
0220
0330
,  // measure 56
1000
0010
2002
3003
,  // measure 57
0010
0100
2002
3003
,  // measure 58
0100
1000
0010
0001
,  // measure 59
0100
0010
0220
0330
,  // measure 60
0001
0100
2200
3300
,  // measure 61
1000
0010
0022
0033
,  // measure 62
0100
0010
1000
0001
,  // measure 63
0200
0010
0020
0330
,  // measure 64
0001
0100
0010
1000
,  // measure 65
1000
0010
0100
0001
,  // measure 66
0100
0010
1000
0001
,  // measure 67
0001
1000
0010
0100
,  // measure 68
0001
0100
0010
1000
,  // measure 69
0010
0100
0001
1000
,  // measure 70
0200
1000
0010
0301
,  // measure 71
0020
0001
0100
1030
,  // measure 72
0001
1000
0010
0110
,  // measure 73
1000
0010
0100
1001
,  // measure 74
0100
0001
1000
0110
,  // measure 75
0001
0100
0010
1001
,  // measure 76
0220
0000
0000
0000
,  // measure 77
0330
0000
0000
0000
;

//---------------dance-single - ----------------
#NOTES:
     dance-single:
     :
     Medium:
     9:
     0.407040,0.464819,0.185123,0.201220,0.016098,354.000000,331.000000,23.000000,25.000000,0.000000,0.000000,0.407040,0.464819,0.185123,0.201220,0.016098,354.000000,331.000000,23.000000,25.000000,0.000000,0.000000:
// measure 0
0000
0000
0000
0000
,  // measure 1
0000
0000
0000
0000
,  // measure 2
0000
0000
0000
0000
,  // measure 3
0000
0000
0000
0000
,  // measure 4
0000
0000
0000
0000
,  // measure 5
1000
0000
0100
0000
0010
0100
0010
0000
,  // measure 6
0001
0000
0010
0000
0100
0010
0100
0000
,  // measure 7
0001
0000
1000
0000
0010
0100
0010
0000
,  // measure 8
1000
0000
0000
0000
0001
0000
0000
0000
1000
0000
0000
0010
0000
0000
0100
0000
,  // measure 9
0002
1000
0100
0013
,  // measure 10
2000
0001
0010
3100
,  // measure 11
0020
1000
0100
0031
,  // measure 12
0200
0001
0010
1300
,  // measure 13
0001
1000
0010
0000
1000
0000
1001
0000
,  // measure 14
1000
0010
0100
0000
0001
0000
1001
0000
,  // measure 15
0100
0001
1000
0000
0010
0000
1001
0000
,  // measure 16
0200
0000
0010
0310
,  // measure 17
0001
0100
1000
0000
0010
0000
1001
0000
,  // measure 18
1000
0010
0001
0000
0100
0000
1001
0000
,  // measure 19
0100
0010
1000
0000
0001
0000
0011
0000
,  // measure 20
0001
0100
0010
0000
1000
0000
1100
0000
,  // measure 21
1000
0010
0100
0000
0001
0000
1001
0000
,  // measure 22
0001
0100
0010
0000
1000
0000
1001
0000
,  // measure 23
0100
1000
0010
0000
0001
0000
0011
0000
,  // measure 24
0001
0100
0010
0000
1000
0000
1100
0000
,  // measure 25
2000
0100
0010
3001
,  // measure 26
0010
0100
1000
0000
0100
0010
0001
0000
,  // measure 27
0002
0100
0010
1003
,  // measure 28
0001
0100
0010
0000
1000
0010
0100
0000
,  // measure 29
0002
1000
0100
0013
,  // measure 30
0100
0010
1000
0000
0010
0100
0001
0000
,  // measure 31
2000
0001
0010
3100
,  // measure 32
0001
0100
0010
0000
1000
0010
0100
0000
,  // measure 33
0001
1000
0001
1000
0010
0100
0010
0100
,  // measure 34
0002
0000
2000
3003
,  // measure 35
0100
1000
0010
0010
,  // measure 36
1000
0001
0100
0100
,  // measure 37
0001
1000
0010
0010
,  // measure 38
1000
0001
0100
0100
,  // measure 39
0001
0100
0010
0000
1000
0000
1100
0000
,  // measure 40
1000
0010
0100
0000
0001
0000
0011
0000
,  // measure 41
0001
0100
1000
0000
1000
0010
0001
0000
,  // measure 42
0100
0010
0100
0000
0001
1000
0001
0000
,  // measure 43
0100
1000
0010
0001
,  // measure 44
0100
0010
1000
0001
,  // measure 45
0100
1000
0010
0001
,  // measure 46
0100
0010
1000
0001
,  // measure 47
0100
0010
0100
0010
0200
0000
0000
0000
,  // measure 48
0310
0001
0100
1100
,  // measure 49
1000
0010
0001
0011
,  // measure 50
0001
0100
1000
0000
0010
0000
1001
0000
,  // measure 51
1000
0010
0001
0000
0100
0000
1001
0000
,  // measure 52
0200
1000
0010
0301
,  // measure 53
0020
0001
0100
1030
,  // measure 54
0001
1000
0100
0000
0010
0000
1001
0000
,  // measure 55
0100
0010
0001
0000
1000
0000
1001
0000
,  // measure 56
0200
1000
0010
0301
,  // measure 57
0020
0001
0100
1030
,  // measure 58
0010
1000
0100
0000
0001
0000
0011
0000
,  // measure 59
0010
0001
0100
0000
1000
0000
1100
0000
,  // measure 60
2000
0001
0100
3010
,  // measure 61
0002
1000
0010
0103
,  // measure 62
0001
0100
1000
0000
0001
0000
1001
0000
,  // measure 63
1000
0010
0001
0000
1000
0000
1001
0000
,  // measure 64
0200
1000
0010
0301
,  // measure 65
0020
0001
0100
1030
,  // measure 66
0010
0000
1000
0000
0100
0000
0000
0000
0010
0000
0000
0010
0000
0000
0010
0000
,  // measure 67
0100
0000
0001
0000
0010
0000
0000
0000
0100
0000
0000
0100
0000
0000
0100
0000
,  // measure 68
0002
0010
0100
1003
,  // measure 69
2000
0100
0010
3001
,  // measure 70
0100
1000
0010
0001
,  // measure 71
1000
0001
1000
0001
2000
0000
3001
0000
,  // measure 72
0010
1000
0100
0001
,  // measure 73
0100
0001
1000
0010
,  // measure 74
0001
0010
1000
0100
,  // measure 75
0001
0000
0000
0000
0100
0000
0000
0000
0010
0000
0000
1000
0000
0000
0002
0000
,  // measure 76
2000
0000
0000
0000
,  // measure 77
3003
0000
0000
0000
;

//---------------dance-single - ----------------
#NOTES:
     dance-single:
     :
     Hard:
     13:
     0.596762,0.588770,0.080488,0.064390,0.217318,519.000000,509.000000,10.000000,8.000000,0.000000,0.000000,0.596762,0.588770,0.080488,0.064390,0.217318,519.000000,509.000000,10.000000,8.000000,0.000000,0.000000:
// measure 0
0000
0000
0000
0000
,  // measure 1
0000
0000
0000
0000
,  // measure 2
0000
0000
0000
0000
,  // measure 3
0000
0000
0000
0000
,  // measure 4
0000
0000
0000
0000
,  // measure 5
1000
0000
0100
0000
1000
0000
0100
0000
0010
0000
0000
0010
0000
0000
0010
0000
,  // measure 6
0001
0000
0010
0000
0001
0000
0010
0000
0100
0000
0000
0100
0000
0000
0100
0000
,  // measure 7
0001
0000
1000
0000
0001
0000
1000
0000
0010
0000
0000
0010
0000
0000
0010
0000
,  // measure 8
1000
0000
0001
0000
1000
0000
0001
0000
0100
0000
0000
0100
0000
0000
0100
0000
,  // measure 9
1000
0100
0001
0100
1000
0100
0001
0000
,  // measure 10
0001
0010
1000
0010
0001
0010
1000
0000
,  // measure 11
1000
0010
0100
0010
1000
0010
0100
0000
,  // measure 12
0001
0100
0010
0100
0001
0100
0010
0000
,  // measure 13
0001
0100
1000
0100
0001
0100
1000
0100
,  // measure 14
0001
0010
1000
0010
0001
0010
1000
0010
,  // measure 15
0001
0100
0010
1000
0001
0100
0010
1000
,  // measure 16
0002
0000
1000
1003
,  // measure 17
0001
0000
0100
0000
1000
0000
0010
0100
0000
0100
0010
0000
0001
0000
0000
0000
,  // measure 18
1000
0000
0010
0000
0100
0000
0001
0100
0000
0100
0001
0000
1000
0000
0000
0000
,  // measure 19
0010
0000
1000
0000
0001
0000
1000
0001
0000
0001
1000
0000
0010
0000
0000
0000
,  // measure 20
0100
0000
0001
0000
1000
0000
0010
0100
0000
0100
0010
0000
0001
0000
0000
0000
,  // measure 21
1000
0000
0001
0000
0100
0000
0010
1000
0000
1000
0010
0000
0001
0000
0000
0000
,  // measure 22
1000
0000
0010
0000
0100
0000
0001
0100
0000
0100
0001
0000
0010
0000
0000
0000
,  // measure 23
0100
0000
0001
0000
1000
0000
0001
1000
0000
1000
0001
0000
0100
0000
0000
0000
,  // measure 24
0010
1000
0001
0100
0010
1000
1001
0000
,  // measure 25
0200
1000
0010
0301
,  // measure 26
0010
0100
0001
1000
0000
0000
1001
0000
,  // measure 27
0020
0001
0100
1030
,  // measure 28
0001
1000
0010
0100
0000
0000
0110
0000
,  // measure 29
0200
1000
0001
0310
,  // measure 30
0001
1000
0010
0100
0000
0000
1001
0000
,  // measure 31
0020
1000
0001
0130
,  // measure 32
0001
0100
1000
0010
0001
1000
1001
0000
,  // measure 33
0100
1000
0100
1000
0010
0001
0010
0001
,  // measure 34
0200
0010
1000
0301
,  // measure 35
0010
0100
0010
0100
0001
1000
0001
1000
,  // measure 36
0001
0010
0100
1000
0001
0010
0100
1000
,  // measure 37
0010
0100
0010
0100
0001
1000
0001
1000
,  // measure 38
0001
0010
0100
1000
0001
0010
0100
1000
,  // measure 39
0010
0100
0010
0100
0001
1000
0001
1000
,  // measure 40
0001
0010
0100
1000
0001
0010
0100
1000
,  // measure 41
0010
0100
0010
0100
0001
1000
0001
1000
,  // measure 42
0001
0010
0100
1000
0001
0010
0100
1000
,  // measure 43
0010
1000
0001
0100
0010
1000
0001
0100
,  // measure 44
1000
0100
0010
0001
1000
0100
0010
0001
,  // measure 45
0100
0010
1000
0001
0100
0010
1000
0001
,  // measure 46
0010
0100
1000
0001
0010
0100
1000
0001
,  // measure 47
0100
0010
1000
0001
0100
0010
1001
0000
,  // measure 48
0100
0000
1000
0000
0010
0000
0100
0000
0001
0000
0000
0001
0000
0000
0001
0000
,  // measure 49
0100
0000
0001
0000
0010
0000
1000
0000
0100
0000
0000
0100
0000
0000
0100
0000
,  // measure 50
0001
0000
0100
0000
0010
0000
0100
0000
1000
0000
0000
1000
0000
0000
1000
0000
,  // measure 51
0010
0000
0100
0000
0001
0000
1000
0000
0001
0000
0000
1000
0000
0000
0001
0000
,  // measure 52
0010
0000
0100
0000
0001
0000
1000
0000
0010
0000
0000
0010
0000
0000
0010
0000
,  // measure 53
0001
0000
0100
0000
0010
0000
1000
0000
0001
0000
0000
0001
0000
0000
0001
0000
,  // measure 54
0100
0000
0010
0000
0001
0000
0100
0000
1000
0000
0000
1000
0000
0000
1000
0000
,  // measure 55
0010
0000
0100
0000
0001
0000
1000
0000
0100
0000
0000
0010
0000
0000
0100
0000
,  // measure 56
0010
0000
0100
0000
0001
0000
1000
0000
0001
1000
0000
0001
1000
0000
0001
0000
,  // measure 57
0100
0000
0010
0000
1000
0000
0001
0000
0100
0010
0000
0100
0010
0000
0001
0000
,  // measure 58
0100
0000
0010
0000
1000
0000
0100
0000
1000
0100
0000
1000
0100
0000
0010
0000
,  // measure 59
0100
0000
0001
0000
1000
0000
0010
0000
0001
0010
0000
0001
0010
0000
0001
0000
,  // measure 60
0100
0000
0010
0000
1000
0000
0001
0000
1000
0001
0000
1000
0001
0000
0100
0000
,  // measure 61
0010
0000
1000
0000
0001
0000
0010
0000
0100
0010
0000
0100
0010
0000
0100
0000
,  // measure 62
0001
0100
1000
0100
0001
0100
1000
0100
,  // measure 63
0001
0010
1000
0010
0001
0010
1001
0000
,  // measure 64
1000
0000
0100
0000
0010
0000
0100
0000
0001
0000
0000
0010
0000
0000
0001
0000
,  // measure 65
0100
0000
0010
0000
0100
0000
0001
0000
1000
0000
0000
0100
0000
0000
1000
0000
,  // measure 66
0010
0000
0100
0000
0001
0000
1000
0000
0010
0000
0000
0100
0000
0000
0010
0000
,  // measure 67
1000
0000
0001
0000
0100
0000
0010
0000
0100
0000
0000
0010
0000
0000
0100
0000
,  // measure 68
0001
0000
0100
0000
1000
0000
0010
0000
0001
0000
0000
0010
0000
0000
1000
0000
,  // measure 69
0100
0000
0010
0000
1000
0000
0001
0000
1000
0000
0000
0100
0000
0000
0001
0000
,  // measure 70
0010
0000
0100
0000
1000
0000
0010
0000
0100
0000
0000
0010
0000
0000
0110
0000
,  // measure 71
0001
0000
1000
0000
0010
0000
0100
0000
0001
0000
0000
1000
0000
0000
1001
0000
,  // measure 72
1000
0000
0001
0000
0010
0000
0000
0100
0000
0010
0000
0000
1000
0000
0100
0000
,  // measure 73
0001
0000
0010
0000
0100
0000
0000
0010
0000
0100
0000
0000
0001
0000
1000
0000
,  // measure 74
0010
0000
0100
0000
0001
0000
0000
1000
0000
0001
0000
0000
0010
0000
0100
0000
,  // measure 75
0001
0000
1000
0000
0010
0000
0000
0001
0000
1000
0000
0000
1000
0000
0001
0000
,  // measure 76
2002
0000
0000
0000
,  // measure 77
3003
0000
0000
0000
;
