#TITLE:とってもとっても、ありがとう。;
#SUBTITLE:;
#ARTIST:日向美ビタースイーツ♪;
#TITLETRANSLIT:Tottemo tottemo, arigatou;
#SUBTITLETRANSLIT:;
#ARTISTTRANSLIT:Hinatabi Bitter Sweets♪;
#GENRE:jubeat;
#CREDIT:;
#BANNER:;
#BACKGROUND:;
#LYRICSPATH:;
#CDTITLE:;
#MUSIC:Tottemo tottemo, arigatou.mp3;
#OFFSET:1.700000;
#SAMPLESTART:65.480003;
#SAMPLELENGTH:15.000000;
#LASTBEATHINT:1.018609;
#SELECTABLE:YES;
#BPMS:0.000000=92.000000
;
#STOPS:
;
#BGCHANGES:;
#KEYSOUNDS:;
#ATTACKS:;

//---------------dance-single - ----------------
#NOTES:
     dance-single:
     :
     Hard:
     10:
     0.429847,0.457919,0.280717,0.192993,0.206151,289.000000,32.000000,22.000000,0.000000,0.000000,0.000000,0.429847,0.457919,0.280717,0.192993,0.206151,289.000000,32.000000,22.000000,0.000000,0.000000,0.000000:
// measure 0
0000
0000
0000
0000
,  // measure 1
0000
0000
0000
0000
,  // measure 2
0000
0000
0000
0000
,  // measure 3
0000
0000
0000
0000
,  // measure 4
0000
0000
0000
0000
,  // measure 5
1000
0000
0000
0000
0100
0000
0010
1000
0000
0010
0100
0000
0001
0000
0000
0000
,  // measure 6
0011
0000
0000
0000
0001
0000
0100
0001
0000
1000
0010
0000
0100
0000
0000
0000
,  // measure 7
1100
0000
0000
0000
0001
0000
1000
0010
0000
0100
0001
0000
0010
0000
0100
0000
,  // measure 8
1000
0000
0001
0000
0100
0000
0010
1000
0000
1000
0100
0000
0010
0000
0100
0000
,  // measure 9
0001
0000
0000
0000
0101
0000
0000
0010
0000
1000
0100
0000
0001
0000
0100
0000
,  // measure 10
0010
0000
0000
0000
0011
0000
0000
1000
0000
0010
0100
0000
0001
0000
0010
0000
,  // measure 11
0100
0000
1000
0000
0010
0000
1000
0100
0000
0100
0010
0000
0001
0000
0010
0000
,  // measure 12
0100
0000
0001
0000
1000
0000
0001
0100
0000
0100
0010
0000
1000
0000
0100
1000
,  // measure 13
0100
0000
0010
0000
1000
0000
0001
0100
0002
0000
0000
0000
0103
0000
0000
0000
,  // measure 14
0010
0000
1000
0000
0100
0000
0001
0010
0100
0000
0010
0100
1000
0000
0010
0000
,  // measure 15
1000
0000
0001
1000
0001
0000
0100
0010
0200
0000
0000
0000
0310
0000
0000
0000
,  // measure 16
0001
0000
1000
0100
0001
0000
0001
0100
1000
0000
0010
0000
1000
0000
0001
0000
,  // measure 17
0200
0000
0010
0000
0310
0001
0100
1000
,  // measure 18
2100
0000
3100
0000
0102
0000
0103
0010
,  // measure 19
1000
0000
0010
0000
0101
0000
0101
0100
,  // measure 20
2100
3100
0102
0103
,  // measure 21
0010
0000
1000
0000
0001
0000
0100
0000
0010
0000
1000
0000
0001
1000
0100
0000
,  // measure 22
0010
0100
0001
0000
0010
0000
1100
0000
0001
0100
0010
0000
1000
0000
1100
0000
,  // measure 23
0001
1000
0010
0000
1000
0000
0011
0000
0001
1000
0100
0000
0010
0000
0011
0000
,  // measure 24
0002
0000
0103
0010
2000
0000
3010
0100
,  // measure 25
0002
0000
0100
0000
0103
0000
1100
0001
,  // measure 26
0100
0000
0010
1000
0100
0000
0010
0000
0101
0000
0000
0000
0101
0000
0000
0000
,  // measure 27
1100
0000
0100
0001
0100
0000
0010
0000
1010
0000
0000
0000
1010
0000
0001
0000
,  // measure 28
0011
0000
0001
0100
0010
0000
1000
0000
1100
0000
0000
0000
1100
0000
0001
0000
,  // measure 29
0101
0000
0001
1000
0010
0000
0010
1000
0001
0000
0001
0000
0100
0000
0001
0000
,  // measure 30
2000
0000
0000
0000
3100
0000
0010
0000
0002
0000
0000
0000
0103
0000
0010
0100
,  // measure 31
2000
0000
0000
0000
3010
0000
0100
0000
0002
0000
0000
0000
0013
0000
0100
0001
,  // measure 32
0010
0000
1000
0100
1000
0000
0001
0100
0001
0000
0010
0000
1001
0000
0000
0000
,  // measure 33
1000
0000
1000
0010
1000
0000
0001
0010
0001
0000
0001
0000
0100
0000
0001
0000
,  // measure 34
2100
0000
3100
0001
0100
0000
0010
1000
,  // measure 35
0012
0000
0013
0100
0001
0010
1000
0100
,  // measure 36
0201
0000
0000
0300
0010
0000
1000
0000
0020
0000
0000
0000
0031
0000
0010
0000
,  // measure 37
2000
0000
0000
0000
3001
0000
0010
1000
0100
0000
0010
0100
0001
0000
0010
0000
,  // measure 38
0110
0000
0001
0100
1100
0000
0010
1000
,  // measure 39
0011
0000
0000
0000
0001
0000
0100
0001
0100
0000
1000
0010
1000
0000
0001
0000
,  // measure 40
2000
0000
0000
0000
3010
0000
0100
0000
0002
0000
0000
0000
0013
0000
0100
0001
,  // measure 41
0010
0000
0010
0000
1000
0000
0100
0000
0010
0100
0001
0000
0100
1000
0010
0000
,  // measure 42
2100
0000
0100
0000
,  // measure 43
0100
0000
3100
0000
;

//---------------dance-single - ----------------
#NOTES:
     dance-single:
     :
     Medium:
     7:
     0.289489,0.286199,0.122813,0.131586,0.000000,202.000000,14.000000,15.000000,0.000000,0.000000,0.000000,0.289489,0.286199,0.122813,0.131586,0.000000,202.000000,14.000000,15.000000,0.000000,0.000000,0.000000:
0000
0000
0000
0000
,
0000
0000
0000
0000
,
0000
0000
0000
0000
,
0000
0000
0000
0000
,
0000
0000
0000
0000
,
1000
0000
0010
0000
0100
0001
0100
0000
,
0001
0000
0010
0000
1000
0010
1000
0000
,
0001
0000
1000
0000
0010
0100
0010
0000
,
1000
0000
0001
0000
0100
1000
0100
0000
,
0010
0000
0001
0000
1000
0001
1000
0000
,
0001
0000
0100
0000
0010
1000
0010
0000
,
1000
0100
0001
0000
0010
0000
1001
0000
,
0001
0100
1000
0000
0010
0000
1001
0000
,
0100
1000
0010
0100
0002
0000
0000
0000
,
0103
0010
0100
0000
,
0001
0100
0010
1000
0200
0000
0000
0000
,
0310
0001
0100
1000
,
0020
1000
1000
1000
,
0130
0001
0100
0001
0100
0000
1100
0000
,
1000
0100
1000
0100
1000
0000
0101
0000
,
0010
1000
0010
0000
0001
0100
1000
0000
,
0010
0001
0010
0000
1000
0100
0001
0000
,
1000
0010
1000
0002
0000
0100
0000
0103
,
0010
0100
0001
0020
0000
1000
0000
1030
,
0001
1000
0100
0100
2000
0000
3010
0000
,
0001
0100
1000
0100
0002
0000
0013
0010
,
0100
0001
0010
0000
1100
0000
1100
0001
,
1000
0000
0010
0000
0001
0000
1000
0010
,
0100
0010
1000
0000
1100
0000
1100
0001
,
0020
0000
0031
0000
0010
0100
0001
1000
,
2100
0000
0100
0000
0100
0000
3100
0001
,
0021
0000
0001
0000
0001
0000
0031
0100
,
0001
0100
1000
0010
1000
0000
1010
0000
,
0010
1000
0001
0100
0001
0000
0011
0000
,
0002
0000
0103
0000
0010
1000
0001
0000
,
2000
0000
3100
0000
0010
1000
0001
0000
,
0020
0000
0031
0000
0010
1000
0001
0000
,
0200
0000
1300
0000
0010
1000
0001
0000
,
0100
1000
0100
1000
0000
0000
0001
0100
,
0001
0000
0011
0000
0001
1000
0101
0000
,
0001
0100
0001
0100
0000
0000
1000
0100
,
1000
0000
0010
0000
1000
0010
0100
0001
,
0020
0000
0100
0000
,
0100
0000
0130
0000
;

//---------------dance-single - ----------------
#NOTES:
     dance-single:
     :
     Easy:
     3:
     0.134092,0.133560,0.017545,0.087724,0.000000,95.000000,2.000000,10.000000,0.000000,0.000000,0.000000,0.134092,0.133560,0.017545,0.087724,0.000000,95.000000,2.000000,10.000000,0.000000,0.000000,0.000000:
0000
0000
0000
0000
,
0000
0000
0000
0000
,
0000
0000
0000
0000
,
0000
0000
0000
0000
,
0000
0000
0000
0000
,
0001
0100
0010
0000
,
1000
0000
0001
0000
,
1000
0010
0100
0000
,
0001
0000
1000
0000
,
0010
0100
0010
0000
,
1000
0000
0100
0000
,
0100
0010
0100
0000
,
0001
0000
0010
0000
,
1000
0100
0002
0000
,
0003
0000
0000
0000
,
0001
0100
2000
0000
,
3000
0000
0010
0010
,
0200
0000
0300
0000
,
1001
0010
0010
0000
,
1000
0100
0001
0000
,
1001
0100
0100
0000
,
0010
0100
0001
0000
,
1000
0010
0100
0001
,
1000
0010
0100
0000
,
0001
0100
0010
1000
,
0001
0100
0010
0000
,
2000
0000
0000
0000
,
3100
0100
0100
0000
,
0002
0000
0000
0000
,
0103
0100
0100
0000
,
2000
0000
3010
0000
,
0002
0000
0013
0000
,
2000
0000
3001
0000
,
0002
0000
1003
0000
,
1000
0010
0100
0000
,
0010
0000
0001
0000
,
0001
0100
0010
0000
,
1000
0000
0100
0000
,
1000
0100
0001
0000
,
0010
0000
1000
0000
,
0001
0100
0010
0000
,
1000
0000
0100
0000
,
0002
0000
0010
0000
,
0010
0000
0013
0000
;

//---------------dance-single - ----------------
#NOTES:
     dance-single:
     :
     Beginner:
     1:
     0.065166,0.073688,0.017545,0.043862,0.000000,45.000000,2.000000,5.000000,0.000000,0.000000,0.000000,0.065166,0.073688,0.017545,0.043862,0.000000,45.000000,2.000000,5.000000,0.000000,0.000000,0.000000:
0000
0000
0000
0000
,
0000
0000
0000
0000
,
0000
0000
0000
0000
,
0000
0000
0000
0000
,
0000
0000
0000
0000
,
1000
0000
0000
0000
,
0001
0000
0000
0000
,
0001
0000
0000
0000
,
1000
0000
0000
0000
,
0100
0000
0000
0000
,
0001
0000
0000
0000
,
0010
0000
0000
0000
,
1000
0000
0000
0000
,
0001
0000
2000
0000
,
3000
0000
0000
0000
,
1000
0000
0002
0000
,
0003
0000
0100
0000
,
0020
0000
0030
0000
,
1001
0000
0000
0000
,
0001
0000
0000
0000
,
1001
0000
0000
0000
,
0100
0000
0000
0000
,
0001
0000
0010
0000
,
0001
0000
0010
0000
,
1000
0000
0100
0000
,
1000
0000
0100
0000
,
0002
0000
0000
0000
,
0013
0000
0000
0000
,
2000
0000
0000
0000
,
3010
0000
0000
0000
,
0001
0000
0000
0000
,
1000
0000
0000
0000
,
0001
0000
0000
0000
,
1000
0000
0000
0000
,
0001
0000
0000
0000
,
0100
0000
0000
0000
,
1000
0000
0000
0000
,
0001
0000
0000
0000
,
0001
0000
1000
0000
,
0100
0000
0000
0000
,
1000
0000
0100
0000
,
0001
0000
0000
0000
,
1000
0000
0000
0000
;
