#TITLE:時を刻む唄 (JAKAZiD Remix);
#SUBTITLE:;
#ARTIST:Lia;
#TITLETRANSLIT:Toki Wo Kizamu Uta (JAKAZiD Remix);
#SUBTITLETRANSLIT:;
#ARTISTTRANSLIT:;
#GENRE:Anime/Game;
#CREDIT:;
#BANNER:;
#BACKGROUND:;
#LYRICSPATH:;
#CDTITLE:;
#MUSIC:Toki wo Kizamu Uta (JAKAZiD Remix).ogg;
#OFFSET:1.400000;
#SAMPLESTART:101.159958;
#SAMPLELENGTH:15.000000;
#LASTBEATHINT:1.044355;
#SELECTABLE:YES;
#BPMS:0.000000=172.000000
,104.000000=86.000000
,168.000000=172.000000
;
#STOPS:
;
#BGCHANGES:;
#KEYSOUNDS:;
#ATTACKS:;

//---------------dance-single - ----------------
#NOTES:
     dance-single:
     :
     Hard:
     14:
     0.710514,0.973865,0.102305,0.338394,0.637439,576.000000,13.000000,43.000000,0.000000,0.000000,0.000000,0.710514,0.973865,0.102305,0.338394,0.637439,576.000000,13.000000,43.000000,0.000000,0.000000,0.000000:
// measure 0
0000
0000
0000
0000
,  // measure 1
0000
0000
0000
0000
,  // measure 2
0000
0000
0000
0000
,  // measure 3
0000
0000
0000
0000
,  // measure 4
0000
0000
0000
0000
,  // measure 5
0001
1000
0010
0100
0000
0001
0010
0000
,  // measure 6
1000
0100
0000
0010
0100
0000
0001
0000
,  // measure 7
0010
0100
1000
0010
0000
1000
0010
1000
,  // measure 8
0100
1000
0100
1000
0100
1000
0100
1000
0100
1000
0000
0000
,  // measure 9
0001
0010
1000
0100
1100
0000
0010
1000
,  // measure 10
0100
0001
0100
0000
0101
0000
0100
0000
,  // measure 11
1100
0000
1000
0000
0010
1000
0100
0000
,  // measure 12
0001
0010
0100
1000
0010
1000
0100
0000
,  // measure 13
0010
1000
0100
0001
0100
0000
0001
0100
,  // measure 14
0010
1000
0100
0000
1100
0000
0101
0000
,  // measure 15
0010
0000
1000
0100
0010
0100
0001
0000
,  // measure 16
0001
0100
0000
0100
0000
0010
1000
0000
0000
0000
0000
0000
1100
0000
0000
0000
,  // measure 17
1100
0001
0100
0010
0100
1000
0010
0100
,  // measure 18
1000
0100
0010
0000
0011
0000
0101
0000
,  // measure 19
0001
0100
0010
1000
0100
0010
1000
0001
,  // measure 20
0100
0010
1000
0000
1100
0000
1001
0000
,  // measure 21
0001
0010
1000
0100
0010
0001
0010
0100
,  // measure 22
1000
0010
1000
0100
0010
0001
0100
0010
,  // measure 23
0100
0001
0010
0100
1000
0010
0100
0001
,  // measure 24
0100
0000
1000
0000
0100
0010
0100
0000
,  // measure 25
0110
0000
0001
0000
0100
0010
1000
0000
,  // measure 26
0200
0000
0000
2300
0000
0000
3020
0000
0000
0230
0000
0000
0302
0000
0103
0000
,  // measure 27
0020
0000
0000
2030
0000
0000
3002
0000
0000
2003
0000
0000
3200
0000
0310
0000
,  // measure 28
0002
0000
0000
0023
0000
0000
2030
0000
0000
3002
0000
0000
2003
0000
3100
0000
,  // measure 29
0020
0000
0000
0230
0000
0000
0302
0000
0000
2003
0000
0000
3020
0000
1030
0000
,  // measure 30
0002
0000
0000
0203
0000
0000
0320
0000
0000
2030
0000
0000
3100
1000
0200
0000
,  // measure 31
0302
0000
0000
0203
0000
0000
2300
0000
0000
3020
0000
0000
1030
0010
0200
0000
,  // measure 32
0302
0000
0000
0023
0000
0000
2030
0000
0000
3200
0000
0000
0310
1000
0002
0000
,  // measure 33
0023
0000
0000
0230
0000
0000
2300
0000
0000
3020
0000
0000
2030
0000
3001
0000
,  // measure 34
1001
0000
0010
1000
0000
1000
0100
0000
0010
0100
0001
0010
0100
1000
0100
0000
,  // measure 35
1000
0000
0010
1000
0000
0001
0010
0000
1000
0100
0010
0100
0001
0010
0100
0000
,  // measure 36
0001
0000
0010
1000
0000
1000
0100
0000
0001
0010
0100
1000
0010
1000
0001
0000
,  // measure 37
0001
0010
0100
1000
0000
1000
0100
0000
0010
1000
0001
0010
1000
0100
0010
0000
,  // measure 38
1000
0100
1000
0100
0000
0001
0010
0000
0001
1000
0010
1000
0001
0010
1000
0000
,  // measure 39
0001
0010
0001
0010
0000
0100
1000
0000
0010
1000
0100
0001
0010
0100
1000
0000
,  // measure 40
0100
1000
0100
1000
0001
1000
0001
1000
0001
0010
0001
0010
0100
0010
0100
0010
,  // measure 41
0001
0000
0010
0000
0100
0000
1000
0000
0010
0000
1000
0000
0100
0000
0001
0000
2000
0000
0000
0000
0000
0000
0000
0000
3100
1000
0100
1000
0100
1000
0100
0000
,  // measure 42
0001
0000
0100
0000
0010
0000
0000
0100
0000
0010
0000
0001
0000
0010
0100
0000
,  // measure 43
0010
0000
1000
0000
0001
0000
0000
0010
0000
1000
0000
0100
0000
0010
0100
0000
,  // measure 44
0001
0000
0010
0000
0100
0000
0000
0001
0000
0010
0000
1000
0000
0010
1000
0000
,  // measure 45
0001
0000
0010
0000
1000
0000
0000
0001
0000
1000
0000
0010
0000
1000
0001
0000
,  // measure 46
0010
0000
1000
0000
0100
0000
0000
0010
0000
0100
0000
0001
0000
0010
0100
0000
,  // measure 47
0010
0000
1000
0000
0001
0000
0000
0010
0000
1000
0000
0100
0000
0010
0100
0000
,  // measure 48
0001
0000
0010
0000
0100
0000
0000
0010
0000
1000
0000
0001
0000
1000
0010
0000
,  // measure 49
1000
0001
0010
1000
0100
0100
0010
0000
,  // measure 50
0001
0000
0010
0000
1000
0000
0000
0001
0000
1000
0000
0010
0000
1000
0001
1000
,  // measure 51
0010
0000
1000
0000
0001
0000
0000
0010
0000
1000
0000
0100
0000
0001
1000
0010
,  // measure 52
1000
0000
0001
0000
0010
0000
0000
1000
0000
0100
0000
0001
0000
1000
0100
0010
,  // measure 53
0001
0000
0001
0000
0010
0000
0000
1000
0000
0010
0000
0100
0000
0001
0010
0100
,  // measure 54
1000
0000
0001
0000
0010
0000
0000
1000
0000
0100
0000
1000
0000
0001
1000
0010
,  // measure 55
0100
0000
0001
0000
0010
0000
0000
0001
0000
0010
0000
1000
0000
0001
0100
0010
,  // measure 56
1000
0001
0010
0100
1000
0010
0100
0010
,  // measure 57
0001
0000
0010
0000
0100
0000
1000
0000
0010
1000
0010
1000
0001
0100
0001
0100
,  // measure 58
0010
1000
0100
0010
0100
0001
0010
0100
,  // measure 59
1000
0000
0010
0000
1000
0000
0100
0000
1000
0100
0010
0100
1000
0000
0000
0000
,  // measure 60
0001
0010
1000
0100
0010
1000
0001
0010
,  // measure 61
1000
0000
0100
0000
0010
0000
0001
0000
0001
0010
0100
0010
0001
0000
0000
0000
,  // measure 62
0100
0010
0100
0001
0010
1000
0010
0100
,  // measure 63
0001
0000
0010
0000
1000
0000
0010
0000
1000
0010
0100
0010
1000
0000
0000
0000
,  // measure 64
0001
0010
1000
0100
0010
0100
0001
0010
,  // measure 65
1000
0000
0100
0000
0010
0000
0001
0000
0100
1000
0010
0100
0001
0010
0001
0100
,  // measure 66
0010
0100
1000
0010
1000
0100
0010
0100
,  // measure 67
0001
0000
0010
0000
0100
0000
1000
0000
0010
1000
0100
0010
0001
0000
0100
0000
,  // measure 68
0010
0100
1000
0010
1000
0001
0010
1000
,  // measure 69
0100
0000
0010
0000
0100
0000
1000
0000
0010
0001
0100
0010
1000
0000
0010
0000
,  // measure 70
0001
1000
0010
0100
0001
0010
0100
1000
,  // measure 71
0010
1000
0100
0010
0100
0001
0010
0100
,  // measure 72
1000
0100
1000
0000
0001
0100
0001
0000
1000
0010
1000
0000
0001
0010
0001
0000
,  // measure 73
2000
0000
0000
0000
0000
0000
0000
0000
3010
0001
0010
1000
0010
0001
0010
1000
,  // measure 74
0020
0000
0000
0000
,  // measure 75
0030
0000
0000
0000
;

//---------------dance-single - ----------------
#NOTES:
     dance-single:
     :
     Medium:
     11:
     0.467680,0.531199,0.243958,0.173132,0.114109,363.000000,31.000000,22.000000,0.000000,0.000000,0.000000,0.467680,0.531199,0.243958,0.173132,0.114109,363.000000,31.000000,22.000000,0.000000,0.000000,0.000000:
// measure 0
0000
0000
0000
0000
,  // measure 1
0000
0000
0000
0000
,  // measure 2
0000
0000
0000
0000
,  // measure 3
0000
0000
0000
0000
,  // measure 4
0000
0000
0000
0000
,  // measure 5
0001
0000
1000
0100
0000
0000
0010
0000
,  // measure 6
0000
0100
0000
0000
0001
0000
1100
0000
,  // measure 7
0010
0000
1000
0100
0000
0001
0010
0100
,  // measure 8
1000
0000
0100
1000
0000
0100
1000
0000
0100
1000
0000
0000
,  // measure 9
1000
0001
0010
1000
0100
0000
0010
1000
,  // measure 10
0100
0001
0100
0010
,  // measure 11
1000
0000
1100
0000
0010
1000
0001
0000
,  // measure 12
0001
1000
0010
0100
0001
0010
0100
0000
,  // measure 13
1000
0000
0010
1000
0001
0000
0001
0010
,  // measure 14
1000
0010
1000
0100
,  // measure 15
1100
0000
0001
0100
0001
0000
0010
0000
,  // measure 16
1000
0000
0000
0001
0000
0001
0100
0000
0000
0000
0000
0000
0010
0000
0000
0000
,  // measure 17
1100
0000
0001
0010
1000
0000
0100
0000
,  // measure 18
0001
1000
0010
0100
0001
0000
1000
0000
,  // measure 19
0011
0000
0001
1000
0010
0000
0100
0000
,  // measure 20
1000
0010
0100
0001
0010
0000
0100
0000
,  // measure 21
0010
0000
1000
0000
0010
0100
0010
0000
,  // measure 22
0001
0000
1000
0000
0010
1000
0001
0000
,  // measure 23
0010
0000
1000
0000
0001
1000
0001
0000
,  // measure 24
0100
0010
1000
0001
0010
0000
0100
0000
,  // measure 25
2000
0000
0000
0000
,  // measure 26
3200
0000
0000
0320
0000
0000
0031
1000
,  // measure 27
0020
0000
0000
0230
0000
0000
0301
0010
,  // measure 28
2000
0000
0000
3020
0000
0000
0031
0010
,  // measure 29
0002
0000
0000
0203
0000
0000
0310
1000
,  // measure 30
0020
0000
0000
0100
0030
0000
2000
0000
0000
3100
0000
0000
0001
0000
0010
0000
,  // measure 31
0002
0000
0000
0103
0000
0000
0020
0000
0000
1030
0000
0000
0100
0000
0001
0000
,  // measure 32
2000
0000
0000
3100
0000
0000
0020
0000
0000
0031
0000
0000
0001
0000
0010
0000
,  // measure 33
2000
0000
0000
3001
0000
0000
0020
0000
0000
0130
0000
0000
0001
0000
0010
0000
,  // measure 34
1000
0000
0000
0100
0000
0000
1100
0000
0000
0000
0000
0000
0010
0000
1000
0001
,  // measure 35
1000
0000
0000
0001
0000
0000
0011
0000
0000
0000
0000
0000
0100
0000
0001
1000
,  // measure 36
0001
0000
0000
1000
0000
0000
1100
0000
0000
0001
0000
0000
0100
0000
0010
0000
,  // measure 37
1000
0000
0000
0010
0000
0000
0011
0000
0000
1000
0000
0000
0001
0000
0010
0000
,  // measure 38
1000
0000
0000
0100
0000
0000
1100
0000
0000
0100
0000
0000
0100
0000
0010
0000
,  // measure 39
0001
0000
0000
0010
0000
0000
0011
0000
0000
0010
0000
0000
0010
0000
0100
0000
,  // measure 40
1000
0100
1000
0100
0001
0100
0001
0100
,  // measure 41
0001
0000
1000
0000
0010
0000
0100
0000
0002
0000
0000
0000
0103
0010
0100
0010
,  // measure 42
0100
1000
0100
0000
1100
0000
0100
0000
,  // measure 43
0001
1000
0001
0000
0010
0000
0011
0000
,  // measure 44
0001
0100
0010
0000
1000
0000
1100
0000
,  // measure 45
0001
1000
0010
0000
0001
0000
0011
0000
,  // measure 46
1000
0010
0100
0000
0001
0000
1010
0000
,  // measure 47
0001
1000
0010
0000
0100
0000
1100
0000
,  // measure 48
0010
1000
0001
0000
0100
0000
0011
0000
,  // measure 49
0001
0010
0100
1000
0010
0100
0001
0000
,  // measure 50
0010
1000
0001
0000
1000
0000
1100
0000
,  // measure 51
0010
1000
0001
0000
0100
0000
0011
0000
,  // measure 52
0001
1000
0100
0000
0001
0000
0011
0000
,  // measure 53
0010
1000
0001
0000
0010
0000
1000
0000
,  // measure 54
0001
1000
0010
0000
0001
0000
1100
0000
,  // measure 55
0001
1000
0010
0000
0100
0000
1100
0000
,  // measure 56
0010
1000
0100
0000
0001
0010
0100
0000
,  // measure 57
0002
0000
0103
0100
,  // measure 58
0010
1000
0100
0010
0100
0000
0001
0000
,  // measure 59
0100
0010
1000
0011
,  // measure 60
0001
1000
0010
0100
0001
0000
0100
0000
,  // measure 61
1000
0010
1000
1100
,  // measure 62
0010
1000
0001
0010
0100
0000
0010
0000
,  // measure 63
1000
0010
0001
0011
,  // measure 64
0001
0100
1000
0010
1000
0000
1100
0000
,  // measure 65
1000
0010
0002
0000
,  // measure 66
0013
0000
0010
0000
1000
0010
0100
0001
,  // measure 67
0010
0100
1000
1100
,  // measure 68
0010
1000
0001
0000
0010
0000
1000
0000
,  // measure 69
0010
0100
0001
0011
,  // measure 70
0001
0100
0010
0000
1000
0000
1100
0000
,  // measure 71
0001
1000
0010
0000
0100
0000
0011
0000
,  // measure 72
0001
0010
0100
0000
0010
0100
1000
0000
,  // measure 73
0002
0000
0000
0000
0000
0000
0000
0000
0013
0100
0010
0000
1000
0001
1000
0000
,  // measure 74
0200
0000
0000
0000
,  // measure 75
0300
0000
0000
0000
;

//---------------dance-single - ----------------
#NOTES:
     dance-single:
     :
     Easy:
     7:
     0.373245,0.354133,0.110175,0.251828,0.000000,286.000000,14.000000,32.000000,0.000000,0.000000,0.000000,0.373245,0.354133,0.110175,0.251828,0.000000,286.000000,14.000000,32.000000,0.000000,0.000000,0.000000:
0000
0000
0000
0000
,
0000
0000
0000
0000
,
0000
0000
0000
0000
,
0000
0000
0000
0000
,
0000
0000
0000
0000
,
1000
0000
0000
0100
0000
0000
0010
0000
,
0000
0001
0000
0000
1000
0000
0001
0000
,
0010
0000
0000
0100
0000
0000
0010
0000
,
2000
0000
3200
0000
,
0310
0100
0010
0000
0001
0000
1000
0000
,
0010
1000
0100
0010
,
0001
1000
0001
0000
0010
0000
1000
0000
,
0200
0000
1000
0000
1000
0000
0000
0300
,
0010
0100
0001
0000
0010
0000
1000
0000
,
0010
1000
0100
0001
,
1000
0100
0001
0000
0010
0000
1000
0000
,
0002
0100
0000
0103
,
0010
1000
0100
0000
0010
0000
1100
0000
,
0001
0010
1000
0010
,
1000
0010
0100
0000
0001
0000
0011
0000
,
0001
0000
0100
0000
0010
1000
0001
0000
,
0001
0010
0100
0000
1000
0000
1100
0000
,
1000
0100
0010
0000
0001
0000
0011
0000
,
0001
0100
0010
1000
,
0200
1000
1000
0310
,
0002
0000
0000
0000
,
0203
0000
0000
2300
3000
0000
0010
0000
,
0002
0000
0000
1003
0000
0000
0100
0000
,
2000
0000
0000
3010
0000
0000
0001
0000
,
0200
0000
0000
0310
0000
0000
1000
0000
,
0002
0000
0000
0203
0000
0000
0310
1000
,
0002
0000
0000
0103
0000
0000
1000
0010
,
2000
0000
0000
3200
0000
0000
0310
0100
,
0002
0000
0000
0023
0000
0000
1030
0001
,
2000
0000
0000
3200
0000
0000
0310
0000
,
0002
0000
0000
0023
0000
0000
0130
0000
,
0020
0000
0000
2030
0000
0000
3001
0000
,
0020
0000
0000
0032
0000
0000
1003
0000
,
0100
1000
0100
1000
,
0001
0100
0001
0100
,
1000
1000
0001
0001
,
0010
0010
0010
0010
0020
0000
0100
0100
,
0130
0000
0001
0000
1000
0010
1000
0000
,
0001
1000
1100
0000
,
0001
0000
0100
0000
0010
1000
0010
0000
,
1000
0100
0011
0000
,
0001
0000
1000
0000
0100
0100
0010
0000
,
0001
0010
1001
0000
,
1000
0000
0001
0000
0010
0010
0100
0000
,
0001
1000
0110
0010
,
0001
1000
0001
0000
0100
0000
1000
0000
,
0010
0001
0010
0000
0100
0000
0000
0000
,
1000
0001
0100
0000
0010
0000
1000
0000
,
0001
1000
0010
0000
1100
0000
0000
0000
,
0010
1000
0001
0000
0010
0000
1000
0000
,
0010
1000
0001
0000
0100
0000
0000
0000
,
0001
0000
0010
0000
1000
0100
0010
0000
,
0002
0000
0100
0103
,
0010
0000
1000
0010
0000
0010
0100
0000
,
0001
0010
1000
0000
0001
0000
0000
0000
,
0001
0000
0001
0010
0000
0010
0100
0000
,
1000
0100
0001
0000
0010
0000
0000
0000
,
1000
0000
1000
0010
0000
0010
0100
0000
,
0001
0010
1000
0000
0100
0000
0000
0000
,
0001
0000
1000
0010
0000
0010
0100
0000
,
0002
0000
0100
0103
,
0010
1000
0100
0000
0010
0000
1001
0000
,
0010
0100
0001
0000
0010
0000
0110
0000
,
0001
0100
1000
0000
0010
0000
1010
0000
,
1000
0100
0010
0000
0001
0000
0011
0000
,
0001
0100
0001
0000
0100
1000
0100
0000
,
0010
0001
0010
1000
,
1000
0010
1000
0000
0001
0010
0001
0000
,
2000
0000
0000
0000
3010
0100
0010
0000
,
2002
0000
0000
0000
,
3003
0000
0000
0000
;

//---------------dance-single - ----------------
#NOTES:
     dance-single:
     :
     Beginner:
     4:
     0.157392,0.147555,0.007870,0.007870,0.000000,138.000000,1.000000,1.000000,0.000000,0.000000,0.000000,0.157392,0.147555,0.007870,0.007870,0.000000,138.000000,1.000000,1.000000,0.000000,0.000000,0.000000:
0000
0000
0000
0000
,
0000
0000
0000
0000
,
0000
0000
0000
0000
,
0000
0000
0000
0000
,
0000
0000
0000
0000
,
0000
0000
0000
0000
,
0000
0000
0000
0000
,
0000
0000
0000
0000
,
0000
0000
0000
0000
,
1000
0000
0100
0000
,
1000
0000
0100
0000
,
0001
0000
0001
0000
,
0010
0000
0010
0000
,
0001
0000
0010
0000
,
0001
0000
0010
0000
,
1000
0000
1000
0000
,
0100
0000
0100
0000
,
1000
0010
1000
0000
,
0000
0010
0000
0000
,
0001
0010
0001
0000
,
0000
0010
0000
0000
,
0100
0000
0100
0000
,
0010
0000
0010
0000
,
1000
0000
1000
0000
,
0001
0000
0001
0000
,
0100
0000
0000
0000
,
1001
0000
0000
0000
,
0100
0000
0000
0000
,
0010
0000
0000
0000
,
0001
0000
0000
0000
,
1000
0000
0000
0000
,
0010
0000
0000
0000
,
0100
0000
0000
0000
,
0001
0000
0000
0000
,
1000
0000
0000
0100
0000
0000
0000
0000
,
0001
0000
0000
0100
0000
0000
0000
0000
,
1000
0000
0000
0100
0000
0000
0000
0000
,
0001
0000
0000
0100
0000
0000
0000
0000
,
1000
0000
0000
0010
0000
0000
0000
0000
,
0001
0000
0000
0010
0000
0000
0000
0000
,
1000
0000
0000
0010
0000
0000
0000
0000
,
0001
0000
0000
0010
0000
0000
0000
0000
,
1000
0000
0100
0000
,
1000
0100
1000
0000
,
0001
0000
0100
0000
,
0001
0100
0001
0000
,
1000
0000
0010
0000
,
1000
0010
1000
0000
,
0001
0000
0010
0000
,
0001
0010
0001
0000
,
0001
0000
0100
0000
,
0001
0100
0001
0000
,
1000
0000
0100
0000
,
1000
0100
1000
0000
,
0001
0000
0010
0000
,
0001
0010
0001
0000
,
1000
0000
0010
0000
,
1000
0010
1000
0000
,
0001
0100
1000
0000
,
0100
0000
0100
0000
,
1000
0100
0001
0000
,
0100
0000
0100
0000
,
0001
0010
1000
0000
,
0010
0000
0010
0000
,
1000
0010
0001
0000
,
0010
0000
0010
0000
,
1000
0100
1000
0000
,
0010
0000
0010
0000
,
0001
0010
0001
0000
,
0100
0000
0100
0000
,
1000
0100
1000
0000
,
0100
0000
0100
0000
,
0001
0010
0001
0000
,
0010
0000
0010
0000
,
0200
0000
0000
0000
,
0300
0000
0000
0000
;
