#TITLE:時を刻む唄;
#SUBTITLE:;
#ARTIST:Lia;
#TITLETRANSLIT:A.- Toki Wo Kizamu Uta;
#SUBTITLETRANSLIT:;
#ARTISTTRANSLIT:;
#GENRE:Anime/Game;
#CREDIT:;
#BANNER:;
#BACKGROUND:;
#LYRICSPATH:;
#CDTITLE:;
#MUSIC:Toki Wo Kizamu Uta.ogg;
#OFFSET:1.060000;
#SAMPLESTART:40.920002;
#SAMPLELENGTH:15.000000;
#LASTBEATHINT:0.064382;
#SELECTABLE:YES;
#BPMS:0.000000=139.000000
,36.000000=129.000000
,41.000000=139.000000
;
#STOPS:
;
#BGCHANGES:2.500=Toki Wo Kizamu Uta.avi=1.000=0=0=0=StretchNoLoop====,
99999=-nosongbg-=1.000=0=0=0 // don't automatically add -songbackground-
;
#KEYSOUNDS:;
#ATTACKS:;

//---------------dance-single - ----------------
#NOTES:
     dance-single:
     :
     Hard:
     10:
     0.426449,0.462865,0.201245,0.100623,0.000000,240.000000,18.000000,9.000000,0.000000,0.000000,0.000000,0.426449,0.462865,0.201245,0.100623,0.000000,240.000000,18.000000,9.000000,0.000000,0.000000,0.000000:
// measure 0
0000
0000
0000
0000
,  // measure 1
0000
0000
0000
0000
,  // measure 2
0000
0000
0000
0000
,  // measure 3
0000
0000
0000
0000
,  // measure 4
0000
0000
0000
0000
,  // measure 5
0000
0000
0000
0000
,  // measure 6
1000
0010
0100
0001
0000
0001
0100
0000
,  // measure 7
0001
0100
0000
0100
1000
0000
1100
0000
,  // measure 8
1000
0010
0100
0001
0000
0001
0010
0200
,  // measure 9
0000
0000
0000
0000
,  // measure 10
0000
0000
0310
1000
0010
0100
0001
0000
,  // measure 11
0001
0010
0100
1000
0100
0000
0100
0000
,  // measure 12
1100
0000
0001
0000
0100
0000
0001
0010
,  // measure 13
1000
0100
0000
0010
0100
0001
0010
0100
,  // measure 14
1000
0000
1000
0100
0010
0100
0001
0000
,  // measure 15
0010
0000
1100
0000
1000
0000
0010
1000
,  // measure 16
0001
0000
0201
0000
0000
0000
0301
0010
,  // measure 17
0100
1100
1000
1010
,  // measure 18
0000
0000
0001
1000
0100
0000
0011
0000
,  // measure 19
0001
0000
1001
0000
0000
0000
0001
0100
,  // measure 20
2000
0100
3100
0002
,  // measure 21
0100
0103
2000
0010
,  // measure 22
3010
0002
0010
0010
,  // measure 23
2000
0000
0000
0000
,  // measure 24
3003
0000
0010
0000
0100
0000
0110
0100
,  // measure 25
1000
1000
0100
0010
,  // measure 26
1000
0000
0001
1000
0010
0000
0110
0010
,  // measure 27
0001
0010
0100
0001
,  // measure 28
1000
0000
0001
1000
0100
0000
1001
1000
,  // measure 29
0100
0001
0010
1000
,  // measure 30
0010
0000
1000
0010
0001
0000
1001
0001
,  // measure 31
0010
0000
0100
0000
0001
0000
0001
0010
,  // measure 32
0100
1000
0001
0100
0010
1000
0001
0000
,  // measure 33
1100
0000
0010
1000
0001
0000
0100
0000
,  // measure 34
0010
0000
1000
0010
1000
0001
0100
0000
,  // measure 35
0011
0000
0001
0100
1000
0000
0010
0000
,  // measure 36
1001
0000
0001
1000
0010
0100
1000
0000
,  // measure 37
1100
0000
0010
1000
0001
0000
0001
1000
,  // measure 38
0100
0001
0100
1000
0100
0000
1001
0000
,  // measure 39
0010
0000
1000
0001
0010
0000
1000
0001
,  // measure 40
0100
1000
0100
0001
0100
1000
0010
0001
,  // measure 41
0010
0001
0000
0100
0001
0100
0001
0000
,  // measure 42
0100
1000
0100
1000
0000
0001
1000
0001
,  // measure 43
1000
0000
0100
0010
0100
1000
0000
0010
,  // measure 44
0001
0010
0100
0000
0001
0010
0100
1000
,  // measure 45
0000
0001
0000
1000
0000
0001
0000
1000
,  // measure 46
0100
0010
1000
0100
0001
0010
0100
0001
,  // measure 47
0010
1000
0100
0001
0010
0100
0001
0100
,  // measure 48
1000
0100
0010
1000
0100
0010
0001
1000
,  // measure 49
0001
0010
0100
1000
0001
1000
0001
0010
,  // measure 50
1000
0100
0220
0000
0000
0000
0000
0000
,  // measure 51
0000
0000
0000
0330
;

//---------------dance-single - ----------------
#NOTES:
     dance-single:
     :
     Medium:
     7:
     0.311451,0.347148,0.122983,0.178885,0.000000,168.000000,11.000000,16.000000,0.000000,0.000000,0.000000,0.311451,0.347148,0.122983,0.178885,0.000000,168.000000,11.000000,16.000000,0.000000,0.000000,0.000000:
0000
0000
0000
0000
,
0000
0000
0000
0000
,
0000
0000
0000
0000
,
0000
0000
0000
0000
,
0000
0000
0000
0000
,
0000
0000
0000
0000
,
1000
0000
0100
1000
0000
0000
1100
0000
,
0000
0001
0000
0000
0011
0000
0010
0000
,
0100
0001
0010
1000
0000
0100
1000
0200
,
0000
0000
0000
0000
,
0000
0310
0010
0001
,
1000
0001
1000
0000
0010
0000
1000
0000
,
0100
0000
1100
0000
0001
0000
0100
0001
,
0020
0000
0000
0000
0031
0000
0010
1000
,
0100
0001
1000
0011
,
0001
0000
0100
0000
0001
0000
1000
0001
,
0100
2100
0000
3100
,
0001
0010
1000
1200
,
0000
0301
0010
1000
,
0100
0012
0000
0013
,
0001
0010
0100
0000
1000
0000
2100
0000
,
0000
3000
0100
0000
1000
0100
0010
0000
,
0001
0012
0000
0010
,
0200
0000
0000
0000
,
0303
0010
1000
0100
,
1000
0100
0001
0000
0010
0000
1000
0000
,
0010
1001
0000
0010
,
0100
0001
0010
0000
0010
0000
0100
0000
,
0001
1000
0000
0010
,
1000
0010
0100
0000
0001
0000
0010
0000
,
1000
0001
0000
0010
,
0100
0001
0010
0000
1000
0000
1000
0100
,
0010
0001
1000
0010
0100
0001
0200
0000
,
0000
0310
1000
0002
,
0000
0000
0013
1000
0100
0000
0002
0000
,
0000
1003
0010
0200
,
0000
0000
0310
1000
0001
0000
2000
0000
,
3100
0000
0010
1000
0001
0000
0002
0000
,
0103
0000
0010
1000
0100
0000
0001
0000
,
0100
1000
0010
1000
,
1000
2100
0000
3100
,
0000
0010
0000
0100
0000
0000
0001
0000
,
0010
0000
0000
1000
0000
0100
0000
0000
,
0001
0000
1000
0000
0000
1000
0000
0100
,
0000
0000
0010
0000
0100
0000
0000
0001
,
0000
0010
0000
0010
0000
0010
0000
1000
,
0000
0000
0100
0000
0010
0000
0000
0001
,
0000
0100
0000
0000
1000
0000
0010
0000
,
0000
1000
0000
0001
0000
0000
0001
0000
,
0100
0000
0000
0010
0000
1000
0000
0000
,
1000
0200
0000
0000
,
0000
0000
0000
0300
;

//---------------dance-single - ----------------
#NOTES:
     dance-single:
     :
     Easy:
     4:
     0.161316,0.173574,0.011180,0.067082,0.000000,94.000000,1.000000,6.000000,0.000000,0.000000,0.000000,0.161316,0.173574,0.011180,0.067082,0.000000,94.000000,1.000000,6.000000,0.000000,0.000000,0.000000:
0000
0000
0000
0000
,
0000
0000
0000
0000
,
0000
0000
0000
0000
,
0000
0000
0000
0000
,
0000
0000
0000
0000
,
0000
0000
0000
0000
,
1000
0000
0100
0000
,
0010
0000
0001
0000
,
0100
0000
0000
0010
0000
0000
0000
0200
,
0000
0000
0000
0000
,
0000
0301
0000
0001
,
0000
1000
0000
1000
,
0000
0010
0010
0010
,
0010
0000
1000
0000
,
1000
0000
0001
0000
,
0001
0000
0100
0100
,
0100
0100
0000
1000
,
0100
0000
0100
0000
,
0100
0000
0001
0000
,
0100
0000
0100
0000
,
0100
0010
0010
0000
,
1000
1000
0000
0001
,
0001
0000
0100
0100
,
0020
0000
0000
0000
,
0030
0000
1000
0002
,
0000
0013
0000
1000
,
0000
0100
0000
2000
,
0000
3010
0000
0001
,
0000
0100
0000
1000
,
0000
0010
0000
1000
,
0000
0001
0000
0010
,
0000
0001
0000
0100
,
0000
0001
1000
0010
,
0000
0010
0000
1000
,
0001
1000
0000
0100
,
0000
0100
0000
0001
,
1000
0001
0000
1000
,
0000
0010
0000
0001
,
0100
0001
0000
0001
,
0000
0010
0000
1000
,
0100
1000
0000
1000
,
0000
0000
0000
0100
0000
0000
0000
0000
,
0001
0000
0000
0000
0000
0100
0000
0000
,
0000
0000
1000
0000
0000
0000
0000
0010
,
0000
0000
0001
0000
,
0000
0010
0000
0000
0000
0000
0000
1000
,
0000
0000
0100
0000
,
0000
0001
0000
0000
0000
0000
0100
0000
,
0000
0000
0000
1000
0000
0000
0000
0000
,
0010
0000
0000
0000
0000
0001
0000
0000
,
0000
0220
0000
0000
,
0000
0000
0000
0330
;

//---------------dance-single - ----------------
#NOTES:
     dance-single:
     :
     Beginner:
     1:
     0.079859,0.083223,0.011180,0.000000,0.000000,49.000000,1.000000,0.000000,0.000000,0.000000,0.000000,0.079859,0.083223,0.011180,0.000000,0.000000,49.000000,1.000000,0.000000,0.000000,0.000000,0.000000:
0000
0000
0000
0000
,
0000
0000
0000
0000
,
0000
0000
0000
0000
,
0000
0000
0000
0000
,
0000
0000
0000
0000
,
0000
0000
0000
0000
,
0000
0000
0000
0000
,
0000
0000
0000
0000
,
0000
0000
0000
0000
,
0000
0000
0000
0000
,
0000
1000
0000
0000
,
0100
0000
0000
0000
,
0010
0000
0000
0000
,
0001
0000
0100
0000
,
0000
1000
0000
0000
,
0010
0000
0000
0001
,
0000
0000
0000
0000
,
0100
0000
0000
0100
,
0000
0000
0010
0000
,
0000
0010
0000
0000
,
1000
0000
0000
1000
,
0000
0000
0001
0000
,
0000
0001
0000
0000
,
0110
0000
0000
0000
,
0000
0000
0000
1000
,
0000
0000
0000
0100
,
0000
0010
0000
0100
,
0000
0000
0000
0001
,
0000
1000
0000
0001
,
0000
0000
0000
0100
,
0000
0010
0000
0100
,
0000
0000
0000
0001
,
0000
1000
0000
0001
,
0000
0000
0000
1000
,
0000
0100
0000
1000
,
0000
0000
0000
0001
,
0000
0010
0000
0001
,
0000
0000
0000
1000
,
0000
0010
0000
1000
,
0000
0000
0000
0001
,
0000
1000
0000
0001
,
0000
0000
0000
0000
,
0010
0000
0000
0000
,
0000
0100
0000
0000
,
0000
0000
1000
0000
,
0000
0000
0000
0000
0000
0000
0000
1000
,
0000
0000
0000
0000
,
0000
0010
0000
0000
0000
0000
0000
0000
,
0000
0000
0000
0001
0000
0000
0000
0000
,
0000
0000
0000
0000
0000
0100
0000
0000
;
