#TITLE:タイニーリトル・アジアンタム;
#SUBTITLE:;
#ARTIST:ShibayanRecords feat.3L;
#TITLETRANSLIT:Tiny Little Adiantum;
#SUBTITLETRANSLIT:;
#ARTISTTRANSLIT:;
#GENRE:TOUHOU Project;
#CREDIT:;
#BANNER:;
#BACKGROUND:;
#LYRICSPATH:;
#CDTITLE:;
#MUSIC:Tiny Little Adiantum.ogg;
#OFFSET:1.320000;
#SAMPLESTART:42.614388;
#SAMPLELENGTH:15.000000;
#LASTBEATHINT:0.358985;
#SELECTABLE:YES;
#BPMS:0.000000=93.000000
;
#STOPS:
;
#BGCHANGES:;
#KEYSOUNDS:;
#ATTACKS:;

//---------------dance-single - ----------------
#NOTES:
     dance-single:
     :
     Hard:
     11:
     0.366771,0.433152,0.153736,0.007687,0.295942,334.000000,314.000000,20.000000,1.000000,0.000000,0.000000,0.366771,0.433152,0.153736,0.007687,0.295942,334.000000,314.000000,20.000000,1.000000,0.000000,0.000000:
0000
0000
0000
0000
,
0000
0000
0000
0000
,
0000
0000
0000
0000
,
0000
0000
0000
0000
,
0000
0000
0000
0000
,
1000
0000
1000
0000
0000
0100
0000
0000
0010
0000
0010
0000
0000
0001
0000
0000
,
0100
0000
0100
0000
0000
0010
0000
0000
1000
0000
1000
0000
0000
0001
0000
0000
,
0100
0000
1000
0000
0000
0010
0000
0000
0100
0000
0001
0000
0000
0110
0000
0000
,
0001
0000
1000
0000
0000
0010
0000
0000
1000
0000
0001
0000
0000
1001
0000
0000
,
0100
1000
0100
1000
0100
0010
0100
0010
,
0001
0010
0100
0000
0010
0100
1000
0000
,
0001
0010
0001
0010
0100
0010
0100
0010
,
1000
0100
0010
0000
0100
0010
0001
0000
,
0100
0010
1000
0010
0100
0010
1000
0010
,
0100
0001
0010
1000
1001
0000
0010
1000
,
0100
0001
0010
0100
0010
0001
0010
0100
,
0010
0001
0100
0010
1000
0010
1001
0000
,
1000
0000
0100
0000
1000
0100
1000
0100
0010
0000
0100
0000
0010
0000
0100
0000
,
0001
0000
0010
0000
0001
0010
0001
0010
0200
0000
0000
0000
0310
0000
1000
0100
,
0001
0000
0100
0000
1000
0000
0100
0001
0010
0000
0001
0000
0100
0000
0010
0100
,
1000
1000
0001
0001
1001
1000
1001
0001
,
1001
0000
0000
0010
0100
0010
0100
0000
0001
0000
1000
0000
0010
0000
0100
0000
,
0001
0000
1000
0000
0100
0000
0010
0100
0001
0000
0000
1000
0001
0010
0100
0010
,
1000
0000
0000
0001
1000
0100
0010
0100
0001
0000
0000
0001
0000
0001
0000
0010
,
1000
0100
0000
0001
0000
1000
0000
1001
0000
0000
0001
0000
1001
1000
0000
0100
,
1000
0000
0100
0000
0000
0010
0000
0000
0001
0000
0100
0000
0000
1000
0000
0000
,
0010
0000
1000
0000
0000
0001
0000
0000
1000
0000
0100
0000
0000
0010
0000
0010
,
0100
0000
0001
0000
0000
1000
0000
0000
0010
0000
0100
0000
0000
1000
0000
0000
,
0001
0000
0100
0000
0000
0001
0000
0000
0010
0000
1000
0000
0000
0001
0000
0001
,
1000
0000
0010
0000
0000
0110
0000
0000
0001
0000
1000
0000
0000
1001
0000
0000
,
0001
0000
1000
0000
0000
0011
0000
0000
1000
0000
0100
0000
0000
1010
0000
0010
,
0100
0000
0001
0000
0000
1100
0000
0000
0010
0000
0100
0000
0000
0011
0000
0000
,
0010
0000
0100
0000
0000
1010
0000
0000
0010
0000
0100
0000
0000
0101
0000
0001
,
1000
0000
0010
0000
0000
1000
0000
1000
0100
0000
0010
0000
0000
0001
0000
0001
,
0100
0000
0010
0000
0000
1000
0000
1000
0010
0000
0100
0000
0000
0001
0000
1000
,
0010
0000
0100
0000
0000
1000
0000
0001
0100
0000
0010
0000
0000
1000
0000
0100
,
0010
0000
0001
0000
0000
0001
0000
0010
0100
0000
1000
0000
0000
0010
0000
1000
,
0001
0000
0100
0000
0000
0010
0000
1000
0100
0000
0001
0000
0000
0010
0000
0100
,
0001
0000
1000
0000
0000
0100
0000
0010
1000
0000
0100
0000
0000
0001
0000
0010
,
0100
0001
1000
0010
0100
0001
1001
0000
,
0001
0100
0010
1000
0001
1000
1001
0000
,
1000
0100
0100
0010
,
0001
0010
0010
0100
,
1000
0100
0010
0000
0001
0010
0100
0000
,
1000
0010
0100
0000
0001
0100
0010
0000
,
0001
0100
0100
0010
,
1000
0010
0010
0100
,
0001
0100
0010
0000
1000
0010
0100
0000
,
0001
0010
0100
0000
1000
0100
0010
0000
,
1001
0000
0000
0000
;

//---------------dance-single - ----------------
#NOTES:
     dance-single:
     :
     Medium:
     7:
     0.221819,0.225992,0.038434,0.030747,0.030747,202.000000,197.000000,5.000000,4.000000,0.000000,0.000000,0.221819,0.225992,0.038434,0.030747,0.030747,202.000000,197.000000,5.000000,4.000000,0.000000,0.000000:
0000
0000
0000
0000
,
0000
0000
0000
0000
,
0000
0000
0000
0000
,
0000
0000
0000
0000
,
0000
0000
0000
0000
,
0000
0000
1000
0000
0000
1000
0000
0000
0000
0000
0001
0000
0000
0001
0000
0000
,
0000
0000
0100
0000
0000
0100
0000
0000
0000
0000
0010
0000
0000
0010
0000
0000
,
0000
0000
1000
0000
0000
0100
0000
0000
0000
0000
0001
0000
0000
0100
0000
0000
,
0000
0000
1000
0000
0000
0010
0000
0000
0000
0000
0001
0000
0000
0010
0000
0000
,
0000
1000
0000
1000
0000
0100
0000
0100
,
0000
0001
0000
0001
0000
0100
0000
0100
,
0000
1000
0000
0010
0000
0001
0000
0100
,
0000
0001
0000
0010
0000
1000
0000
0100
,
0000
0010
0010
0010
0000
0001
0000
1000
,
0000
0100
0100
0100
0000
1000
0000
0001
,
0000
0100
0000
1000
0000
0010
0000
0001
,
0100
0100
0000
1000
0000
0010
0000
1000
,
0100
0100
0000
0001
0000
0100
0000
1000
,
0000
0010
0000
0100
0000
0001
0000
0100
,
0100
0100
0000
1000
0000
0010
0000
0001
,
0000
1000
0000
0100
0000
0001
0000
0010
,
0010
0010
0000
0100
0000
1000
0000
0001
,
0000
0100
0000
0010
0000
1000
0100
0100
,
0000
0001
0000
0010
0000
0001
0100
0100
,
0000
1000
0000
0100
0000
0010
0000
0001
,
0000
0100
0000
1000
1000
1000
0000
0010
,
0000
0100
0000
0001
0001
0001
0000
0010
,
0000
1000
0000
0100
0000
0010
0000
0011
,
0000
0001
0000
0010
0000
0100
0000
1100
,
0000
1000
0000
0100
0000
0010
0010
0001
,
0000
0010
0000
0100
0000
1000
1000
0100
,
0000
0001
0000
0011
0000
0100
0000
1000
,
0000
1000
0000
1100
0000
0010
0000
0001
,
0100
0010
0000
0010
0100
1000
0000
1000
,
0000
0100
0000
0010
0000
0001
0000
0010
,
0100
0001
0000
0001
0010
0100
0000
1000
,
0000
0100
0000
0010
0000
0001
0000
0100
,
0000
1000
0000
0010
0000
0001
0001
0010
,
0000
1000
0000
0100
0000
1000
1000
0010
,
0000
0100
0000
1000
0000
0001
0001
0100
,
0000
0010
0000
0100
0000
1000
1000
0100
,
0020
0130
0000
0100
,
2000
3001
0000
0001
,
0100
0100
0100
0000
0010
0000
1000
0000
,
0010
0010
0010
0000
0100
0000
0001
0000
,
2000
3001
0000
0001
,
0020
0130
0000
0100
,
0001
0001
0001
0000
0100
0000
0010
0000
,
1000
1000
1000
0000
0010
0000
0100
0000
,
1001
0000
0000
0000
;

//---------------dance-single - ----------------
#NOTES:
     dance-single:
     :
     Easy:
     4:
     0.127381,0.150661,0.023060,0.015374,0.000000,116.000000,113.000000,3.000000,2.000000,0.000000,0.000000,0.127381,0.150661,0.023060,0.015374,0.000000,116.000000,113.000000,3.000000,2.000000,0.000000,0.000000:
0000
0000
0000
0000
,
0000
0000
0000
0000
,
0000
0000
0000
0000
,
0000
0000
0000
0000
,
0000
0000
0000
0000
,
1000
1000
0000
0100
,
0000
0010
0000
0001
,
0001
0001
0000
0010
,
0000
0100
0000
1000
,
1000
0000
0010
0000
,
0100
0000
0001
0000
,
0010
0000
0010
0000
,
0100
0000
0100
0000
,
0001
0000
0100
0000
,
0010
0000
1000
0000
,
0010
0000
0010
0000
,
0100
0000
0100
0000
,
1000
0001
0001
0000
,
0100
0000
0010
0000
,
0001
1000
1000
0000
,
0010
0000
0100
0000
,
1000
0100
0010
0000
,
0001
0010
0100
0000
,
1001
0000
0100
0000
,
1001
0000
0010
0000
,
1000
0100
0100
0000
,
0001
0100
0100
0000
,
1000
0010
0010
0000
,
0001
0010
0010
0000
,
0100
1000
0100
0000
,
0010
0001
0010
0000
,
1000
0100
0010
0000
,
0001
0010
0100
0000
,
1000
1000
1000
0100
,
0001
0001
0002
0003
,
0001
0001
0001
0010
,
1000
1000
2000
3000
,
0100
0100
1000
0000
,
0100
0100
0001
0000
,
0010
0010
1000
0000
,
0010
0010
0001
0000
,
0100
0000
1000
0000
,
0100
0000
0001
0000
,
0010
0000
1000
0000
,
0010
0000
0001
0000
,
0100
0000
1000
0000
,
0010
0000
1000
0000
,
0100
0000
0001
0000
,
0010
0000
0001
0000
,
1001
0000
0000
0000
;

//---------------dance-single - ----------------
#NOTES:
     dance-single:
     :
     Beginner:
     1:
     0.063691,0.075331,0.007687,0.000000,0.000000,58.000000,57.000000,1.000000,0.000000,0.000000,0.000000,0.063691,0.075331,0.007687,0.000000,0.000000,58.000000,57.000000,1.000000,0.000000,0.000000,0.000000:
// measure 0
0000
0000
0000
0000
,  // measure 1
0000
0000
0000
0000
,  // measure 2
0000
0000
0000
0000
,  // measure 3
0000
0000
0000
0000
,  // measure 4
0000
0000
0000
0000
,  // measure 5
1000
0000
0000
0000
,  // measure 6
0001
0000
0000
0000
,  // measure 7
1000
0000
0000
0000
,  // measure 8
0001
0000
0000
0000
,  // measure 9
0100
0000
0100
0000
,  // measure 10
0100
0000
0000
0000
,  // measure 11
0010
0000
0010
0000
,  // measure 12
0010
0000
0000
0000
,  // measure 13
1000
0000
1000
0000
,  // measure 14
1000
0000
0000
0000
,  // measure 15
0001
0000
0001
0000
,  // measure 16
0001
0000
0000
0000
,  // measure 17
1000
0000
0000
0000
,  // measure 18
0010
0000
0000
0000
,  // measure 19
0100
0000
0000
0000
,  // measure 20
0001
0000
0000
0000
,  // measure 21
0001
0000
0000
0000
,  // measure 22
0100
0000
0000
0000
,  // measure 23
0010
0000
0000
0000
,  // measure 24
1000
0000
0000
0000
,  // measure 25
1000
0000
1000
0000
,  // measure 26
1000
0000
0000
0000
,  // measure 27
0001
0000
0001
0000
,  // measure 28
0001
0000
0000
0000
,  // measure 29
0100
0000
0100
0000
,  // measure 30
0100
0000
0000
0000
,  // measure 31
0010
0000
0010
0000
,  // measure 32
0010
0000
0000
0000
,  // measure 33
1000
0000
1000
0000
,  // measure 34
0100
0000
0000
0000
,  // measure 35
0001
0000
0001
0000
,  // measure 36
0010
0000
0000
0000
,  // measure 37
1000
0000
1000
0000
,  // measure 38
0010
0000
0000
0000
,  // measure 39
0001
0000
0001
0000
,  // measure 40
0100
0000
0000
0000
,  // measure 41
1000
0000
0000
0000
,  // measure 42
0001
0000
0000
0000
,  // measure 43
0100
0000
0000
0000
,  // measure 44
0010
0000
0000
0000
,  // measure 45
0001
0000
0000
0000
,  // measure 46
1000
0000
0000
0000
,  // measure 47
0010
0000
0000
0000
,  // measure 48
0100
0000
0000
0000
,  // measure 49
0110
0000
0000
0000
;
