#TITLE:Theme of Ricerca;
#SUBTITLE:;
#ARTIST:HuΣeR feat.ゆきまめ;
#TITLETRANSLIT:;
#SUBTITLETRANSLIT:;
#ARTISTTRANSLIT:HuΣeR feat.Yukimame;
#GENRE:Nostalgia;
#CREDIT:;
#BANNER:;
#BACKGROUND:;
#LYRICSPATH:;
#CDTITLE:;
#MUSIC:Theme of Ricerca.mp3;
#OFFSET:-0.114002;
#SAMPLESTART:78.960304;
#SAMPLELENGTH:15.000000;
#SELECTABLE:YES;
#DISPLAYBPM:62.000000:158.000000;
#BPMS:0.000000=88.000000
,12.000000=89.099998
,16.500000=90.759964
,17.000000=94.979973
,17.500000=100.159760
,18.000000=107.540184
,18.500000=112.580139
,19.000000=121.720032
,19.500000=131.660202
,20.000000=152.000107
,147.000000=145.380203
,148.000000=129.360168
,149.000000=112.940147
,150.000000=62.000000
,152.000000=153.540054
,152.250000=151.280334
,152.500000=152.000168
,208.000000=158.000046
,284.000000=140.000076
,288.000000=120.000046
;
#STOPS:
;
#BGCHANGES:;
#KEYSOUNDS:;
#ATTACKS:;

//---------------dance-single - ----------------
#NOTES:
     dance-single:
     :
     Hard:
     11:
     0.563721,0.523519,0.408754,0.188656,0.035373,426.000000,52.000000,24.000000,0.000000,0.000000,0.000000,0.563721,0.523519,0.408754,0.188656,0.035373,426.000000,52.000000,24.000000,0.000000,0.000000,0.000000:
0000
0000
0000
0000
,
0000
0000
0000
0000
,
0000
0000
0000
0000
,
2002
0000
3000
0000
,
0200
0000
0000
0303
,
0000
0000
1000
0001
0010
0000
0001
0010
,
1000
0000
0001
0010
1000
0000
0010
1000
,
0001
0000
0010
1000
0001
0010
1000
0100
,
0010
0100
0001
0010
0100
1000
0010
0100
,
0110
0000
0001
0010
0100
0000
1000
0100
,
0010
0000
0001
0010
0100
0000
1000
0100
,
0010
0000
0001
1000
0120
0000
0100
0000
,
0100
0100
0200
0000
,
0330
0000
1000
0001
0010
0000
0001
1000
,
0010
0000
0010
1000
0001
0100
0010
0100
,
1000
0000
0010
0100
0001
0010
0100
1000
,
0010
1000
0100
0010
1000
0001
0010
0100
,
1001
0000
0010
1000
0100
0000
0001
0100
,
0010
0000
1000
0010
0100
0000
0001
0100
,
1000
0000
0010
1000
0100
0001
0010
0100
,
1000
0010
0100
0001
1002
0000
1000
0000
,
1000
0000
1003
0000
1000
0010
0100
0001
,
1000
0000
1001
0000
0010
1000
0001
0100
,
0010
0000
0110
0000
0001
0010
0100
1000
,
0001
0000
1001
0000
1000
0010
0100
0001
,
0010
0000
0110
0000
0001
0010
0100
0000
,
1000
0100
0010
0000
0001
0100
1000
0000
,
1000
0000
0010
0000
0001
0000
0000
0000
0010
0000
0000
0000
1000
0000
0010
0100
,
0010
0000
0000
0100
0000
0000
0001
0000
1000
0000
0000
0000
1100
0000
0000
0000
,
0101
0000
0000
0000
1001
0000
0000
0000
0010
0000
0000
0000
1000
0000
0001
1000
,
0001
0000
0000
0010
0000
0000
0100
0000
0001
0000
0000
0000
1000
0000
0010
0100
,
0010
0000
0000
0100
0000
0000
0001
0000
0010
0000
0000
0000
1000
0000
0010
1000
,
0001
0000
0000
0010
0000
0000
1000
0000
0001
0000
0000
0000
1100
0000
0000
0000
,
0101
0000
1001
0000
0010
1000
0001
1000
,
0010
1000
0001
0000
0100
0001
1000
0001
,
0100
0001
1000
0000
0010
1000
0100
0010
,
0001
0010
0100
1000
1100
0000
0101
0000
,
1001
0000
0000
0000
0110
0000
0000
0000
2002
0000
0000
0000
3003
0000
1000
0001
,
0010
0000
0001
1000
0010
0000
1000
0001
,
0010
0000
0001
1000
0010
0000
0010
1000
,
0001
0010
1000
0100
0010
0100
0001
1000
,
0110
0000
1100
0000
0101
0000
0001
0100
,
1100
0000
1000
0100
0101
0000
0001
0010
,
1010
0000
0010
0001
0011
0000
0001
0010
,
0100
1000
0010
1000
0100
0001
0010
1000
,
0110
0000
0110
0000
0110
0000
1000
0010
,
0100
0000
0001
0010
0100
0000
1000
0100
,
0001
0000
0001
0100
1000
0000
0010
1000
,
0001
0100
0010
1000
0100
0010
0001
0100
,
0110
0000
1100
0000
0101
0000
0001
1000
,
0010
0000
0010
1000
0001
0000
0001
0100
,
1000
1000
0100
0001
0010
0000
0001
1000
,
1100
0000
1000
0010
0100
0001
0010
0001
,
0011
0000
0001
0100
0010
1000
0001
1000
,
1001
0000
0010
1000
0100
0010
0001
0010
,
0110
1100
0101
1001
,
0002
0000
1003
0010
0200
0000
0310
1000
,
0002
0000
0013
0100
2000
0000
3010
0100
,
0002
0000
0103
0010
1000
0100
0001
0100
,
1100
0000
0101
0100
0002
0000
0013
0100
,
2000
0000
3100
0010
0002
0000
0103
0010
,
2000
0000
3010
0100
0002
0000
0013
0100
,
1000
0000
0001
1000
0010
0100
0001
1000
,
1100
0101
1100
0101
,
0010
1000
0100
0010
0100
0001
0010
0100
,
1000
0010
1000
0100
1001
0000
0001
0100
,
0010
1000
0100
0010
1000
0100
0010
0001
,
1001
0000
1100
0000
0101
0000
0001
1000
,
0020
0000
0130
0001
2000
0000
3010
0100
,
0002
0000
1003
0010
0200
0000
0301
0100
,
0010
0000
1000
0010
0100
0001
0010
0100
,
1000
0000
1000
0010
0100
0001
0010
0100
,
0110
0000
0001
1000
0010
0100
0001
1000
,
0220
0000
0000
0000
,
0330
0000
0000
0000
;

//---------------dance-single - ----------------
#NOTES:
     dance-single:
     :
     Medium:
     9:
     0.454795,0.436266,0.385172,0.424475,0.000000,302.000000,49.000000,54.000000,0.000000,0.000000,0.000000,0.454795,0.436266,0.385172,0.424475,0.000000,302.000000,49.000000,54.000000,0.000000,0.000000,0.000000:
0000
0000
0000
0000
,
0000
0000
0000
0000
,
0000
0000
0000
0000
,
0220
0000
0000
0000
,
0330
0000
0000
0000
,
0000
0000
1001
0010
,
0100
0000
1000
0010
0100
0000
0001
0000
,
1001
0001
0100
0010
,
1000
0000
0010
0100
0001
0000
1000
0000
,
0110
0001
0100
1000
,
0010
0000
1000
0010
0100
0000
0001
0000
,
1001
0010
0210
0010
,
0010
0010
0020
0000
,
0330
0000
0001
0100
1000
0000
0101
0000
,
1001
0010
1000
0000
,
1001
0000
1000
0010
0001
0000
1000
0000
,
1100
0101
1001
0000
,
0110
0000
0001
0100
1000
0000
0010
0000
,
1000
0001
0110
0000
,
1100
0000
0001
1000
0010
0000
1000
0010
,
0001
0100
0020
0100
,
0100
0130
0001
1000
,
0010
0000
1000
0001
0010
0000
1000
0000
,
0010
0000
0100
0001
0010
0000
1000
0000
,
0001
0000
0010
0100
1000
0000
0100
0000
,
1100
0101
0010
1000
,
0001
0010
1000
0000
0001
0000
1000
0000
,
0010
0000
0100
0000
1001
0000
0010
1000
,
0001
0100
1001
1100
,
0101
1001
0020
1030
,
0001
0100
0020
0000
0130
0000
1000
0000
,
0001
0100
0010
0000
0002
0000
0103
0000
,
0010
1000
0002
0000
2003
0000
3020
0000
,
0230
0000
0302
0000
1003
0000
0010
1000
,
0002
0000
0103
0000
1000
0000
0001
0100
,
2000
0000
3010
0000
0001
1000
0010
0000
,
0010
1000
0001
0000
1100
0000
0001
0000
,
0011
0000
1000
0000
2002
0000
3003
0001
,
1000
0010
1000
0001
,
0100
0110
1100
0010
,
1000
0001
0100
0010
,
0110
0000
0011
0000
1001
0000
0010
1000
,
0001
0000
0100
0000
1001
0000
0010
1000
,
0001
0000
0110
0000
0110
0000
0001
0100
,
0010
0000
1000
0010
0100
0000
0001
0000
,
2000
0000
0001
0000
3001
0000
0001
0010
,
1000
0000
0010
0000
1001
0000
1000
0010
,
0100
0000
0001
0000
1100
0000
0001
1000
,
0010
1000
0001
0010
,
1100
0011
1001
0000
,
0001
0100
0010
0000
1000
0000
1001
0000
,
1000
0010
0100
0000
0001
0000
1001
0000
,
0020
1000
0001
0130
,
0200
0001
1000
0310
,
0002
2003
3020
0230
,
0301
1100
0202
0303
,
0002
0000
0103
0010
2000
0000
3010
0000
,
0002
0000
1003
0010
0200
0000
0310
0000
,
0001
0000
1000
0010
0200
0000
0310
0000
,
0002
2003
3020
0230
,
0302
0000
1003
0010
0200
0000
0301
0000
,
0010
0000
1000
0010
0002
0000
0103
0000
,
0010
0000
1000
0001
0100
0000
1000
0000
,
1100
0101
2002
3003
,
0002
0000
1003
0010
0200
0000
0310
1000
,
0002
0103
1001
0010
,
0100
0000
0001
1000
0020
0000
0130
0000
,
0002
0000
2000
3003
,
0002
0000
1003
0010
0100
0000
0002
0000
,
1003
0000
0010
0100
0020
0000
0130
0000
,
0002
0000
0000
0000
1003
0010
0100
0000
,
0102
0000
0000
0000
1003
0010
0100
0000
,
2100
0000
0000
0000
3010
0100
0001
0000
,
0220
0000
0000
0000
,
0330
0000
0000
0000
;

//---------------dance-single - ----------------
#NOTES:
     dance-single:
     :
     Easy:
     6:
     0.372819,0.349013,0.369450,0.267262,0.000000,251.000000,47.000000,34.000000,0.000000,0.000000,0.000000,0.372819,0.349013,0.369450,0.267262,0.000000,251.000000,47.000000,34.000000,0.000000,0.000000,0.000000:
0000
0000
0000
0000
,
0000
0000
0000
0000
,
0000
0000
0000
0000
,
2002
0000
0000
0000
,
3003
0000
0000
0000
,
0000
1000
0001
0000
,
1100
0000
0101
0010
,
0110
0000
1100
0001
,
1000
0010
0110
1001
,
0110
0000
1000
0001
,
1001
0000
0010
0100
,
0110
1000
2002
0000
,
0000
0000
3003
0000
,
0000
1000
1001
0010
,
1010
0001
1000
0010
,
0220
0330
0001
1000
,
0010
0000
1000
0000
1001
0000
0010
0010
,
0010
0001
1001
1000
,
1100
0000
1001
0001
,
0011
1000
0210
0010
,
0001
0001
2000
0000
,
0000
3300
0001
0100
,
1000
1100
1000
0100
,
0001
0101
0001
0010
,
1000
1010
1000
0010
,
0001
0011
0100
0010
,
1000
1000
0010
0100
,
0001
0001
0100
0010
,
1000
0001
2200
3300
,
0202
0303
0001
1000
,
0010
0010
0010
0000
0001
0000
0010
0000
,
1000
1000
1000
0000
0001
0000
1000
0000
,
0100
0100
0100
0000
1000
0000
0100
0000
,
0001
0001
0001
0000
0100
0000
0001
0000
,
2002
3003
0010
1000
,
2002
3003
1000
0100
,
0001
0100
1000
0100
,
0001
0000
0100
0000
2200
0000
3300
0001
,
1000
0000
1100
0000
,
0101
0000
1001
0010
,
1000
0010
0100
0001
,
0101
1100
0101
0010
,
1001
0000
1010
0001
,
1001
0000
0011
1000
,
1001
0100
0010
1000
,
0020
0100
0100
0130
,
0001
0100
0001
0100
,
1000
0100
1000
0000
,
1000
0100
1000
0100
,
0001
0100
0202
0303
,
1000
0010
1000
0010
,
0001
0010
0001
0000
,
0001
0010
0001
0010
,
1000
0010
2020
3030
,
0001
1000
0010
0100
,
0210
0010
0020
0330
,
0001
0100
1000
0100
,
0001
0100
1000
0100
,
1000
0010
0001
0010
,
1000
0010
0001
0010
,
0100
0010
1000
1001
,
0010
1000
0001
1001
,
0100
1000
0010
0001
,
0200
0010
0010
0310
,
0002
0103
0010
1000
,
0020
1030
0001
0100
,
2000
3010
0100
0001
,
0020
0100
0100
0130
,
0002
1003
0010
0100
,
2000
3001
0010
1000
,
1100
0000
1000
0000
0010
0000
0001
0001
,
0001
0000
0010
0000
0100
0000
1000
1000
,
1000
0000
0010
0000
1000
0000
0001
0001
,
2002
0000
0000
0000
,
3003
0000
0000
0000
;

//---------------dance-single - ----------------
#NOTES:
     dance-single:
     :
     Beginner:
     3:
     0.135877,0.174506,0.023582,0.055025,0.000000,111.000000,3.000000,7.000000,0.000000,0.000000,0.000000,0.135877,0.174506,0.023582,0.055025,0.000000,111.000000,3.000000,7.000000,0.000000,0.000000,0.000000:
// measure 0
0000
0000
0000
0000
,  // measure 1
0000
0000
0000
0000
,  // measure 2
0000
0000
0000
0000
,  // measure 3
0110
0000
0000
0000
,  // measure 4
0100
0000
0000
0000
,  // measure 5
0000
0000
1000
0000
,  // measure 6
0100
0000
1000
0000
,  // measure 7
0100
0000
0001
0000
,  // measure 8
0100
0000
0001
0000
,  // measure 9
0100
0000
1000
0000
,  // measure 10
0100
0000
1000
0000
,  // measure 11
0100
0000
0002
0000
,  // measure 12
0000
0000
2000
0000
,  // measure 13
3003
0000
0010
0000
,  // measure 14
0100
0000
0010
0000
,  // measure 15
0100
0000
0001
0000
,  // measure 16
1000
0000
0001
0000
,  // measure 17
1000
0000
0100
0000
,  // measure 18
1000
0000
0100
0000
,  // measure 19
1000
0000
0010
0000
,  // measure 20
0001
0000
0010
0000
,  // measure 21
0001
0000
0100
0000
,  // measure 22
0000
0000
0100
0000
,  // measure 23
0000
0000
0010
0000
,  // measure 24
0000
0000
0010
0000
,  // measure 25
0000
0000
1000
0000
,  // measure 26
0000
0000
1000
0000
,  // measure 27
0000
0000
0001
0000
,  // measure 28
0000
0000
0001
0000
,  // measure 29
0000
0000
0100
0000
,  // measure 30
0000
0000
1000
0000
,  // measure 31
0000
0000
0010
0000
,  // measure 32
0000
0000
0001
0000
,  // measure 33
0000
0000
0100
0000
,  // measure 34
0000
0000
1000
0000
,  // measure 35
0000
0000
0010
0000
,  // measure 36
0000
0000
0001
0001
,  // measure 37
0001
0001
0001
0000
,  // measure 38
0001
0000
0000
0000
,  // measure 39
1000
0000
0000
0000
,  // measure 40
0001
0000
0000
0000
,  // measure 41
1000
0000
0000
0000
,  // measure 42
0010
0000
0000
0000
,  // measure 43
0100
0000
0000
0000
,  // measure 44
0010
0000
0000
0000
,  // measure 45
0100
0000
0000
0000
,  // measure 46
1000
0000
0100
0000
,  // measure 47
1000
0000
0100
0000
,  // measure 48
0001
0000
0100
0000
,  // measure 49
0001
0000
0100
0000
,  // measure 50
1000
0000
0010
0000
,  // measure 51
1000
0000
0010
0000
,  // measure 52
0001
0000
0010
0000
,  // measure 53
0001
0000
0010
0000
,  // measure 54
0100
0000
0010
0000
,  // measure 55
0110
0000
0000
0000
,  // measure 56
1000
0000
1000
0000
,  // measure 57
1000
0000
0001
0000
,  // measure 58
1000
0000
1000
0000
,  // measure 59
0002
0000
0003
0000
,  // measure 60
0001
0000
0001
0000
,  // measure 61
0001
0000
1000
0000
,  // measure 62
0001
0000
0001
0000
,  // measure 63
2000
0000
3000
0000
,  // measure 64
0100
0000
0100
0000
,  // measure 65
0100
0000
0010
0000
,  // measure 66
0100
0000
0100
0000
,  // measure 67
0020
0000
0030
0000
,  // measure 68
0010
0000
0010
0000
,  // measure 69
0010
0000
0100
0000
,  // measure 70
0010
0000
0010
0000
,  // measure 71
0010
0000
0010
0000
,  // measure 72
0010
0000
0010
0000
,  // measure 73
0220
0000
0000
0000
,  // measure 74
0330
0000
0000
0000
;
