#TITLE:TOMORROW (IIDX Edition);
#SUBTITLE:;
#ARTIST:Remixed by まろん feat. ricono (From この素晴らしい世界に祝福を!);
#TITLETRANSLIT:;
#SUBTITLETRANSLIT:;
#ARTISTTRANSLIT:;
#GENRE:Anime/Game;
#CREDIT:;
#BANNER:;
#BACKGROUND:;
#LYRICSPATH:;
#CDTITLE:;
#MUSIC:TOMORROW (IIDX Edition).ogg;
#OFFSET:0.495000;
#SAMPLESTART:61.255035;
#SAMPLELENGTH:15.000000;
#SELECTABLE:YES;
#BPMS:0.000000=134.000000
;
#STOPS:
;
#BGCHANGES:;
#KEYSOUNDS:;
#ATTACKS:;

//---------------dance-single - ----------------
#NOTES:
     dance-single:
     :
     Easy:
     5:
     0.258305,0.273372,0.129152,0.387457,0.000000,210.000000,195.000000,15.000000,45.000000,0.000000,0.000000,0.258305,0.273372,0.129152,0.387457,0.000000,210.000000,195.000000,15.000000,45.000000,0.000000,0.000000:
0000
0000
0000
0000
,
0000
0000
0000
0000
,
0000
0000
0000
0000
,
0000
0000
0000
0000
,
0000
0000
0000
0000
,
1000
0100
0220
0330
,
0001
0010
0220
0330
,
2000
0000
3100
0010
,
0002
0000
0103
0010
,
2000
0000
3010
0100
,
0100
0010
1000
0001
,
0100
0001
0100
1000
,
0020
0100
0001
1030
,
0100
1000
0001
0010
,
0220
0330
2002
3003
,
0100
1000
0010
0001
,
0100
0010
0220
0330
,
0100
1000
0001
0010
,
1000
0100
0010
0001
,
0100
0001
1000
0010
,
0100
0001
0100
1000
,
0010
0100
0001
1000
,
1001
0000
0220
0330
,
0100
1000
0010
0001
,
0100
0100
0220
0330
,
0002
0100
0010
1003
,
2000
0010
0100
3001
,
0200
1000
0010
0301
,
0020
0001
0100
1030
,
2002
0000
0000
3003
,
0200
0000
0000
0300
,
0020
0000
0000
0030
,
2000
0000
0000
3000
,
0002
0000
0000
0000
,
1003
0000
0100
0000
,
0010
1000
0010
0001
,
0100
1000
0100
0001
,
0100
1000
0010
0001
,
0100
0010
1000
0001
,
0100
1000
0001
0010
,
1000
0100
0001
0010
,
0100
1000
0010
1000
,
0020
0100
0001
1030
,
0000
0001
1001
0100
,
1000
0010
0100
0001
,
0200
1000
0010
0301
,
0002
0010
0100
1003
,
0010
0100
0220
0330
,
1000
0001
2002
3003
,
0100
1000
0010
0001
,
0200
0000
0320
0000
,
2030
0000
0000
3001
,
0100
1000
0010
0010
,
0100
0001
0010
0010
,
0100
1000
0001
0001
,
0100
0010
0220
0330
,
1000
0100
0001
0001
,
0010
0100
1000
1000
,
0100
0001
1000
0010
,
0100
0001
2002
3003
,
0200
0000
1000
1300
,
0020
0000
0001
0031
,
0002
0000
1000
1003
,
0010
0100
0110
0000
;

//---------------dance-single - ----------------
#NOTES:
     dance-single:
     :
     Beginner:
     2:
     0.105782,0.162732,0.043051,0.180813,0.000000,86.000000,81.000000,5.000000,21.000000,0.000000,0.000000,0.105782,0.162732,0.043051,0.180813,0.000000,86.000000,81.000000,5.000000,21.000000,0.000000,0.000000:
0000
0000
0000
0000
,
0000
0000
0000
0000
,
0000
0000
0000
0000
,
0000
0000
0000
0000
,
0000
0000
0000
0000
,
1000
0000
0100
0000
,
1000
0000
0010
0000
,
0001
0000
0100
0000
,
0001
0000
0010
0000
,
0020
0000
0030
0000
,
0100
0000
0100
0000
,
0200
0000
0300
0000
,
0001
0000
0001
0000
,
0002
0000
0003
0000
,
1000
0000
1000
0000
,
2000
0000
3000
0000
,
0100
0000
1000
0000
,
0200
0000
0300
0000
,
0010
0000
0001
0000
,
0020
0000
0030
0000
,
1000
0000
0001
0000
,
2000
0000
3000
0000
,
0001
0000
1000
0000
,
0002
0000
0003
0000
,
2000
0000
3000
0000
,
0100
0000
1000
0000
,
0010
0000
0000
0000
,
0010
0000
0001
0000
,
0100
0000
0000
0000
,
1000
0000
0000
0000
,
0001
0000
0000
0000
,
0100
0000
0000
0000
,
0010
0000
0000
0000
,
1000
0000
1000
0000
,
0002
0000
0003
0000
,
0100
0000
0000
0000
,
1000
0000
0000
0000
,
0010
0000
0000
0000
,
0001
0000
0000
0000
,
1000
0000
0000
0000
,
0001
0000
0000
0000
,
0100
0000
0000
0000
,
0010
0000
0010
0000
,
0020
0000
0030
0000
,
0100
0000
0100
0000
,
0200
0000
0300
0000
,
0001
0000
0001
0000
,
0002
0000
0003
0000
,
1000
0000
1000
0000
,
2000
3000
0000
0000
,
0002
0003
0000
0000
,
0220
0000
0330
0000
,
1000
0000
0100
0000
,
2000
0000
3000
0000
,
0001
0000
0010
0000
,
0002
0000
0003
0000
,
0100
0000
0010
0000
,
0200
0000
0300
0000
,
0010
0000
0100
0000
,
0020
0000
0030
0000
,
1001
0000
0000
0000
,
1001
0000
0000
0000
,
1001
0000
0000
0000
,
1001
0000
0000
0000
;

//---------------dance-single - ----------------
#NOTES:
     dance-single:
     :
     Medium:
     7:
     0.332106,0.381968,0.198033,0.163593,0.004305,270.000000,247.000000,23.000000,19.000000,0.000000,0.000000,0.332106,0.381968,0.198033,0.163593,0.004305,270.000000,247.000000,23.000000,19.000000,0.000000,0.000000:
0000
0000
0000
0000
,
0000
0000
0000
0000
,
0000
0000
0000
0000
,
0000
0000
0000
0000
,
0000
0000
0000
0000
,
1000
0000
0100
0000
1000
1000
1000
0000
,
0001
0000
0010
0000
0001
0001
0001
0000
,
0100
0010
0100
0010
,
1000
0001
2002
3003
,
0100
0000
1000
0000
0010
0010
0010
0000
,
0100
0001
1000
1001
,
0100
0000
0001
0000
0010
0010
0010
0000
,
0100
1000
0001
1001
,
0100
1000
0010
0100
,
0002
2003
3020
0000
,
0130
1000
0001
0010
,
1000
0001
2002
3003
,
0100
1000
0010
0010
,
0100
0001
1000
1001
,
0010
0100
0001
0001
,
0100
0010
1000
1001
,
0100
0000
1000
0000
0010
0010
0010
0000
,
0100
0000
0001
0000
0010
0010
0010
0000
,
0200
1000
0010
0301
,
0010
0100
0220
0330
,
0001
0100
1000
1000
,
0100
0010
1001
1001
,
0010
1000
0100
0100
,
0001
1000
0110
0110
,
0002
0000
0103
1000
,
0020
0000
1030
0100
,
2000
0000
3010
0001
,
0200
0000
0301
1000
,
0010
0010
0100
0100
,
0220
0000
0000
0330
,
1000
0000
0100
0000
0001
0001
0001
0000
,
0010
0100
0001
1001
,
0100
0000
0010
0000
1000
1000
1000
0000
,
0010
0100
0001
1001
,
0100
0000
1000
0000
0010
0010
0010
0000
,
0100
0001
1000
1001
,
0100
0000
1000
0000
0010
0010
0010
0000
,
0100
0100
0100
0000
0001
0001
0001
0000
,
1000
0000
0001
0001
0001
0000
0100
0000
,
0010
1000
0001
1001
,
0100
1000
0010
0110
,
1000
0001
0100
0110
,
0001
0100
1100
1010
,
0010
0100
0011
0101
,
1000
0010
0001
0100
,
2000
0000
3002
0000
,
0203
0000
0010
0310
,
0001
0000
0100
0000
0010
0010
0100
0000
,
0001
0000
1000
0000
0001
0001
1000
0000
,
0100
0000
0010
0000
1000
1000
0010
0000
,
0100
0000
0001
0000
1000
1000
0001
0001
,
0010
0000
0100
0000
1000
0001
1000
0000
,
0010
0000
0100
0000
0001
1000
0001
0000
,
0100
0000
1000
0000
0010
1000
0010
0000
,
0100
0000
0001
0000
0100
0001
0100
0000
,
0001
0000
1000
0000
0010
0100
0010
0000
,
1000
0000
0001
0000
0100
0010
0100
0000
,
0001
0100
1000
0000
1000
0010
0001
0000
,
1000
0000
0000
0001
0000
0000
1001
0000
0000
0000
0000
0000
0000
0000
0000
0000
;

//---------------dance-single - ----------------
#NOTES:
     dance-single:
     :
     Hard:
     11:
     0.466178,0.491101,0.163593,0.180813,0.073186,379.000000,360.000000,19.000000,21.000000,0.000000,0.000000,0.466178,0.491101,0.163593,0.180813,0.073186,379.000000,360.000000,19.000000,21.000000,0.000000,0.000000:
// measure 0
0000
0000
0000
0000
,  // measure 1
0000
0000
0000
0000
,  // measure 2
0000
0000
0000
0000
,  // measure 3
0000
0000
0000
0000
,  // measure 4
0000
0000
0000
0000
,  // measure 5
1000
0010
0100
0010
1000
0010
0100
0000
,  // measure 6
0001
0100
0010
0100
0001
0100
0010
0000
,  // measure 7
1000
0100
0001
0010
1000
0100
0001
0010
,  // measure 8
1000
0000
0000
0001
0000
0000
1000
0000
0000
0000
0001
0000
0100
0000
0010
0000
,  // measure 9
1000
0000
1100
0000
1000
0010
0100
0001
,  // measure 10
0020
0230
0302
2003
,  // measure 11
3010
0100
0001
0000
0001
0100
0010
1000
,  // measure 12
0200
2300
3020
0032
,  // measure 13
0103
0010
1000
0000
0010
0100
0001
0000
,  // measure 14
0100
0000
0000
1000
0000
0000
0001
0000
0000
0000
0001
0000
1000
0000
0010
0000
,  // measure 15
0100
0000
0001
0000
1000
0000
0000
0010
0000
0100
0000
0010
0100
0000
0001
0000
,  // measure 16
1000
0000
0000
0010
0000
0000
0220
0000
0000
0000
0000
0000
0330
0000
0000
0000
,  // measure 17
0001
0100
1000
0100
0001
0100
1000
0100
,  // measure 18
0001
0010
1000
0010
0001
0010
1000
0010
,  // measure 19
0001
0100
0001
0100
0010
0100
0010
0100
,  // measure 20
1000
0010
1000
0010
0100
0010
0100
0010
,  // measure 21
0100
1000
0001
0010
1000
0100
0001
0010
,  // measure 22
0100
0000
0000
1000
0000
0000
0001
0000
0000
0000
1000
0000
0010
0000
0100
0000
,  // measure 23
0001
0000
0100
0000
1000
0000
0000
0010
0000
0100
0000
0010
0100
0000
0010
0000
,  // measure 24
1000
0000
0000
0001
0000
0000
2002
0000
0000
0000
0000
0000
3003
0000
0000
0000
,  // measure 25
0100
1000
1010
1010
,  // measure 26
0010
0001
0101
0101
,  // measure 27
0100
1000
1001
1001
,  // measure 28
0010
0001
1001
1001
,  // measure 29
0200
0000
0000
0000
1300
0010
0001
0000
,  // measure 30
0020
0000
0000
0000
0130
0001
1000
0000
,  // measure 31
0002
0000
0000
0000
0103
0010
1000
0000
,  // measure 32
2000
0000
0000
0000
3010
0100
0001
0100
,  // measure 33
0000
0000
1000
0000
0010
0000
0000
0000
0001
0000
0000
1000
0000
0000
2002
0000
,  // measure 34
0000
0000
3003
1001
,  // measure 35
0100
1000
0100
0001
0100
1000
0100
0001
,  // measure 36
0010
1000
0010
0001
0010
1000
0010
0001
,  // measure 37
0100
1000
0010
0100
0001
0100
0010
1000
,  // measure 38
0001
0100
0010
1000
0010
0100
1001
0000
,  // measure 39
0100
0000
1000
0000
0010
0000
0100
0000
0001
0000
0000
0001
0000
0000
0001
0000
,  // measure 40
0100
0000
0010
0000
0100
0000
0001
0000
1000
0000
0000
1000
0000
0000
1000
0000
,  // measure 41
0010
0100
1000
0000
0010
0100
0001
0000
,  // measure 42
0100
0010
1000
0001
0100
0010
1000
0001
,  // measure 43
0000
0000
1000
0001
1001
0000
0100
0010
,  // measure 44
1000
0010
0100
0000
0001
0100
0010
0000
,  // measure 45
1000
0010
0100
0001
0100
0010
1000
0000
,  // measure 46
0001
0100
0010
1000
0010
0100
0001
0000
,  // measure 47
1000
0100
0001
0010
0110
0000
0001
0100
,  // measure 48
0010
1000
0001
1000
0110
0000
0001
0100
,  // measure 49
1000
0010
1000
0001
0100
0010
1000
0100
,  // measure 50
0020
0000
0000
0000
0230
0000
0000
0000
0301
0000
0000
1000
0000
0000
0010
0000
,  // measure 51
0200
0000
0010
0310
,  // measure 52
0001
0100
1000
0100
0001
0100
1000
0000
,  // measure 53
1000
0010
0001
0010
1000
0010
0001
0000
,  // measure 54
1000
0010
0100
0000
0001
0100
0010
0000
,  // measure 55
1000
0001
0100
0010
1000
0001
1001
0000
,  // measure 56
0100
1000
0010
0100
0001
1000
0010
0000
,  // measure 57
0001
0100
0010
1000
0010
0100
0001
0000
,  // measure 58
0100
1000
0001
0010
1000
0100
0001
0000
,  // measure 59
0010
0000
0000
0100
0000
0000
1000
0000
0000
0000
0001
0000
1000
0000
0010
0000
,  // measure 60
0100
0001
0100
0000
1000
0010
1000
0001
,  // measure 61
0100
0010
0100
0000
0001
0100
0010
1000
,  // measure 62
0100
0010
1000
0000
0010
1000
0001
0100
,  // measure 63
0010
0000
0000
0100
0000
0000
0110
0000
0000
0000
0000
0000
0000
0000
0000
0000
;
