#TITLE:THE SAFARI -TAG Ver.-;
#SUBTITLE:;
#ARTIST:Lion Musashi remixed by TAG;
#TITLETRANSLIT:;
#SUBTITLETRANSLIT:;
#ARTISTTRANSLIT:;
#GENRE:beatmania IIDX;
#CREDIT:;
#BANNER:;
#BACKGROUND:;
#LYRICSPATH:;
#CDTITLE:;
#MUSIC:THE SAFARI -TAG Ver-.ogg;
#OFFSET:-0.305000;
#SAMPLESTART:56.038261;
#SAMPLELENGTH:15.000000;
#SELECTABLE:YES;
#BPMS:0.000000=155.000000
;
#STOPS:
;
#BGCHANGES:;
#KEYSOUNDS:;
#ATTACKS:;

//---------------dance-single - ----------------
#NOTES:
     dance-single:
     :
     Beginner:
     3:
     0.136769,0.248008,0.054708,0.018236,0.000000,105.000000,99.000000,6.000000,2.000000,0.000000,0.000000,0.136769,0.248008,0.054708,0.018236,0.000000,105.000000,99.000000,6.000000,2.000000,0.000000,0.000000:
0000
0000
0000
0000
,
0000
0000
0000
0000
,
0000
0000
0000
0000
,
0000
0000
0000
0000
,
0000
0000
0000
0000
,
1000
0000
0100
0000
,
1000
0000
0100
0000
,
0001
0000
0010
0000
,
0001
0000
0010
0000
,
0110
0000
0000
0000
,
0000
0000
0000
0000
,
1001
0000
0000
0000
,
0000
0000
0000
0000
,
0110
0000
0000
0000
,
0000
0000
0000
0000
,
1001
0000
0000
0000
,
0100
0000
0100
0000
,
1000
0000
0100
0000
,
1000
0000
0000
0000
,
0001
0000
0010
0000
,
0001
0000
0000
0000
,
0010
0000
0100
0000
,
0010
0000
0000
0000
,
1000
0000
0001
0000
,
1000
0000
0000
0000
,
1000
0000
0100
0000
,
0010
0000
0001
0000
,
1000
0000
0100
0000
,
0010
0000
0001
0000
,
0001
0000
0010
0000
,
0100
0000
1000
0000
,
0001
0000
0010
0000
,
0100
0000
1000
0000
,
0010
0000
0100
0000
,
0220
0000
0000
0000
,
0330
0000
0000
0000
,
1000
0000
0000
0000
,
0100
0000
0000
0000
,
1000
0000
0000
0000
,
0010
0000
0000
0000
,
1000
0000
0000
0000
,
0100
0000
0000
0000
,
1000
0000
0000
0000
,
0010
0000
0000
0000
,
0001
0000
0000
0000
,
0010
0000
0000
0000
,
0001
0000
0000
0000
,
0100
0000
0000
0000
,
0001
0000
0000
0000
,
0010
0000
0000
0000
,
0001
0000
0000
0000
,
0100
0000
0100
0000
,
0010
0000
1000
0000
,
0010
0000
0000
0000
,
0100
0000
0001
0000
,
0100
0000
0000
0000
,
0010
0000
1000
0000
,
0001
0000
0000
0000
,
0100
0000
0001
0000
,
1000
0000
0000
0000
,
0010
1000
0010
0000
,
0010
0001
0010
0000
,
0010
1000
0010
0000
,
0010
0001
0010
0000
,
0100
1000
0100
0000
,
0100
0001
0100
0000
,
0100
1000
0100
0000
,
0100
0001
0100
0000
,
1001
0000
0000
0000
;

//---------------dance-single - ----------------
#NOTES:
     dance-single:
     :
     Easy:
     6:
     0.315220,0.372012,0.182359,0.182359,0.000000,242.000000,222.000000,20.000000,20.000000,0.000000,0.000000,0.315220,0.372012,0.182359,0.182359,0.000000,242.000000,222.000000,20.000000,20.000000,0.000000,0.000000:
0000
0000
0000
0000
,
0000
0000
0000
0000
,
0000
0000
0000
0000
,
0000
0000
0000
0000
,
0000
0000
0000
0000
,
1000
0100
1000
0000
,
0010
0100
0010
0000
,
0001
0010
0001
0000
,
1000
0001
1000
0000
,
0100
0010
0200
0000
,
0310
0000
0010
0000
,
0010
0100
0020
0000
,
0130
0000
0100
0000
,
1000
0001
2000
0000
,
3001
0000
0001
0000
,
0001
1000
0002
0000
,
1003
0000
1000
0000
,
1000
0100
1000
0100
,
0010
0100
0220
0330
,
0001
0010
0001
0010
,
0100
0010
0220
0330
,
1000
0100
0010
0001
,
1000
0100
0022
0033
,
0001
0010
0100
1000
,
0001
0010
2200
3300
,
1000
0100
0001
0100
,
1000
0100
0001
0100
,
1000
0010
0001
0010
,
1000
0010
0001
0010
,
1000
0010
0100
0001
,
0100
0010
1000
0001
,
1000
0010
0100
0001
,
0100
0010
1000
0001
,
1000
0001
0100
0010
,
0110
0220
0000
0000
,
0330
0000
1001
1001
,
1000
0100
0001
0100
,
0010
0100
0010
0100
,
0010
0001
0010
1000
,
0001
1000
0001
1000
,
0001
0010
1000
0010
,
0001
0010
0100
0010
,
1000
0100
0001
0010
,
1000
0100
0001
0010
,
1000
0001
0010
0100
,
0001
0100
0010
1000
,
0100
1000
0010
0001
,
0100
0010
1000
0001
,
1000
0100
0001
0100
,
1000
0010
0001
0010
,
1000
0010
0100
0001
,
2002
0000
0000
3003
,
0001
0100
1000
0101
,
0100
0001
0010
1010
,
1000
0100
0001
0011
,
0001
0100
0010
1010
,
1000
0100
0001
0100
,
1000
0010
0001
0010
,
1000
0100
1000
0100
,
0010
0001
0010
0001
,
0210
0010
0310
0000
,
2001
0001
3001
0000
,
0012
0010
0013
0000
,
2100
0100
3100
0000
,
1000
0100
0010
0011
,
0001
0010
0100
1100
,
1000
0100
0001
0010
,
1000
0010
0100
0001
,
1001
0000
0000
0000
;

//---------------dance-single - ----------------
#NOTES:
     dance-single:
     :
     Medium:
     8:
     0.444174,0.496015,0.455897,0.082061,0.054708,341.000000,291.000000,50.000000,9.000000,0.000000,0.000000,0.444174,0.496015,0.455897,0.082061,0.054708,341.000000,291.000000,50.000000,9.000000,0.000000,0.000000:
0000
0000
0000
0000
,
0000
0000
0000
0000
,
0000
0000
0000
0000
,
0000
0000
0000
0000
,
0000
0000
0000
0000
,
0001
1000
2002
3003
,
0020
0000
0000
0130
0000
0000
1000
0000
,
0010
0000
0100
0001
0000
1000
0000
0020
,
0000
0000
0100
0130
,
0001
0000
0100
0000
0010
0000
1000
0000
0000
2000
0000
0000
0000
0000
0000
0000
,
0000
0000
0000
3000
,
1000
0000
0010
0000
0100
0000
0001
0000
0000
0002
0000
0000
0000
0000
0000
0000
,
0000
0000
0000
0003
,
0001
0000
0010
0000
0100
0000
1000
0000
0000
2000
0000
0000
0000
0000
0000
0000
,
0000
0000
0000
3000
,
1000
0000
0100
0000
0010
0000
0001
0000
0000
0002
0000
0000
0000
0000
0000
0000
,
0000
0000
0000
1003
,
0001
0100
0010
0000
1000
0000
1001
0000
,
1000
0010
0100
0000
0001
0000
1001
0000
,
1000
0100
1000
0000
0001
0100
0001
0000
,
1000
0010
1000
0000
0001
0010
0001
0000
,
0001
1000
0010
0000
1000
0000
1001
0000
,
1000
0010
0100
0000
0001
0000
0011
0000
,
0001
0100
1000
0000
1000
0100
0001
0000
,
0001
0010
1000
0000
1000
0010
0001
0000
,
1000
0010
0100
1001
,
0001
0100
0010
0110
,
1000
0001
0100
0011
,
0001
0100
0010
1100
,
1000
0100
0001
0000
0100
0000
1001
0000
,
0001
0100
1000
0000
0010
0000
1001
0000
,
1000
0100
0001
0000
1000
0000
1001
0000
,
0001
0100
1000
0000
0001
0000
1001
0000
,
0001
1000
0001
0000
0010
0100
0010
0000
,
1000
2100
0000
0000
,
0100
0100
3100
1001
,
0001
1000
0010
0000
1000
0000
1001
0000
,
1000
0010
1000
0000
0001
0000
0011
0000
,
0001
0100
1000
0000
0001
0000
1001
0000
,
1000
0010
0100
0000
0001
0000
1001
0000
,
1000
0100
0001
0000
1000
0000
1001
0000
,
0001
0010
1000
0000
0001
0000
1001
0000
,
1000
0100
0001
0000
0001
0100
1000
0000
,
1100
0101
1100
0101
,
0001
0100
0010
1000
0001
0000
1001
0000
,
1000
0010
0100
0001
1000
0000
1001
0000
,
0100
1000
0100
0001
0100
0000
0101
0000
,
0001
0010
1000
0010
0001
0000
1001
0000
,
0010
0000
1000
0000
0010
1000
0001
0000
,
1000
0000
0001
0000
0100
0001
1000
0000
,
0010
0000
0100
0000
0001
1000
0010
0000
,
0011
1010
0011
1010
,
1000
0010
0100
0001
1000
0000
1001
0000
,
0001
0100
0010
1000
0001
0000
1001
0000
,
1000
0100
0001
0100
1000
0000
1001
0000
,
0001
0010
1000
0010
0001
0000
1001
0000
,
1000
0100
0001
0010
1000
0000
1001
0000
,
0001
0010
1000
0100
0001
0000
1001
0000
,
1000
0000
0010
0000
0100
0001
1000
0000
,
1010
0011
1100
0101
,
0001
0000
0000
0100
0000
0000
1000
0000
0000
0001
0000
0000
1000
0000
0000
0000
,
1000
0000
0000
0010
0000
0000
0001
0000
0000
1000
0000
0000
0001
0000
0000
0000
,
0100
0000
0000
0010
0000
0000
1000
0000
0000
0001
0000
0000
0110
0000
0000
0000
,
0001
0000
0000
0100
0000
0000
0010
0000
0000
1000
0000
0000
1001
0000
0000
0000
,
1000
0100
0001
1001
,
0001
0100
1000
1001
,
1000
0010
0100
0110
,
0001
0010
0100
0110
,
1001
0000
0000
0000
;

//---------------dance-single - ----------------
#NOTES:
     dance-single:
     :
     Hard:
     12:
     0.593968,0.682021,0.291774,0.063826,0.218830,456.000000,424.000000,32.000000,7.000000,0.000000,0.000000,0.593968,0.682021,0.291774,0.063826,0.218830,456.000000,424.000000,32.000000,7.000000,0.000000,0.000000:
// measure 0
0000
0000
0000
0000
,  // measure 1
0000
0000
0000
0000
,  // measure 2
0000
0000
0000
0000
,  // measure 3
0000
0000
0000
0000
,  // measure 4
0000
0000
0000
0000
,  // measure 5
0000
1001
0110
0000
,  // measure 6
1100
0000
0000
0101
0000
0000
0001
0010
,  // measure 7
0100
0000
1000
0010
0000
1000
0000
2002
,  // measure 8
0000
0000
0000
3003
,  // measure 9
0001
0000
0010
0000
0100
0000
1000
0100
0000
1000
0200
0000
0000
0000
0000
0000
,  // measure 10
0000
0000
0000
0000
,  // measure 11
0301
0000
0010
0000
0100
0000
1000
0100
0000
1000
0200
0000
0000
0000
0000
0000
,  // measure 12
0000
0000
0000
0000
,  // measure 13
1300
0000
0100
0000
0010
0000
0001
0010
0000
0001
0020
0000
0000
0000
0000
0000
,  // measure 14
0000
0000
0000
0000
,  // measure 15
1030
0000
0100
0000
0010
0000
0001
0010
0000
0001
0020
0000
0000
0000
0000
0000
,  // measure 16
0000
0000
0030
1001
,  // measure 17
0001
0010
0100
1000
0010
0100
1001
0000
,  // measure 18
1000
0100
0010
0100
0001
1000
1001
0000
,  // measure 19
1000
0100
0001
0100
1000
0100
0101
0000
,  // measure 20
0001
0010
1000
0010
0001
0010
1010
0000
,  // measure 21
0001
0010
0100
1000
0100
1000
1001
0000
,  // measure 22
0010
1000
0100
0010
0001
0010
0011
0000
,  // measure 23
0001
0100
1000
0010
0100
0001
1001
0000
,  // measure 24
1000
0010
0001
0100
0010
1000
1001
0000
,  // measure 25
1000
0000
0000
0100
0000
0000
0010
0000
0000
0001
0000
0000
0001
0000
1001
0000
,  // measure 26
0001
0000
0000
0010
0000
0000
0100
0000
0000
1000
0000
0000
1000
0000
1001
0000
,  // measure 27
1000
0000
0000
0100
0000
0000
0001
0000
0000
0100
0000
0000
1000
0000
1100
0000
,  // measure 28
0100
0000
0000
0010
0000
0000
0001
0000
0000
0010
0000
0000
0001
0000
0011
0000
,  // measure 29
0010
0000
0000
1000
0000
0000
0100
0000
0000
0001
0000
0000
1000
0000
1001
0000
,  // measure 30
0001
0000
0000
0010
0000
0000
0100
0000
0000
1000
0000
0000
0010
0000
0110
0000
,  // measure 31
0100
0000
0000
0010
0000
0000
1000
0000
0000
0010
0000
0000
0100
0000
0001
0000
,  // measure 32
0010
0200
0010
0010
,  // measure 33
0010
0010
0010
0310
,  // measure 34
0001
0010
0100
1000
0010
1000
0100
0010
,  // measure 35
0001
0100
0010
1000
0001
1000
1001
0000
,  // measure 36
1000
0100
0001
0100
1000
0100
0001
0100
,  // measure 37
1000
0010
0001
0010
1000
0010
0001
0010
,  // measure 38
1000
0100
0010
0100
1000
0100
0010
0100
,  // measure 39
0010
0001
0010
0100
0010
0001
0010
0100
,  // measure 40
0010
1000
0100
0010
0100
0001
0010
0100
,  // measure 41
1000
0010
1000
0100
0001
0010
0100
1000
,  // measure 42
0010
0010
1000
1000
0001
0001
0100
0100
,  // measure 43
0101
1100
0011
1010
,  // measure 44
0010
0000
1000
0000
0001
0000
1000
0010
1000
0010
1000
0000
0001
0000
1000
0000
,  // measure 45
0010
0000
0100
0000
0001
0000
1000
0001
1000
0001
1000
0000
0010
0000
1000
0000
,  // measure 46
0100
0000
0010
0000
1000
0000
0001
0100
0001
0100
0001
0000
1000
0000
0010
0000
,  // measure 47
0001
0000
0100
0000
1000
0000
0100
0010
0100
0010
0100
0000
0001
0000
1000
0000
,  // measure 48
0010
0000
0100
0000
0001
0000
1000
0100
0010
0100
1000
0000
0100
0000
0001
0000
,  // measure 49
1000
0000
0010
0000
0100
0000
0001
0010
0100
0010
0001
0000
0100
0000
0010
0000
,  // measure 50
1000
0000
0100
0000
0001
0000
0010
0100
0010
0100
0010
0000
0001
0000
1000
0000
,  // measure 51
1010
1001
0101
1001
,  // measure 52
0001
0100
1000
0100
0001
0100
1000
0100
,  // measure 53
0001
0010
1000
0010
0001
0010
1000
0010
,  // measure 54
0001
1000
0010
1000
0001
1000
0010
1000
,  // measure 55
0001
0100
0001
1000
0001
0100
0001
1000
,  // measure 56
0001
0100
1000
0100
0001
0100
1000
0100
,  // measure 57
0001
0010
1000
0010
0001
0010
1000
0010
,  // measure 58
0001
1000
0001
1000
0010
0100
0010
0100
,  // measure 59
1000
1100
0101
1001
,  // measure 60
0001
0000
1000
0001
0000
0000
0001
0000
1000
0010
0000
0000
1000
0000
0010
0000
,  // measure 61
0100
0000
0001
0010
0000
0000
0001
0000
0100
0010
0000
0000
1000
0000
0010
0000
,  // measure 62
0100
0000
0001
1000
0000
0000
1000
0000
0010
1000
0000
0000
0100
0000
0001
0000
,  // measure 63
0010
0000
0100
0001
0000
0000
0001
0000
1000
0001
0000
0000
0010
0000
1000
0000
,  // measure 64
0100
0001
0010
0100
1000
0001
1000
0010
,  // measure 65
0100
0001
1000
0010
1000
0100
0001
0010
,  // measure 66
0100
1000
0010
0100
0001
0010
1000
0100
,  // measure 67
0010
0000
1000
0100
1000
0000
0010
0100
0010
0000
0001
0010
0001
0000
1000
0001
,  // measure 68
1000
0000
0000
0000
;
